osu file format v14

[General]
AudioFilename: yukitoki TVsize.mp3
AudioLeadIn: 1000
PreviewTime: 56449
Countdown: 0
SampleSet: Soft
StackLeniency: 0.7
Mode: 0
LetterboxInBreaks: 0
WidescreenStoryboard: 0

[Editor]
DistanceSpacing: 1.5
BeatDivisor: 4
GridSize: 4
TimelineZoom: 1.6

[Metadata]
Title:Yukitoki (TV Size)
TitleUnicode:ユキトキ (TV Size)
Artist:yanaginagi
ArtistUnicode:やなぎなぎ
Creator:Pandiar
Version:Insane
Source:Yahari Ore no Seishun Love Come wa Machigatteiru.
Tags:op oregairu yahari yanaginagi 0gre sosuyakisoba my youth romantic comedy is wrong as i expected machigatte iru brains base
BeatmapID:239842
BeatmapSetID:87877

[Difficulty]
HPDrainRate:7
CircleSize:4
OverallDifficulty:7
ApproachRate:9
SliderMultiplier:1.7
SliderTickRate:1

[Events]
//Background and Video events
0,0,"oregairu.jpg",0,0
Video,0,"yukitoki TVsize.avi"
//Break Periods
//Storyboard Layer 0 (Background)
//Storyboard Layer 1 (Fail)
//Storyboard Layer 2 (Pass)
//Storyboard Layer 3 (Foreground)
//Storyboard Sound Samples

[TimingPoints]
658,363.636363636364,4,2,1,40,1,0
6839,-133.333333333333,4,2,1,20,0,0
7930,-100,4,2,1,65,0,0
20321,363.636363636364,4,2,1,40,1,0
26139,-100,4,2,1,40,0,0
31940,363.636363636364,4,2,1,55,1,0
42121,361.44578313253,4,2,1,50,1,0
43566,363.636363636364,4,2,1,50,1,0
49390,363.636363636364,4,2,1,50,1,0
52299,-100,4,2,1,55,0,0
55420,363.636363636364,4,2,1,60,1,0
56299,363.636363636364,4,2,1,60,1,0
56657,363.636363636364,4,2,1,80,1,1
79929,-100,4,2,1,70,0,0
88475,-100,4,2,1,5,0,0

[Colours]
Combo1 : 99,122,252
Combo2 : 65,252,145
Combo3 : 250,122,221
Combo4 : 149,124,235
Combo5 : 250,132,35
Combo6 : 156,217,74
Combo7 : 251,94,117

[HitObjects]
316,180,658,6,0,L|232:176,1,85
224,296,1021,2,0,L|140:292,1,85
64,196,1385,2,0,P|60:116|60:88,1,85
240,44,1748,2,0,P|244:124|244:152,1,85
344,112,2112,6,0,P|416:100|456:92,1,85
336,244,2476,2,0,P|408:232|448:224,1,85,2|0,0:0|0:0,0:0:0:0:
240,44,2839,2,0,L|184:116,1,85
112,220,3203,1,2,0:0:0:0:
112,220,3567,5,0,0:0:0:0:
140,120,3748,1,0,0:0:0:0:
244,224,3930,1,2,0:0:0:0:
108,308,4112,1,0,0:0:0:0:
108,168,4294,2,0,P|104:120|104:76,1,85
284,148,4658,2,0,P|288:196|288:240,1,85,2|0,0:0|0:0,0:0:0:0:
188,332,5021,6,0,P|132:320|100:304,1,85,0|0,0:0|0:0,0:0:0:0:
124,216,5385,2,0,P|180:204|212:188,1,85,2|0,0:0|0:0,0:0:0:0:
348,132,5748,1,0,0:0:0:0:
284,316,5930,1,0,0:0:0:0:
204,192,6112,1,2,0:0:0:0:
148,316,6294,1,0,0:0:0:0:
132,156,6476,1,4,0:0:0:0:
132,156,6839,6,0,L|128:92,1,63.7500024318696
348,132,7203,2,0,L|352:216,1,63.7500024318696
276,276,7567,1,2,0:0:0:0:
252,280,7658,1,0,0:0:0:0:
228,284,7748,1,0,0:0:0:0:
204,288,7839,1,0,0:0:0:0:
180,292,7930,6,0,L|92:308,1,85,12|0,0:0|0:0,0:0:0:0:
284,196,8294,1,0,0:0:0:0:
132,156,8476,2,0,P|128:112|128:64,1,85,12|0,0:0|0:0,0:0:0:0:
180,292,8839,1,0,0:0:0:0:
284,196,9021,2,0,L|368:188,1,85,8|0,0:0|0:0,0:0:0:0:
492,100,9385,1,0,0:0:0:0:
448,244,9567,2,0,P|464:284|492:332,2,85,8|8|0,0:0|0:0|0:0,0:0:0:0:
492,100,10112,1,8,0:0:0:0:
344,160,10294,2,0,L|280:172,5,42.5
284,196,10839,6,0,P|268:232|240:276,1,85,12|0,0:0|0:0,0:0:0:0:
112,292,11203,1,0,0:0:0:0:
176,160,11385,2,0,P|136:144|92:148,1,85,12|0,0:0|0:0,0:0:0:0:
112,292,11748,1,0,0:0:0:0:
256,324,11930,6,0,P|320:336|388:320,1,127.5,8|8,0:0|0:0,0:0:0:0:
404,276,12294,2,0,P|408:236|408:184,1,85,0|8,0:0|0:0,0:0:0:0:
344,60,12658,2,0,L|308:16,2,42.5,8|0|0,0:0|0:0|0:0,0:0:0:0:
388,180,13021,1,8,0:0:0:0:
392,204,13112,1,0,0:0:0:0:
396,228,13203,1,0,0:0:0:0:
400,252,13294,1,0,0:0:0:0:
404,276,13385,2,0,L|412:324,3,42.5
368,300,13748,6,0,P|288:328|200:304,1,170,4|8,0:0|0:0,0:0:0:0:
112,256,14294,1,0,0:0:0:0:
112,256,14385,1,0,0:0:0:0:
112,256,14476,2,0,B|136:152,1,85,8|0,0:0|0:0,0:0:0:0:
188,44,14839,5,8,0:0:0:0:
92,168,15021,1,0,0:0:0:0:
260,160,15203,1,8,0:0:0:0:
124,92,15385,1,0,0:0:0:0:
296,88,15567,5,8,0:0:0:0:
220,228,15748,1,0,0:0:0:0:
164,80,15930,1,8,0:0:0:0:
60,212,16112,1,0,0:0:0:0:
268,220,16294,1,8,0:0:0:0:
164,80,16476,1,0,0:0:0:0:
148,208,16658,6,0,P|148:256|152:304,1,85,12|0,0:0|0:0,0:0:0:0:
268,220,17021,1,8,0:0:0:0:
352,132,17203,1,0,0:0:0:0:
352,132,17294,1,0,0:0:0:0:
352,132,17385,2,0,P|408:128|452:128,1,85,8|0,0:0|0:0,0:0:0:0:
292,316,17748,2,0,P|236:320|192:320,1,85,8|0,0:0|0:0,0:0:0:0:
96,248,18112,5,8,0:0:0:0:
272,280,18294,1,0,0:0:0:0:
144,152,18476,1,8,0:0:0:0:
168,328,18658,1,0,0:0:0:0:
248,172,18839,1,8,0:0:0:0:
96,248,19021,1,0,0:0:0:0:
272,280,19203,2,0,L|324:280,2,42.5,2|0|0,0:0|0:0|0:0,0:0:0:0:
452,220,20321,6,0,P|408:136|320:144,1,170,2|0,0:0|0:0,0:0:0:0:
228,184,20866,1,0,0:0:0:0:
156,52,21048,1,0,0:0:0:0:
156,52,21139,1,0,0:0:0:0:
156,52,21230,2,0,L|120:152,1,85
100,248,21593,2,0,L|-4:248,2,85,0|2|0,0:0|0:0|0:0,0:0:0:0:
228,248,22139,1,0,0:0:0:0:
228,120,22321,1,0,0:0:0:0:
340,184,22502,1,0,0:0:0:0:
340,184,22866,5,0,0:0:0:0:
228,248,23048,1,0,0:0:0:0:
144,152,23230,2,0,P|136:108|120:68,2,85,2|0|0,0:0|0:0|0:0,0:0:0:0:
228,248,23775,1,0,0:0:0:0:
228,248,23957,2,0,P|304:288|384:252,1,170
476,164,24502,1,0,0:0:0:0:
364,100,24684,2,0,L|272:112,1,85,2|0,0:0|0:0,0:0:0:0:
64,264,25048,1,0,0:0:0:0:
164,160,25230,1,0,0:0:0:0:
168,320,25411,1,0,0:0:0:0:
168,320,26139,6,0,P|172:280|176:220,1,85,2|0,0:0|0:0,0:0:0:0:
244,52,26502,1,0,0:0:0:0:
132,104,26684,1,0,0:0:0:0:
228,192,26866,2,0,P|312:224|384:192,1,170
440,116,27411,1,0,0:0:0:0:
440,116,27502,1,0,0:0:0:0:
440,116,27593,2,0,P|384:180|404:260,1,170,2|0,0:0|0:0,0:0:0:0:
352,304,28139,2,0,P|308:316|264:304,1,85
164,140,28502,1,0,0:0:0:0:
308,248,28684,1,0,0:0:0:0:
308,248,29048,6,0,P|348:160|324:80,1,170,2|0,0:0|0:0,0:0:0:0:
212,68,29593,1,0,0:0:0:0:
192,188,29775,2,0,L|296:188,1,85
88,184,30139,1,0,0:0:0:0:
88,184,30502,6,0,P|156:224|240:176,1,170,2|0,0:0|0:0,0:0:0:0:
332,104,31048,1,0,0:0:0:0:
380,224,31230,1,0,0:0:0:0:
380,224,31321,1,0,0:0:0:0:
380,224,31411,1,0,0:0:0:0:
464,128,31593,1,8,0:0:0:0:
272,52,31940,5,4,0:0:0:0:
168,120,32121,1,0,0:0:0:0:
168,120,32212,1,0,0:0:0:0:
168,120,32303,2,0,P|128:140|68:160,1,85,8|0,0:0|0:0,0:0:0:0:
212,228,32667,1,0,0:0:0:0:
320,280,32849,1,0,0:0:0:0:
320,280,32940,1,0,0:0:0:0:
320,280,33030,2,0,P|360:276|404:276,1,85,8|0,0:0|0:0,0:0:0:0:
204,312,33394,5,0,0:0:0:0:
200,284,33485,1,0,0:0:0:0:
204,256,33576,1,0,0:0:0:0:
212,228,33667,1,0,0:0:0:0:
224,200,33758,2,0,P|244:168|260:112,1,85,8|0,0:0|0:0,0:0:0:0:
88,112,34121,1,0,0:0:0:0:
88,112,34212,1,0,0:0:0:0:
88,112,34303,1,0,0:0:0:0:
212,228,34485,1,8,0:0:0:0:
320,92,34667,1,0,0:0:0:0:
388,224,34849,6,0,P|360:304|280:336,1,170,0|8,0:0|0:0,0:0:0:0:
144,256,35394,1,0,0:0:0:0:
280,232,35576,1,0,0:0:0:0:
184,116,35758,1,0,0:0:0:0:
320,92,35940,1,8,0:0:0:0:
320,92,36030,1,0,0:0:0:0:
320,92,36121,1,0,0:0:0:0:
148,184,36303,6,0,L|96:180,2,42.5
272,284,36667,1,8,0:0:0:0:
272,284,36758,1,0,0:0:0:0:
272,284,36849,1,0,0:0:0:0:
272,116,37030,2,0,L|336:180,1,85,0|0,0:0|0:0,0:0:0:0:
436,228,37394,1,8,0:0:0:0:
404,112,37576,1,0,0:0:0:0:
300,160,37758,6,0,B|176:312,1,170,0|8,0:0|0:0,0:0:0:0:
64,292,38303,2,0,L|136:200,1,85
196,132,38667,1,0,0:0:0:0:
92,60,38849,2,0,P|92:108|76:156,1,85,8|0,0:0|0:0,0:0:0:0:
0,228,39212,2,0,P|72:264|164:220,1,170,0|8,0:0|0:0,0:0:0:0:
236,140,39758,1,0,0:0:0:0:
152,236,39940,1,0,0:0:0:0:
236,140,40121,1,0,0:0:0:0:
224,320,40303,2,0,P|268:320|312:300,1,85,8|0,0:0|0:0,0:0:0:0:
432,160,40667,6,0,P|352:184|260:152,1,170,0|8,0:0|0:0,0:0:0:0:
148,116,41212,1,0,0:0:0:0:
312,72,41394,2,0,P|364:132|344:224,1,170,0|8,0:0|0:0,0:0:0:0:
224,320,41940,1,0,0:0:0:0:
112,216,42121,5,0,0:0:0:0:
244,140,42301,1,8,0:0:0:0:
244,140,42392,1,0,0:0:0:0:
244,140,42482,1,0,0:0:0:0:
256,292,42663,1,8,0:0:0:0:
112,256,42843,5,8,0:0:0:0:
112,256,42934,1,0,0:0:0:0:
112,256,43024,1,0,0:0:0:0:
212,124,43205,1,0,0:0:0:0:
288,284,43386,1,8,0:0:0:0:
288,284,43476,1,0,0:0:0:0:
288,284,43566,6,0,P|208:312|128:284,1,170,4|0,0:0|0:0,0:0:0:0:
130,285,44111,1,0,0:0:0:0:
40,160,44293,1,8,0:0:0:0:
130,285,44475,1,0,0:0:0:0:
176,140,44656,1,0,0:0:0:0:
404,140,44838,1,2,0:0:0:0:
404,140,45202,6,0,L|356:224,1,85,0|0,0:0|0:0,0:0:0:0:
288,284,45566,1,0,0:0:0:0:
244,184,45747,1,8,0:0:0:0:
244,184,45838,1,0,0:0:0:0:
244,184,45929,2,0,L|128:216,1,85
52,228,46293,1,0,0:0:0:0:
120,124,46475,2,0,P|160:112|208:108,1,85,2|0,0:0|0:0,0:0:0:0:
368,212,46838,2,0,P|328:224|280:228,1,85,0|0,0:0|0:0,0:0:0:0:
120,124,47202,2,0,P|68:164|80:272,1,170,8|0,0:0|0:0,0:0:0:0:
144,344,47747,1,2,0:0:0:0:
276,324,47929,5,0,0:0:0:0:
264,176,48111,1,2,0:0:0:0:
264,176,48202,1,0,0:0:0:0:
264,176,48293,1,0,0:0:0:0:
164,164,48475,1,0,0:0:0:0:
368,180,48656,1,8,0:0:0:0:
204,272,48838,1,0,0:0:0:0:
244,56,49020,1,0,0:0:0:0:
264,176,49202,1,0,0:0:0:0:
260,196,49293,1,0,0:0:0:0:
256,216,49390,6,0,P|168:240|96:196,1,170,4|0,0:0|0:0,0:0:0:0:
36,112,49935,2,0,P|30:67|20:20,2,85,0|8|0,0:0|0:0|0:0,0:0:0:0:
8,236,50480,2,0,P|44:240|100:256,1,85
176,332,50844,5,0,0:0:0:0:
256,216,51026,1,0,0:0:0:0:
88,184,51208,1,0,0:0:0:0:
148,32,51390,1,0,0:0:0:0:
252,116,51571,1,8,0:0:0:0:
252,116,51662,1,0,0:0:0:0:
252,116,51753,2,0,L|372:116,1,85
476,164,52117,1,0,0:0:0:0:
476,164,52299,6,0,P|452:256|384:300,1,170,4|8,0:0|0:0,0:0:0:0:
248,316,52844,1,0,0:0:0:0:
248,316,52935,1,0,0:0:0:0:
248,316,53026,2,0,L|160:268,1,85,8|0,0:0|0:0,0:0:0:0:
52,196,53390,2,0,L|116:132,1,85,8|0,0:0|0:0,0:0:0:0:
228,44,53753,1,8,0:0:0:0:
112,136,53935,1,0,0:0:0:0:
260,160,54117,1,0,0:0:0:0:
144,252,54299,1,4,0:0:0:0:
144,252,54480,6,0,L|80:320,1,85,0|0,0:0|0:0,0:0:0:0:
248,316,54844,1,0,0:0:0:0:
64,224,55026,1,0,0:0:0:0:
264,224,55208,1,2,0:0:0:0:
196,92,55420,1,0,0:0:0:0:
144,288,55601,1,0,0:0:0:0:
356,284,55783,5,0,0:0:0:0:
388,256,55874,1,0,0:0:0:0:
400,216,55965,1,0,0:0:0:0:
400,172,56056,1,0,0:0:0:0:
384,132,56147,1,0,0:0:0:0:
240,100,56299,1,4,0:3:0:0:
240,100,56657,6,0,L|154:116,1,85,4|0,0:0|0:0,0:0:0:0:
324,204,57020,1,8,0:0:0:0:
324,204,57111,1,0,0:0:0:0:
324,204,57202,2,0,L|416:200,2,85,0|2|0,0:0|0:0|0:0,0:0:0:0:
116,188,57747,1,8,0:0:0:0:
240,100,57929,2,0,P|276:168|244:256,1,170,2|2,0:0|0:0,0:0:0:0:
120,316,58475,5,8,0:0:0:0:
16,204,58657,1,2,0:0:0:0:
192,176,58838,1,0,0:0:0:0:
56,96,59020,1,0,0:0:0:0:
256,64,59202,1,8,0:0:0:0:
192,176,59384,1,0,0:0:0:0:
192,176,59475,1,0,0:0:0:0:
192,176,59566,6,0,L|208:264,1,85,4|0,0:0|0:0,0:0:0:0:
300,328,59929,1,8,0:0:0:0:
428,236,60111,1,0,0:0:0:0:
324,136,60293,2,0,P|280:128|224:132,1,85,2|0,0:0|0:0,0:0:0:0:
104,340,60657,2,0,P|148:348|204:344,1,85,8|0,0:0|0:0,0:0:0:0:
324,252,61020,5,0,0:0:0:0:
152,100,61202,1,2,0:0:0:0:
192,268,61384,1,8,0:0:0:0:
336,100,61566,1,2,0:0:0:0:
405,230,61747,2,0,P|357:238|321:254,1,85,0|2,0:0|0:0,0:0:0:0:
224,344,62111,1,8,0:0:0:0:
124,220,62293,1,0,0:0:0:0:
224,344,62475,5,4,0:0:0:0:
328,176,62657,1,0,0:0:0:0:
328,176,62747,1,0,0:0:0:0:
328,176,62838,2,0,P|372:168|420:164,1,85,8|0,0:0|0:0,0:0:0:0:
424,280,63202,2,0,P|380:288|332:292,1,85,2|0,0:0|0:0,0:0:0:0:
308,284,63475,1,0,0:0:0:0:
276,272,63566,2,0,P|236:264|184:268,1,85,8|0,0:0|0:0,0:0:0:0:
96,328,63929,5,2,0:0:0:0:
36,172,64111,1,0,0:0:0:0:
192,268,64293,1,8,0:0:0:0:
0,268,64475,1,0,0:0:0:0:
156,172,64657,2,0,P|192:168|248:160,1,85,2|0,0:0|0:0,0:0:0:0:
332,80,65020,1,8,0:0:0:0:
172,8,65202,1,0,0:0:0:0:
192,128,65384,6,0,L|200:220,1,85,2|0,0:0|0:0,0:0:0:0:
96,328,65747,1,8,0:0:0:0:
224,260,65929,1,2,0:0:0:0:
64,192,66111,1,0,0:0:0:0:
248,304,66293,1,2,0:0:0:0:
80,236,66475,1,8,0:0:0:0:
264,124,66657,1,4,0:0:0:0:
264,124,67020,2,0,P|227:146|187:159,1,85,0|8,0:0|0:0,0:0:0:0:
300,316,67384,1,0,0:0:0:0:
144,284,67566,5,2,0:0:0:0:
140,260,67657,1,0,0:0:0:0:
136,236,67747,1,0,0:0:0:0:
132,212,67838,1,0,0:0:0:0:
128,188,67929,1,2,0:0:0:0:
124,164,68020,1,0,0:0:0:0:
120,140,68111,1,0,0:0:0:0:
116,116,68202,1,0,0:0:0:0:
112,92,68293,6,0,P|156:84|212:76,1,85,4|0,0:0|0:0,0:0:0:0:
376,156,68657,1,8,0:0:0:0:
312,268,68838,1,0,0:0:0:0:
148,184,69020,2,0,P|192:176|248:168,1,85,2|0,0:0|0:0,0:0:0:0:
480,204,69384,1,8,0:0:0:0:
312,268,69566,2,0,P|307:180|316:96,1,170,2|0,0:0|0:0,0:0:0:0:
315,98,70111,1,8,0:0:0:0:
112,92,70293,1,2,0:0:0:0:
160,272,70475,5,0,0:0:0:0:
184,284,70566,1,0,0:0:0:0:
208,292,70657,1,0,0:0:0:0:
232,296,70747,1,0,0:0:0:0:
256,300,70838,2,0,L|304:292,3,42.5,8|0|0|0,0:0|0:0|0:0|0:0,0:0:0:0:
312,268,71202,5,2,0:0:0:0:
424,156,71384,1,2,0:0:0:0:
256,120,71566,1,8,0:0:0:0:
400,240,71747,1,2,0:0:0:0:
240,204,71929,1,2,0:0:0:0:
344,84,72111,1,0,0:0:0:0:
312,268,72293,1,8,0:0:0:0:
132,108,72475,5,2,0:0:0:0:
132,108,72566,1,0,0:0:0:0:
132,108,72657,1,0,0:0:0:0:
240,204,72838,5,2,0:0:0:0:
240,204,72929,1,0,0:0:0:0:
240,204,73020,1,8,0:0:0:0:
96,248,73202,5,2,0:0:0:0:
220,268,73384,5,2,0:0:0:0:
256,252,73475,1,0,0:0:0:0:
292,248,73566,1,0,0:0:0:0:
332,252,73657,1,0,0:0:0:0:
368,256,73747,2,0,P|408:240|444:196,1,85,8|0,0:0|0:0,0:0:0:0:
304,79,74111,6,0,P|299:193|292:251,1,170,4|8,0:0|0:0,0:0:0:0:
208,340,74657,1,0,0:0:0:0:
368,256,74838,1,2,0:0:0:0:
124,168,75020,1,0,0:0:0:0:
268,48,75202,2,0,P|272:96|272:136,1,85,8|0,0:0|0:0,0:0:0:0:
208,340,75566,1,2,0:0:0:0:
76,224,75747,1,0,0:0:0:0:
269,216,75929,1,8,0:0:0:0:
56,104,76111,1,0,0:0:0:0:
76,224,76293,6,0,B|80:268|88:312,1,85,2|0,0:0|0:0,0:0:0:0:
272,132,76657,2,0,P|228:124|188:124,1,85,8|0,0:0|0:0,0:0:0:0:
208,340,77020,2,0,P|248:348|304:344,1,85,4|0,0:0|0:0,0:0:0:0:
424,316,77384,2,0,L|436:260,3,42.5,8|0|0|0,0:0|0:0|0:0|0:0,0:0:0:0:
448,236,77747,2,0,L|436:180,3,42.5
420,156,78111,1,8,0:0:0:0:
316,240,78293,6,0,P|240:272|156:236,1,170,4|8,0:0|0:0,0:0:0:0:
236,160,78838,1,0,0:0:0:0:
104,248,79020,1,0,0:0:0:0:
144,120,79202,2,0,L|264:120,1,85,8|0,0:0|0:0,0:0:0:0:
236,268,79566,2,0,L|296:204,1,85,0|0,0:0|0:0,0:0:0:0:
360,68,79929,6,0,P|396:44|456:32,2,85,12|0|0,0:0|0:0|0:0,0:0:0:0:
376,180,80475,2,0,P|340:212|296:220,1,85,12|0,0:0|0:0,0:0:0:0:
180,216,80838,1,0,0:0:0:0:
44,268,81020,2,0,P|80:304|120:316,1,85,8|0,0:0|0:0,0:0:0:0:
240,336,81384,1,0,0:0:0:0:
188,188,81566,1,4,0:0:0:0:
300,128,81747,1,4,0:0:0:0:
364,236,81929,1,0,0:0:0:0:
232,308,82111,6,0,L|176:308,3,42.5,4|0|0|0,0:3|0:0|0:0|0:0,0:0:0:0:
248,248,82475,2,0,L|312:248,3,42.5,8|0|0|0,0:3|0:0|0:0|0:0,0:0:0:0:
232,188,82838,6,0,P|192:172|136:160,1,85,12|0,0:0|0:0,0:0:0:0:
180,336,83202,1,0,0:0:0:0:
344,264,83384,2,0,P|376:244|404:184,1,85,12|0,0:0|0:0,0:0:0:0:
408,80,83747,1,0,0:0:0:0:
452,200,83929,5,12,0:0:0:0:
368,296,84111,1,0,0:0:0:0:
284,200,84293,1,8,0:0:0:0:
208,304,84475,1,0,0:0:0:0:
100,240,84657,1,0,0:0:0:0:
100,240,84747,1,0,0:0:0:0:
100,240,84838,1,0,0:0:0:0:
100,240,84929,1,0,0:0:0:0:
100,240,85020,2,0,L|0:240,2,85,0|0|0,0:0|0:0|0:0,0:0:0:0:
284,200,85566,5,4,0:0:0:0:
256,192,85747,12,0,88475,0:0:0:0:
