osu file format v14

[General]
AudioFilename: yukitoki TVsize.mp3
AudioLeadIn: 1000
PreviewTime: 56449
Countdown: 0
SampleSet: Soft
StackLeniency: 0.7
Mode: 0
LetterboxInBreaks: 0
WidescreenStoryboard: 0

[Editor]
Bookmarks: 45020
DistanceSpacing: 1.3
BeatDivisor: 4
GridSize: 4
TimelineZoom: 1.5

[Metadata]
Title:Yukitoki (TV Size)
TitleUnicode:ユキトキ (TV Size)
Artist:yanaginagi
ArtistUnicode:やなぎなぎ
Creator:Pandiar
Version:Hard
Source:Yahari Ore no Seishun Love Come wa Machigatteiru.
Tags:op oregairu yahari yanaginagi 0gre sosuyakisoba my youth romantic comedy is wrong as i expected machigatte iru brains base
BeatmapID:240084
BeatmapSetID:87877

[Difficulty]
HPDrainRate:5
CircleSize:4
OverallDifficulty:6
ApproachRate:7
SliderMultiplier:1.4
SliderTickRate:1

[Events]
//Background and Video events
0,0,"oregairu.jpg",0,0
Video,0,"yukitoki TVsize.avi"
//Break Periods
//Storyboard Layer 0 (Background)
//Storyboard Layer 1 (Fail)
//Storyboard Layer 2 (Pass)
//Storyboard Layer 3 (Foreground)
//Storyboard Sound Samples

[TimingPoints]
658,363.636363636364,4,2,1,40,1,0
7930,-100,4,2,1,65,0,0
20321,363.636363636364,4,2,1,40,1,0
31940,363.636363636364,4,2,1,50,1,0
42121,361.44578313253,4,2,1,50,1,0
43566,363.636363636364,4,2,1,50,1,0
49390,363.636363636364,4,2,1,40,1,0
52299,-100,4,2,1,50,0,0
55420,363.636363636364,4,2,1,60,1,0
56299,363.636363636364,4,2,1,60,1,0
56657,363.636363636364,4,2,1,80,1,1
79929,-100,4,2,1,70,0,0
88475,-100,4,2,1,5,0,0

[Colours]
Combo1 : 99,122,252
Combo2 : 65,252,145
Combo3 : 250,122,221
Combo4 : 149,124,235
Combo5 : 250,132,35
Combo6 : 156,217,74
Combo7 : 251,94,117

[HitObjects]
68,204,658,6,0,P|104:208|156:208,1,70,2|0,0:0|0:0,0:0:0:0:
228,216,1021,1,0,0:0:0:0:
320,208,1203,1,0,0:0:0:0:
384,144,1385,2,0,P|412:212|380:280,1,140,2|0,0:0|0:0,0:0:0:0:
308,300,1930,1,0,0:0:0:0:
308,300,2112,2,0,L|220:300,1,70,2|0,0:0|0:0,0:0:0:0:
180,228,2476,2,0,L|252:228,1,70,2|0,0:0|0:0,0:0:0:0:
300,152,2839,2,0,L|230:152,2,70,2|0|2,0:0|0:0|0:0,0:0:0:0:
436,272,3567,6,0,P|400:288|368:308,1,70
296,348,3930,1,2,0:0:0:0:
208,332,4112,1,0,0:0:0:0:
124,296,4294,2,0,P|92:232|116:168,2,140,0|2|2,0:0|0:0|0:0,0:0:0:0:
208,332,5203,5,0,0:0:0:0:
296,348,5385,1,2,0:0:0:0:
384,320,5567,1,0,0:0:0:0:
316,260,5748,2,0,L|328:188,2,70,0|0|2,0:0|0:0|0:0,0:0:0:0:
316,260,6294,1,0,0:0:0:0:
232,220,6476,1,4,0:0:0:0:
208,108,7930,6,0,L|116:108,2,70,12|0|0,0:0|0:0|0:0,0:0:0:0:
260,184,8476,2,0,L|332:184,2,70,12|0|0,0:0|0:0|0:0,0:0:0:0:
208,108,9021,2,0,P|172:172|192:240,1,140,8|0,0:0|0:0,0:0:0:0:
220,320,9567,2,0,L|296:320,2,70,8|8|0,0:0|0:0|0:0,0:0:0:0:
136,284,10112,2,0,P|104:196|144:80,1,210,8|0,0:0|0:0,0:0:0:0:
228,72,10839,6,0,P|288:108|360:88,1,140,12|0,0:0|0:0,0:0:0:0:
444,100,11385,2,0,L|420:252,1,140,12|0,0:0|0:0,0:0:0:0:
392,324,11930,2,0,P|356:308|324:300,1,70,12|0,0:0|0:0,0:0:0:0:
240,332,12294,2,0,P|240:272|264:224,1,105,8|8,0:0|0:0,0:0:0:0:
280,192,12658,1,8,0:0:0:0:
188,196,12839,2,8,L|144:200,3,35,8|8|8|8,0:0|0:0|0:0|0:0,0:0:0:0:
108,212,13203,2,0,L|120:132,1,70,8|8,0:0|0:0,0:0:0:0:
128,52,13567,1,0,0:0:0:0:
128,52,13748,1,4,0:0:0:0:
256,192,14112,12,4,16658,0:0:0:0:
256,192,17021,12,0,19203,0:0:0:0:
136,192,20321,6,0,P|204:208|276:176,1,140,2|0,0:0|0:0,0:0:0:0:
360,184,20866,1,0,0:0:0:0:
328,100,21048,2,0,P|260:84|188:116,1,140,0|0,0:0|0:0,0:0:0:0:
144,284,21775,6,0,P|64:260|44:196,1,140,2|0,0:0|0:0,0:0:0:0:
72,128,22321,1,0,0:0:0:0:
156,92,22502,2,0,L|300:100,1,140
428,228,23230,6,0,P|368:192|296:200,1,140,2|0,0:0|0:0,0:0:0:0:
228,252,23775,1,0,0:0:0:0:
144,284,23957,2,0,L|160:144,1,140
340,124,24684,6,0,L|352:204,2,70,2|0|0,0:0|0:0|0:0,0:0:0:0:
280,56,25230,1,0,0:0:0:0:
280,56,25411,2,0,P|196:100|140:76,1,140
120,268,26139,6,0,L|268:248,1,140,2|0,0:0|0:0,0:0:0:0:
344,280,26684,1,0,0:0:0:0:
368,192,26866,1,0,0:0:0:0:
368,192,27593,6,0,L|396:48,1,140,2|0,0:0|0:0,0:0:0:0:
308,80,28139,1,0,0:0:0:0:
224,116,28321,1,0,0:0:0:0:
224,116,29048,6,0,P|172:180|100:172,1,140,2|0,0:0|0:0,0:0:0:0:
44,128,29593,1,0,0:0:0:0:
48,220,29775,2,0,L|60:296,2,70,0|0|0,0:0|0:0|0:0,0:0:0:0:
152,68,30502,6,0,P|216:32|280:48,1,140,2|0,0:0|0:0,0:0:0:0:
348,104,31048,2,0,L|360:16,2,70
292,176,31593,1,8,0:0:0:0:
292,176,31940,6,0,P|232:140|156:152,1,140,4|8,0:0|0:0,0:0:0:0:
80,180,32485,1,0,0:0:0:0:
80,180,32667,2,0,L|88:260,1,70
156,308,33030,2,0,P|196:300|236:296,1,70,8|0,0:0|0:0,0:0:0:0:
312,320,33394,2,0,P|376:344|440:312,1,140,0|8,0:0|0:0,0:0:0:0:
468,228,33940,1,0,0:0:0:0:
384,196,34121,2,0,L|372:268,2,70,0|0|8,0:0|0:0|0:0,0:0:0:0:
412,108,34667,1,0,0:0:0:0:
412,108,34849,6,0,P|344:104|272:140,1,140,0|8,0:0|0:0,0:0:0:0:
236,212,35394,1,0,0:0:0:0:
148,232,35576,2,0,P|76:220|40:168,1,140,0|8,0:0|0:0,0:0:0:0:
92,92,36121,1,0,0:0:0:0:
176,128,36303,2,0,P|210:131|244:123,1,70
328,92,36667,1,8,0:0:0:0:
392,28,36849,1,0,0:0:0:0:
416,116,37030,2,0,L|428:192,2,70,0|0|8,0:0|0:0|0:0,0:0:0:0:
392,28,37576,1,0,0:0:0:0:
328,92,37758,6,0,P|256:136|196:116,1,140,0|8,0:0|0:0,0:0:0:0:
152,196,38303,2,0,L|164:268,2,70
128,108,38849,1,8,0:0:0:0:
104,288,39212,6,0,P|180:292|236:248,1,140,0|8,0:0|0:0,0:0:0:0:
308,204,39758,2,0,L|296:112,2,70,0|0|0,0:0|0:0|0:0,0:0:0:0:
316,296,40303,1,8,0:0:0:0:
204,160,40667,6,0,L|48:176,1,140,0|8,0:0|0:0,0:0:0:0:
44,264,41212,1,0,0:0:0:0:
44,264,41394,2,0,P|80:260|120:256,1,70
196,296,41758,1,8,0:0:0:0:
280,332,41940,1,0,0:0:0:0:
372,344,42121,2,0,P|368:308|372:256,1,70,0|8,0:0|0:0,0:0:0:0:
400,188,42482,2,0,P|404:152|400:100,1,70,0|8,0:0|0:0,0:0:0:0:
344,48,42843,2,0,P|300:92|220:76,1,140,8|0,0:0|0:0,0:0:0:0:
136,100,43386,1,0,0:0:0:0:
136,100,43566,6,0,P|96:152|108:232,1,140,4|0,0:0|0:0,0:0:0:0:
188,256,44111,1,0,0:0:0:0:
280,248,44293,2,0,L|264:332,2,70,8|0|0,0:0|0:0|0:0,0:0:0:0:
364,284,44838,2,0,P|432:280|472:216,2,140,0|0|0,0:0|0:0|0:0,0:0:0:0:
392,196,45747,1,8,0:0:0:0:
392,196,45929,2,0,P|340:136|352:68,1,140
268,32,46475,6,0,L|260:116,1,70
252,192,46838,1,0,0:0:0:0:
232,280,47020,1,0,0:0:0:0:
232,280,47202,2,0,L|316:264,2,70,8|0|0,0:0|0:0|0:0,0:0:0:0:
200,364,47747,6,0,P|148:304|168:220,1,140
200,172,48293,1,0,0:0:0:0:
288,148,48475,1,0,0:0:0:0:
364,100,48656,2,0,L|348:24,2,70,8|0|0,0:0|0:0|0:0,0:0:0:0:
432,160,49202,1,0,0:0:0:0:
432,160,49384,6,0,L|416:300,2,140,4|0|8,0:0|0:0|0:0,0:0:0:0:
448,68,50299,1,0,0:0:0:0:
364,100,50480,1,0,0:0:0:0:
364,100,50662,2,0,L|292:84,1,70
204,84,51026,2,0,L|216:176,1,70
124,172,51390,2,0,L|116:256,2,70,0|8|0,0:0|0:0|0:0,0:0:0:0:
116,80,51935,1,0,0:0:0:0:
36,124,52117,1,0,0:0:0:0:
204,84,52299,6,0,P|272:112|352:96,1,140,12|8,0:0|0:0,0:0:0:0:
420,136,52844,1,0,0:0:0:0:
400,224,53026,2,0,P|332:196|252:212,1,140,8|8,0:0|0:0,0:0:0:0:
208,276,53571,1,0,0:0:0:0:
116,276,53753,2,0,L|100:352,2,70,8|0|0,0:0|0:0|0:0,0:0:0:0:
164,196,54299,2,0,P|188:104|160:64,1,140,4|0,0:0|0:0,0:0:0:0:
167,70,54844,1,8,0:0:0:0:
256,192,55026,12,4,56299,0:3:0:0:
120,232,56657,6,0,P|200:180|248:192,1,140,4|8,0:0|0:0,0:0:0:0:
324,220,57202,1,0,0:0:0:0:
408,260,57384,2,0,P|328:312|280:300,1,140,0|8,0:0|0:0,0:0:0:0:
324,220,57929,1,0,0:0:0:0:
400,168,58111,2,0,P|396:132|388:96,1,70
308,60,58475,2,0,P|276:72|232:84,1,70,8|0,0:0|0:0,0:0:0:0:
152,104,58838,1,0,0:0:0:0:
68,68,59020,1,0,0:0:0:0:
80,160,59202,2,0,L|88:244,1,70,8|0,0:0|0:0,0:0:0:0:
148,296,59566,6,0,P|208:256|280:260,1,140,4|8,0:0|0:0,0:0:0:0:
348,308,60111,1,0,0:0:0:0:
428,264,60293,2,0,L|444:344,2,70,0|0|8,0:0|0:0|0:0,0:0:0:0:
348,220,60838,2,0,P|272:200|248:140,2,140,0|2|0,0:0|0:0|0:0,0:0:0:0:
420,168,61747,2,0,L|436:92,1,70
348,64,62111,2,0,L|333:132,1,70,8|0,0:0|0:0,0:0:0:0:
256,84,62475,6,0,P|184:60|108:88,1,140,4|8,0:0|0:0,0:0:0:0:
52,132,63020,1,0,0:0:0:0:
88,216,63202,2,0,L|64:288,2,70,0|0|8,0:0|0:0|0:0,0:0:0:0:
156,156,63747,2,0,P|232:168|264:232,1,140
280,308,64293,1,8,0:0:0:0:
372,300,64475,2,0,P|420:304|456:312,2,70,0|0|0,0:0|0:0|0:0,0:0:0:0:
280,308,65020,1,8,0:0:0:0:
320,228,65202,6,0,L|340:80,2,140,0|0|0,0:0|0:0|0:0,0:0:0:0:
280,308,66111,2,0,L|208:292,1,70
124,316,66475,1,8,0:0:0:0:
144,228,66657,1,4,0:0:0:0:
144,228,67020,6,0,L|64:240,2,70,8|0|0,0:0|0:0|0:0,0:0:0:0:
212,288,67566,2,0,P|232:220|204:152,1,140,8|0,0:0|0:0,0:0:0:0:
120,132,68111,1,0,0:0:0:0:
188,72,68293,6,0,L|340:84,1,140,4|8,0:0|0:0,0:0:0:0:
400,140,68838,1,0,0:0:0:0:
408,232,69020,2,0,P|320:220|280:248,1,140,0|8,0:0|0:0,0:0:0:0:
228,320,69566,1,0,0:0:0:0:
140,308,69747,2,0,L|156:160,2,140,0|8|0,0:0|0:0|0:0,0:0:0:0:
48,316,70657,2,0,L|56:240,1,70,0|8,0:0|0:0,0:0:0:0:
60,156,71020,1,0,0:0:0:0:
104,76,71202,6,0,P|160:60|236:96,1,140,0|8,0:0|0:0,0:0:0:0:
284,168,71747,1,0,0:0:0:0:
340,240,71929,2,0,P|284:256|208:220,1,140,0|8,0:0|0:0,0:0:0:0:
284,168,72475,1,0,0:0:0:0:
340,240,72657,2,0,L|332:324,1,70
256,356,73020,2,0,L|249:286,1,70,8|0,0:0|0:0,0:0:0:0:
172,240,73384,2,0,P|104:252|40:196,1,140,0|8,0:0|0:0,0:0:0:0:
124,164,73929,1,0,0:0:0:0:
216,160,74111,6,0,L|368:152,2,140,4|8|0,0:0|0:0|0:0,0:0:0:0:
172,240,75020,1,0,0:0:0:0:
124,164,75202,2,0,L|130:94,1,70,8|0,0:0|0:0,0:0:0:0:
172,240,75566,2,0,P|224:292|300:288,1,140,0|8,0:0|0:0,0:0:0:0:
364,248,76111,1,0,0:0:0:0:
448,284,76293,2,0,L|464:368,2,70,0|0|8,0:0|0:0|0:0,0:0:0:0:
448,192,76838,1,0,0:0:0:0:
464,104,77020,6,0,L|392:116,1,70,8|0,0:0|0:0,0:0:0:0:
308,176,77384,2,0,L|224:160,1,70,8|0,0:0|0:0,0:0:0:0:
180,92,77747,2,0,L|108:104,1,70,8|0,0:0|0:0,0:0:0:0:
60,216,78111,2,0,L|132:204,1,70,8|4,0:0|0:0,0:0:0:0:
308,176,78657,1,8,0:0:0:0:
308,176,78838,1,8,0:0:0:0:
264,352,79202,1,0,0:0:0:0:
216,112,79566,1,8,0:0:0:0:
216,112,79929,6,0,L|304:104,1,70,12|0,0:0|0:0,0:0:0:0:
372,68,80293,1,0,0:0:0:0:
372,68,80475,2,0,P|368:108|364:152,1,70,12|0,0:0|0:0,0:0:0:0:
296,192,80838,1,0,0:0:0:0:
212,224,81020,2,0,L|268:296,1,70,8|0,0:0|0:0,0:0:0:0:
336,324,81384,1,0,0:0:0:0:
388,248,81566,2,0,L|388:176,1,70,4|4,0:0|0:0,0:0:0:0:
340,100,81929,1,0,0:0:0:0:
264,56,82111,2,0,L|200:44,3,35,8|0|0|0,0:3|0:0|0:0|0:0,0:0:0:0:
184,44,82475,2,0,L|128:52,3,35,4|0|0|0,0:3|0:0|0:0|0:0,0:0:0:0:
104,68,82838,6,0,L|116:156,1,70,12|0,0:0|0:0,0:0:0:0:
120,228,83202,1,0,0:0:0:0:
176,300,83384,2,0,P|216:308|252:320,1,70,12|0,0:0|0:0,0:0:0:0:
336,324,83747,1,0,0:0:0:0:
432,300,83929,2,0,L|424:220,1,70,8|0,0:0|0:0,0:0:0:0:
428,120,84293,6,0,L|440:72,6,35,8|0|0|0|0|0|0,0:0|0:0|0:0|0:0|0:0|0:0|0:0,0:0:0:0:
356,176,85020,2,0,L|272:160,1,70,2|0,0:0|0:0,0:0:0:0:
196,164,85384,1,8,0:0:0:0:
244,88,85566,1,4,0:0:0:0:
256,192,85747,12,0,88475,0:0:0:0:
