osu file format v12

[General]
AudioFilename: Yahari.mp3
AudioLeadIn: 2000
PreviewTime: 56566
Countdown: 0
SampleSet: Soft
StackLeniency: 0.4
Mode: 0
LetterboxInBreaks: 0

[Editor]
DistanceSpacing: 1
BeatDivisor: 4
GridSize: 4

[Metadata]
Title:Yukitoki (TV Size)
TitleUnicode:ユキトキ (TV Size)
Artist:yanaginagi
ArtistUnicode:やなぎなぎ
Creator:Fumika
Version:Nich's Easy
Source:Yahari Ore no Seishun Love Come wa Machigatteiru.
Tags:Netsukawa opening ReySHeL wcx19911123 climbb65588 Nichiyouki nich95 My Youth Romantic Comedy Is Wrong As I Expected OreGairu Brains Base
BeatmapID:242597
BeatmapSetID:87208

[Difficulty]
HPDrainRate:2
CircleSize:3
OverallDifficulty:2
ApproachRate:3
SliderMultiplier:0.77
SliderTickRate:1

[Events]
//Background and Video events
0,0,"Yahari.jpg",0,0
Video,130,"Yahari.avi"
//Break Periods
//Storyboard Layer 0 (Background)
//Storyboard Layer 1 (Fail)
//Storyboard Layer 2 (Pass)
//Storyboard Layer 3 (Foreground)
//Storyboard Sound Samples
//Background Colour Transformations
3,100,163,162,255

[TimingPoints]
658,363.636363636364,4,2,2,60,1,0
7930,-100,4,2,1,80,0,0
12294,-100,4,2,1,60,0,0
12657,-100,4,2,1,80,0,0
13384,-100,4,2,3,80,0,0
13475,-100,4,2,1,80,0,0
13748,-100,4,2,1,65,0,0
16658,-100,4,2,1,75,0,0
16749,-100,4,2,2,75,0,0
18113,-100,4,2,2,80,0,0
19567,-100,4,2,2,5,0,0
20321,363.636363636364,4,2,2,65,1,0
31593,-100,4,2,1,70,0,0
31940,363.636363636364,4,2,1,75,1,0
32303,-100,4,2,3,70,0,0
32393,-100,4,2,1,70,0,0
33757,-100,4,2,3,70,0,0
33848,-100,4,2,1,70,0,0
35212,-100,4,2,3,70,0,0
35303,-100,4,2,1,70,0,0
35939,-100,4,2,3,70,0,0
36030,-100,4,2,1,70,0,0
38121,-100,4,2,3,70,0,0
38212,-100,4,2,1,70,0,0
39575,-100,4,2,3,70,0,0
39666,-100,4,2,1,70,0,0
42121,361.44578313253,4,2,1,75,1,0
42482,-100,4,2,3,70,0,0
42572,-100,4,2,1,70,0,0
43566,363.636363636364,4,2,1,75,1,0
49390,363.636363636364,4,2,1,75,1,0
56657,363.636363636364,4,2,1,90,1,1
57747,-100,4,2,3,80,0,1
57838,-100,4,2,1,80,0,1
60657,-100,4,2,3,80,0,1
60747,-100,4,2,1,80,0,1
62838,-100,4,2,3,80,0,1
62929,-100,4,2,1,80,0,1
64293,-100,4,2,3,80,0,1
64384,-100,4,2,1,80,0,1
65747,-100,4,2,3,80,0,1
65838,-100,4,2,1,80,0,1
68202,-100,4,2,1,80,0,0
68293,-100,4,2,1,80,0,1
69384,-100,4,2,3,80,0,1
69475,-100,4,2,1,80,0,1
72294,-100,4,2,3,80,0,1
72384,-100,4,2,1,80,0,1
74475,-100,4,2,3,80,0,1
74566,-100,4,2,1,80,0,1
75930,-100,4,2,3,80,0,1
76021,-100,4,2,1,80,0,1
77020,-100,4,2,1,80,0,0
77384,-100,4,2,2,50,0,0
77747,-100,4,2,2,60,0,0
78293,-100,4,2,1,70,0,0
78838,-100,4,2,1,75,0,0
79929,-100,4,2,1,75,0,1
80020,-100,4,2,1,80,0,0
85566,-100,4,2,1,40,0,0
85748,-100,4,2,1,30,0,0
86475,-100,4,2,1,20,0,0
87203,-100,4,2,1,10,0,0
87930,-100,4,2,1,5,0,0

[Colours]
Combo1 : 255,255,255
Combo2 : 225,91,132
Combo3 : 0,128,128
Combo4 : 0,128,192
Combo5 : 255,192,0
Combo6 : 237,140,116
Combo7 : 255,0,255
Combo8 : 183,183,255

[HitObjects]
184,80,658,2,0,P|256:64|336:80,1,154,4|0,0:0|0:0,0:0:0:0:
404,216,2112,2,0,P|452:180|472:128,2,115.5,2|0|0,0:0|0:0|0:0,0:0:0:0:
328,200,3567,6,0,B|292:204|256:228|256:228|220:204|184:200,1,154,4|0,0:0|0:0,0:0:0:0:
32,216,5021,2,0,P|44:272|80:320,1,115.5,2|0,0:0|0:0,0:0:0:0:
256,192,6112,12,4,7930,0:0:0:0:
140,160,8476,6,0,P|156:104|196:64,1,115.5,2|4,0:0|0:0,0:0:0:0:
312,64,9567,2,0,P|352:104|368:160,1,115.5,8|8,0:0|0:0,0:0:0:0:
368,236,10476,1,8,0:0:0:0:
300,276,10839,6,0,B|244:268|244:288|184:280,2,115.5,4|2|4,0:0|0:0|0:0,0:0:0:0:
368,316,12294,1,8,0:0:0:0:
444,320,12658,1,8,0:0:0:0:
496,264,13021,2,0,B|504:228|476:192|476:192|504:156|496:120,1,154,4|4,3:0|0:0,0:0:0:0:
442,63,14112,6,0,P|364:64|304:108,1,154,2|0,1:2|1:2,0:0:0:0:
256,168,15203,1,2,1:2:0:0:
184,140,15567,2,0,P|144:140|108:148,1,77,0|2,1:2|1:2,0:0:0:0:
44,192,16294,2,0,P|48:232|64:268,1,77,0|4,1:0|0:0,0:0:0:0:
132,300,17021,6,0,P|212:316|284:304,1,154,2|0,1:2|1:0,0:0:0:0:
320,236,18112,2,0,P|312:196|316:160,1,77,2|0,1:2|1:0,0:0:0:0:
376,112,18839,2,0,P|380:76|372:36,2,77,2|0|0,1:2|1:0|0:0,0:0:0:0:
236,172,20321,6,0,B|160:192|160:160|84:176,2,154,4|0|2,0:0|0:0|0:0,0:0:0:0:
376,112,22502,2,0,P|436:156|456:232,1,154,0|4,0:0|0:0,0:0:0:0:
332,320,23957,2,0,B|292:336|256:320|256:320|220:336|180:320,2,154,0|2|0,0:0|0:0|0:0,0:0:0:0:
348,168,26139,6,0,B|344:112|296:72|244:72,1,154,4|0,0:0|0:0,0:0:0:0:
136,180,27593,2,0,B|140:236|188:276|240:276,1,154,2|0,0:0|0:0,0:0:0:0:
388,304,29048,2,0,B|432:292|456:264|456:264|476:192,2,154,4|0|2,0:0|0:0|0:0,0:0:0:0:
272,200,31230,1,0,0:0:0:0:
196,188,31593,1,8,0:0:0:0:
128,224,31940,6,0,P|56:204|16:140,1,154,4|2,0:0|0:0,0:0:0:0:
48,68,33030,1,8,0:0:0:0:
124,48,33394,2,0,B|164:48|196:72|196:72|228:52,2,115.5,2|2|8,0:0|0:0|0:0,0:0:0:0:
104,124,34849,6,0,B|80:200|124:200|104:276,2,154,2|2|2,0:0|0:0|0:0,0:0:0:0:
180,104,36667,1,8,0:0:0:0:
244,148,37030,2,0,P|280:164|320:168,1,77,2|8,0:0|0:0,0:0:0:0:
392,148,37758,6,0,P|408:108|408:36,2,115.5,4|2|8,0:0|0:0|0:0,0:0:0:0:
372,224,39212,2,0,P|356:264|356:336,2,115.5,2|2|8,0:0|0:0|0:0,0:0:0:0:
316,168,40667,6,0,P|280:152|240:148,1,77,2|8,0:0|0:0,0:0:0:0:
180,192,41394,2,0,P|144:204|104:208,1,77,0|8,0:0|0:0,0:0:0:0:
48,156,42121,2,0,P|80:84|140:40,1,154,2|2,0:0|0:0,0:0:0:0:
216,40,43205,1,8,0:0:0:0:
252,108,43566,6,0,P|328:128|404:120,2,154,4|8|2,0:0|0:0|0:0,0:0:0:0:
176,112,45384,1,0,0:0:0:0:
128,172,45747,2,0,P|116:212|116:248,1,77,8|0,0:0|0:0,0:0:0:0:
172,300,46475,6,0,P|248:316|324:308,1,154,2|8,0:0|0:0,0:0:0:0:
352,156,47929,2,0,P|276:140|200:148,1,154,2|8,0:0|0:0,0:0:0:0:
128,172,49020,1,8,0:0:0:0:
56,148,49390,6,0,B|56:108|48:72|48:72|84:56|116:32,2,154,4|8|2,0:0|0:0|0:0,0:0:0:0:
40,300,51571,2,0,P|80:292|116:292,1,77,8|0,0:0|0:0,0:0:0:0:
188,320,52299,6,0,P|260:292|304:228,1,154,4|2,0:0|0:0,0:0:0:0:
196,120,53753,2,0,P|140:148|108:188,1,115.5,2|4,1:2|0:0,0:0:0:0:
256,192,54844,12,4,56657,0:0:0:0:
368,264,57384,6,0,P|416:236|448:184,2,115.5,2|2|8,0:0|0:0|0:0,0:0:0:0:
292,252,58838,1,2,0:0:0:0:
220,280,59202,1,8,0:0:0:0:
160,232,59566,6,0,P|136:200|128:164,1,77,4|8,0:0|0:0,0:0:0:0:
196,128,60293,2,0,P|232:84|252:28,2,115.5,2|2|8,0:0|0:0|0:0,0:0:0:0:
128,88,61747,1,2,0:0:0:0:
56,120,62111,1,8,0:0:0:0:
48,196,62475,6,0,P|40:252|48:312,2,115.5,4|2|8,0:0|0:0|0:0,0:0:0:0:
120,164,63929,2,0,P|156:208|208:236,2,115.5,4|2|8,0:0|0:0|0:0,0:0:0:0:
128,88,65384,2,0,P|184:88|240:72,1,115.5,4|2,0:0|0:0,0:0:0:0:
316,52,66293,2,0,P|344:52|396:72,1,77,0|4,0:0|0:0,0:0:0:0:
440,128,67020,6,0,L|464:160,1,38.5,8|8,0:0|0:0,0:0:0:0:
400,204,67566,2,0,L|420:280,1,77,8|8,0:0|0:0,0:0:0:0:
372,340,68293,5,4,0:0:0:0:
296,352,68657,1,8,0:0:0:0:
256,284,69020,2,0,P|216:244|160:228,2,115.5,2|2|8,0:0|0:0|0:0,0:0:0:0:
216,352,70475,2,0,P|176:360|136:364,1,77,2|8,0:0|0:0,0:0:0:0:
80,316,71202,6,0,P|56:284|44:248,1,77,4|8,0:0|0:0,0:0:0:0:
80,180,71929,2,0,P|100:124|100:68,2,115.5,2|2|8,0:0|0:0|0:0,0:0:0:0:
124,244,73384,1,2,0:0:0:0:
200,264,73747,1,8,0:0:0:0:
256,212,74111,6,0,P|292:168|316:112,2,115.5,4|2|8,0:0|0:0|0:0,0:0:0:0:
180,192,75566,2,0,P|148:140|108:104,2,115.5,4|2|8,0:0|0:0|0:0,0:0:0:0:
124,244,77020,2,0,P|84:248|52:268,1,77,4|0,0:0|1:0,0:0:0:0:
108,320,77747,6,0,P|164:340|220:336,1,115.5,0|4,1:0|0:0,0:0:0:0:
300,264,78838,2,0,P|344:260|376:264,2,77,8|2|4,0:0|0:0|3:0,0:0:0:0:
232,216,79929,6,0,P|176:212|124:184,2,115.5,4|2|4,0:0|0:0|0:0,0:0:0:0:
348,204,81566,2,0,P|340:268|308:308,1,115.5,8|8,0:0|0:0,0:0:0:0:
256,364,82475,1,4,3:0:0:0:
192,320,82838,6,0,P|137:309|77:321,2,115.5,4|2|4,0:0|0:0|0:0,0:0:0:0:
260,284,84293,2,0,P|284:256|304:216,1,77,2|8,0:0|0:0,0:0:0:0:
288,144,85020,2,0,P|288:104|296:64,1,77,4|8,3:0|0:0,0:0:0:0:
256,192,85566,12,0,88111,0:0:0:0:
