osu file format v12

[General]
AudioFilename: Yahari.mp3
AudioLeadIn: 2000
PreviewTime: 56566
Countdown: 0
SampleSet: Normal
StackLeniency: 0.4
Mode: 1
LetterboxInBreaks: 0

[Editor]
DistanceSpacing: 1
BeatDivisor: 4
GridSize: 4

[Metadata]
Title:Yukitoki (TV Size)
TitleUnicode:ユキトキ (TV Size)
Artist:yanaginagi
ArtistUnicode:やなぎなぎ
Creator:Fumika
Version:Climbb's Oni
Source:Yahari Ore no Seishun Love Come wa Machigatteiru.
Tags:Netsukawa opening ReySHeL wcx19911123 climbb65588 Nichiyouki nich95 My Youth Romantic Comedy Is Wrong As I Expected OreGairu Brains Base
BeatmapID:238876
BeatmapSetID:87208

[Difficulty]
HPDrainRate:6
CircleSize:4
OverallDifficulty:6
ApproachRate:6
SliderMultiplier:1.4
SliderTickRate:1

[Events]
//Background and Video events
0,0,"Yahari.jpg",0,132
//Break Periods
//Storyboard Layer 0 (Background)
//Storyboard Layer 1 (Fail)
//Storyboard Layer 2 (Pass)
//Storyboard Layer 3 (Foreground)
//Storyboard Sound Samples
//Background Colour Transformations
3,100,163,162,255

[TimingPoints]
658,363.636363636364,4,1,0,80,1,0
20321,363.636363636364,4,1,0,80,1,0
31940,363.636363636364,4,1,0,80,1,0
42121,361.44578313253,4,1,0,80,1,0
43566,363.636363636364,4,1,0,80,1,0
49390,363.636363636364,4,1,0,80,1,0
56657,363.636363636364,4,1,0,80,1,1
77020,-100,4,1,0,80,0,0

[Colours]
Combo1 : 255,255,255
Combo2 : 225,91,132
Combo3 : 0,128,128
Combo4 : 0,128,192
Combo5 : 255,192,0
Combo6 : 237,140,116
Combo7 : 255,0,255
Combo8 : 183,183,255

[HitObjects]
160,208,658,1,0,0:0:0:0:
284,144,1021,1,8,0:0:0:0:
80,32,1748,1,8,0:0:0:0:
156,196,2112,1,0,0:0:0:0:
116,112,2658,1,8,0:0:0:0:
72,16,3021,1,8,0:0:0:0:
116,92,3385,1,8,0:0:0:0:
168,172,3567,1,0,0:0:0:0:
168,172,4112,1,8,0:0:0:0:
268,128,4294,1,8,0:0:0:0:
124,160,4658,1,8,0:0:0:0:
264,132,5021,1,0,0:0:0:0:
264,132,5567,1,8,0:0:0:0:
248,220,5930,1,8,0:0:0:0:
156,168,6112,1,8,0:0:0:0:
248,220,6294,1,8,0:0:0:0:
156,168,6476,1,0,0:0:0:0:
156,168,7930,1,4,0:0:0:0:
156,168,8112,1,8,0:0:0:0:
156,168,8294,1,8,0:0:0:0:
260,164,8476,1,4,0:0:0:0:
260,164,8658,1,8,0:0:0:0:
260,164,8839,1,8,0:0:0:0:
260,164,9021,1,0,0:0:0:0:
328,168,9567,1,8,0:0:0:0:
328,168,9748,1,0,0:0:0:0:
224,184,9930,1,0,0:0:0:0:
316,176,10112,1,0,0:0:0:0:
264,180,10203,1,0,0:0:0:0:
264,180,10294,1,0,0:0:0:0:
260,164,10476,1,8,0:0:0:0:
260,164,10567,1,8,0:0:0:0:
264,180,10658,1,0,0:0:0:0:
352,128,10839,1,4,0:0:0:0:
264,184,11021,1,8,0:0:0:0:
308,156,11112,1,8,0:0:0:0:
308,156,11203,1,8,0:0:0:0:
308,156,11385,1,4,0:0:0:0:
204,148,11567,1,8,0:0:0:0:
152,148,11658,1,8,0:0:0:0:
100,144,11748,1,8,0:0:0:0:
204,156,11930,1,0,0:0:0:0:
24,28,12294,1,8,0:0:0:0:
136,104,12567,1,0,0:0:0:0:
180,132,12658,1,8,0:0:0:0:
172,28,12839,1,8,0:0:0:0:
268,4,12930,1,8,0:0:0:0:
224,48,13021,1,0,0:0:0:0:
148,120,13203,1,8,0:0:0:0:
112,160,13294,1,0,0:0:0:0:
148,124,13385,1,8,0:0:0:0:
184,92,13748,1,4,0:0:0:0:
72,256,14112,1,0,0:0:0:0:
68,284,14294,1,0,0:0:0:0:
148,120,14476,1,0,0:0:0:0:
148,120,14658,1,0,0:0:0:0:
148,124,14839,1,0,0:0:0:0:
148,120,15021,1,0,0:0:0:0:
148,120,15203,1,0,0:0:0:0:
148,120,15385,1,0,0:0:0:0:
148,120,15567,1,0,0:0:0:0:
148,120,15748,1,0,0:0:0:0:
148,120,15930,1,0,0:0:0:0:
148,120,16112,1,0,0:0:0:0:
148,124,16294,1,0,0:0:0:0:
148,120,16476,1,0,0:0:0:0:
148,120,16658,1,12,0:0:0:0:
252,140,16839,1,8,0:0:0:0:
252,140,16930,1,8,0:0:0:0:
252,140,17021,1,0,0:0:0:0:
252,140,17203,1,8,0:0:0:0:
204,132,17294,1,8,0:0:0:0:
196,164,17385,1,0,0:0:0:0:
124,160,17567,1,8,0:0:0:0:
172,148,17658,1,8,0:0:0:0:
124,160,17748,1,0,0:0:0:0:
124,160,17839,1,0,0:0:0:0:
124,160,17930,1,8,0:0:0:0:
124,160,18021,1,8,0:0:0:0:
8,160,18112,1,0,0:0:0:0:
192,80,18294,1,8,0:0:0:0:
156,120,18385,1,8,0:0:0:0:
192,80,18476,1,0,0:0:0:0:
160,120,18567,1,0,0:0:0:0:
192,80,18658,1,8,0:0:0:0:
148,108,18748,1,8,0:0:0:0:
172,148,18839,1,0,0:0:0:0:
172,148,18930,1,0,0:0:0:0:
172,148,19021,1,8,0:0:0:0:
192,80,19112,1,8,0:0:0:0:
192,80,19203,1,0,0:0:0:0:
192,80,19294,1,0,0:0:0:0:
192,80,19385,1,8,0:0:0:0:
208,156,19476,1,8,0:0:0:0:
276,168,20321,1,0,0:0:0:0:
208,156,20866,1,8,0:0:0:0:
192,140,21411,1,8,0:0:0:0:
72,124,21775,1,0,0:0:0:0:
192,140,22321,1,8,0:0:0:0:
232,160,22866,1,8,0:0:0:0:
44,248,23230,1,0,0:0:0:0:
192,140,23775,1,8,0:0:0:0:
232,160,24321,1,8,0:0:0:0:
232,160,24684,1,0,0:0:0:0:
192,140,25230,1,8,0:0:0:0:
192,140,25411,1,0,0:0:0:0:
192,140,25775,1,8,0:0:0:0:
192,140,26139,1,0,0:0:0:0:
192,140,26684,1,8,0:0:0:0:
192,140,27048,1,8,0:0:0:0:
92,104,27230,1,8,0:0:0:0:
184,132,27411,1,8,0:0:0:0:
92,88,27593,1,0,0:0:0:0:
192,140,28139,1,8,0:0:0:0:
340,348,28502,1,8,0:0:0:0:
288,272,28684,1,8,0:0:0:0:
244,208,28866,1,8,0:0:0:0:
176,176,29048,1,0,0:0:0:0:
480,164,29593,1,8,0:0:0:0:
176,176,30139,1,8,0:0:0:0:
388,168,30502,1,0,0:0:0:0:
176,160,30866,1,8,0:0:0:0:
228,160,30957,1,8,0:0:0:0:
280,164,31048,1,8,0:0:0:0:
208,112,31230,1,8,0:0:0:0:
248,144,31321,1,8,0:0:0:0:
292,176,31411,1,8,0:0:0:0:
248,144,31593,1,0,0:0:0:0:
248,144,31940,1,4,0:0:0:0:
248,144,32303,1,8,0:0:0:0:
248,144,32667,1,0,0:0:0:0:
248,144,32758,1,0,0:0:0:0:
248,144,32849,1,0,0:0:0:0:
248,144,33030,1,8,0:0:0:0:
248,144,33212,1,8,0:0:0:0:
248,144,33394,1,0,0:0:0:0:
456,156,33758,1,8,0:0:0:0:
240,140,34121,1,0,0:0:0:0:
320,144,34303,1,0,0:0:0:0:
284,128,34394,1,0,0:0:0:0:
236,140,34485,1,8,0:0:0:0:
284,128,34667,1,8,0:0:0:0:
284,128,34849,1,0,0:0:0:0:
284,128,35212,1,8,0:0:0:0:
284,128,35576,1,0,0:0:0:0:
284,128,35667,1,0,0:0:0:0:
284,128,35758,1,0,0:0:0:0:
220,76,35940,1,8,0:0:0:0:
360,192,36303,1,0,0:0:0:0:
240,164,36485,1,0,0:0:0:0:
116,136,36667,1,8,0:0:0:0:
300,132,37030,1,0,0:0:0:0:
220,132,37212,1,0,0:0:0:0:
220,132,37303,1,0,0:0:0:0:
220,132,37394,1,8,0:0:0:0:
220,132,37576,1,8,0:0:0:0:
220,132,37758,1,0,0:0:0:0:
220,132,38121,1,8,0:0:0:0:
220,132,38212,1,8,0:0:0:0:
220,132,38303,1,8,0:0:0:0:
220,132,38485,1,0,0:0:0:0:
220,132,38667,1,0,0:0:0:0:
220,132,38849,1,8,0:0:0:0:
216,108,39212,1,0,0:0:0:0:
216,108,39576,1,8,0:0:0:0:
216,108,39667,1,8,0:0:0:0:
216,108,39758,1,8,0:0:0:0:
220,132,39940,1,0,0:0:0:0:
220,132,40121,1,0,0:0:0:0:
220,132,40303,1,8,0:0:0:0:
220,132,40485,1,8,0:0:0:0:
132,64,40667,1,0,0:0:0:0:
300,196,41030,1,8,0:0:0:0:
144,72,41394,1,0,0:0:0:0:
212,128,41576,1,0,0:0:0:0:
176,96,41667,1,0,0:0:0:0:
136,68,41758,1,8,0:0:0:0:
228,112,41940,1,8,0:0:0:0:
320,156,42121,1,0,0:0:0:0:
236,108,42301,1,8,0:0:0:0:
136,68,42482,1,0,0:0:0:0:
220,104,42663,1,0,0:0:0:0:
236,108,42843,1,8,0:0:0:0:
236,108,42934,1,0,0:0:0:0:
236,108,43024,1,0,0:0:0:0:
236,108,43114,1,0,0:0:0:0:
236,108,43205,1,8,0:0:0:0:
236,108,43386,1,8,0:0:0:0:
236,108,43566,1,4,0:0:0:0:
236,108,43929,1,0,0:0:0:0:
236,108,44293,1,8,0:0:0:0:
236,108,44656,1,8,0:0:0:0:
236,108,44838,1,0,0:0:0:0:
236,108,45020,1,8,0:0:0:0:
264,124,45111,1,8,0:0:0:0:
240,108,45202,1,0,0:0:0:0:
264,124,45566,1,0,0:0:0:0:
264,124,45747,1,8,0:0:0:0:
160,144,45929,1,8,0:0:0:0:
112,152,46020,1,8,0:0:0:0:
100,228,46111,1,8,0:0:0:0:
176,176,46293,1,8,0:0:0:0:
196,156,46475,1,0,0:0:0:0:
112,152,46838,1,0,0:0:0:0:
196,156,47202,1,8,0:0:0:0:
20,172,47566,1,8,0:0:0:0:
152,160,47747,1,0,0:0:0:0:
152,160,47929,1,8,0:0:0:0:
152,160,48020,1,8,0:0:0:0:
136,172,48111,1,0,0:0:0:0:
136,172,48293,1,0,0:0:0:0:
136,172,48656,1,8,0:0:0:0:
168,136,48838,1,0,0:0:0:0:
152,160,49020,1,8,0:0:0:0:
152,160,49202,1,8,0:0:0:0:
196,148,49293,1,8,0:0:0:0:
244,132,49390,1,0,0:0:0:0:
296,128,49753,1,0,0:0:0:0:
100,104,50117,1,8,0:0:0:0:
296,140,50480,1,8,0:0:0:0:
208,124,50662,1,0,0:0:0:0:
120,108,50844,1,8,0:0:0:0:
168,112,50935,1,8,0:0:0:0:
208,124,51026,1,0,0:0:0:0:
168,112,51208,1,0,0:0:0:0:
256,204,51571,1,8,0:0:0:0:
100,72,51935,1,8,0:0:0:0:
192,148,52026,1,8,0:0:0:0:
180,140,52117,1,8,0:0:0:0:
268,220,52299,1,4,0:0:0:0:
120,84,52662,1,0,0:0:0:0:
192,148,52844,1,0,0:0:0:0:
192,148,53026,1,0,0:0:0:0:
192,148,53208,1,0,0:0:0:0:
192,148,53390,1,0,0:0:0:0:
192,148,53571,1,0,0:0:0:0:
192,148,53753,1,0,0:0:0:0:
104,112,53935,1,0,0:0:0:0:
192,148,54117,1,0,0:0:0:0:
108,112,54299,1,12,0:0:0:0:
192,148,56299,1,8,0:0:0:0:
192,148,56657,1,4,0:0:0:0:
192,148,56838,1,0,0:0:0:0:
192,148,56929,1,0,0:0:0:0:
192,148,57020,1,8,0:0:0:0:
192,148,57202,1,8,0:0:0:0:
192,148,57293,1,8,0:0:0:0:
192,148,57384,1,0,0:0:0:0:
192,148,57566,1,0,0:0:0:0:
192,148,57747,1,8,0:0:0:0:
192,148,57929,1,0,0:0:0:0:
192,148,58020,1,0,0:0:0:0:
192,148,58111,1,8,0:0:0:0:
144,52,58293,1,0,0:0:0:0:
192,148,58384,1,0,0:0:0:0:
192,148,58475,1,8,0:0:0:0:
192,148,58657,1,8,0:0:0:0:
192,148,58747,1,8,0:0:0:0:
192,148,58838,1,0,0:0:0:0:
188,60,59020,1,0,0:0:0:0:
192,156,59202,1,8,0:0:0:0:
192,148,59566,1,0,0:0:0:0:
192,148,59747,1,0,0:0:0:0:
192,148,59838,1,0,0:0:0:0:
192,148,59929,1,8,0:0:0:0:
192,148,60111,1,8,0:0:0:0:
192,148,60202,1,8,0:0:0:0:
192,148,60293,1,0,0:0:0:0:
192,148,60475,1,0,0:0:0:0:
192,148,60657,1,8,0:0:0:0:
192,148,60838,1,0,0:0:0:0:
192,148,60929,1,0,0:0:0:0:
192,148,61020,1,8,0:0:0:0:
192,148,61202,1,0,0:0:0:0:
192,148,61293,1,0,0:0:0:0:
192,148,61384,1,8,0:0:0:0:
192,148,61566,1,8,0:0:0:0:
192,148,61657,1,8,0:0:0:0:
192,148,61747,1,0,0:0:0:0:
188,60,61929,1,0,0:0:0:0:
192,156,62111,1,8,0:0:0:0:
204,152,62475,1,4,0:0:0:0:
44,16,62838,1,8,0:0:0:0:
124,84,63020,1,8,0:0:0:0:
168,116,63111,1,8,0:0:0:0:
168,116,63202,1,0,0:0:0:0:
112,28,63384,1,0,0:0:0:0:
172,116,63566,1,8,0:0:0:0:
156,12,63747,1,0,0:0:0:0:
104,116,64111,1,0,0:0:0:0:
160,64,64293,1,8,0:0:0:0:
160,64,64475,1,8,0:0:0:0:
96,124,64657,1,0,0:0:0:0:
96,124,64747,1,0,0:0:0:0:
96,124,64838,1,0,0:0:0:0:
96,124,65020,1,8,0:0:0:0:
96,124,65384,1,0,0:0:0:0:
96,124,65566,1,0,0:0:0:0:
96,124,65657,1,0,0:0:0:0:
96,124,65747,1,8,0:0:0:0:
96,124,65929,1,8,0:0:0:0:
96,124,66111,1,0,0:0:0:0:
96,124,66202,1,0,0:0:0:0:
96,124,66293,1,0,0:0:0:0:
96,124,66475,1,8,0:0:0:0:
44,228,66657,1,4,0:0:0:0:
168,80,67020,1,8,0:0:0:0:
108,148,67202,1,8,0:0:0:0:
184,136,67384,1,0,0:0:0:0:
148,104,67566,1,8,0:0:0:0:
196,124,67747,1,0,0:0:0:0:
92,148,67929,1,8,0:0:0:0:
96,124,68020,1,8,0:0:0:0:
92,148,68111,1,0,0:0:0:0:
196,152,68293,1,4,0:0:0:0:
196,152,68475,1,0,0:0:0:0:
196,152,68566,1,0,0:0:0:0:
196,152,68657,1,8,0:0:0:0:
196,152,68838,1,8,0:0:0:0:
196,152,68929,1,8,0:0:0:0:
196,152,69020,1,0,0:0:0:0:
108,108,69202,1,0,0:0:0:0:
200,156,69384,1,8,0:0:0:0:
88,92,69566,1,0,0:0:0:0:
132,116,69657,1,0,0:0:0:0:
176,144,69747,1,8,0:0:0:0:
176,144,69838,1,8,0:0:0:0:
176,144,69929,1,0,0:0:0:0:
156,48,70111,1,8,0:0:0:0:
180,144,70293,1,0,0:0:0:0:
168,92,70657,1,0,0:0:0:0:
168,92,70838,1,8,0:0:0:0:
132,116,70929,1,8,0:0:0:0:
132,116,71020,1,8,0:0:0:0:
148,104,71202,1,0,0:0:0:0:
132,116,71384,1,0,0:0:0:0:
92,148,71566,1,8,0:0:0:0:
96,124,71657,1,8,0:0:0:0:
92,148,71747,1,8,0:0:0:0:
196,152,71929,1,0,0:0:0:0:
196,152,72111,1,0,0:0:0:0:
196,152,72202,1,0,0:0:0:0:
196,152,72293,1,8,0:0:0:0:
196,152,72475,1,0,0:0:0:0:
196,152,72566,1,0,0:0:0:0:
196,152,72657,1,8,0:0:0:0:
108,108,72838,1,0,0:0:0:0:
200,156,73020,1,8,0:0:0:0:
88,92,73202,1,8,0:0:0:0:
132,116,73293,1,8,0:0:0:0:
176,144,73384,1,0,0:0:0:0:
176,144,73475,1,0,0:0:0:0:
176,144,73566,1,0,0:0:0:0:
156,48,73747,1,8,0:0:0:0:
180,144,73929,1,8,0:0:0:0:
168,92,74111,1,4,0:0:0:0:
348,204,74475,1,8,0:0:0:0:
252,148,74657,1,0,0:0:0:0:
208,120,74747,1,0,0:0:0:0:
252,148,74838,1,0,0:0:0:0:
172,104,75020,1,0,0:0:0:0:
232,136,75111,1,0,0:0:0:0:
232,136,75202,1,8,0:0:0:0:
232,136,75384,1,8,0:0:0:0:
232,136,75566,1,0,0:0:0:0:
208,120,75929,1,8,0:0:0:0:
104,128,76111,1,0,0:0:0:0:
52,140,76202,1,0,0:0:0:0:
104,132,76293,1,0,0:0:0:0:
208,112,76475,1,0,0:0:0:0:
156,120,76566,1,0,0:0:0:0:
104,132,76657,1,8,0:0:0:0:
188,52,76838,1,8,0:0:0:0:
112,120,77020,1,0,0:0:0:0:
124,104,77384,1,0,0:0:0:0:
112,120,77566,1,0,0:0:0:0:
112,120,77747,1,0,0:0:0:0:
112,120,77929,1,0,0:0:0:0:
112,120,78111,1,0,0:0:0:0:
112,120,78293,1,12,0:0:0:0:
260,248,78657,1,8,0:0:0:0:
192,188,78838,1,0,0:0:0:0:
152,156,78929,1,8,0:0:0:0:
108,124,79020,1,0,0:0:0:0:
40,56,79202,1,8,0:0:0:0:
112,76,79293,1,8,0:0:0:0:
116,120,79384,1,0,0:0:0:0:
152,156,79475,1,0,0:0:0:0:
216,200,79566,1,8,0:0:0:0:
132,148,79747,1,0,0:0:0:0:
132,148,79929,1,12,0:0:0:0:
220,120,80111,1,0,0:0:0:0:
128,148,80293,1,0,0:0:0:0:
220,120,80475,1,12,0:0:0:0:
120,152,80657,1,0,0:0:0:0:
232,116,80838,1,0,0:0:0:0:
128,148,81020,1,8,0:0:0:0:
340,132,81384,1,0,0:0:0:0:
232,140,81566,1,8,0:0:0:0:
128,148,81747,1,8,0:0:0:0:
240,140,81929,1,0,0:0:0:0:
140,148,82111,1,8,0:0:0:0:
256,140,82384,1,0,0:0:0:0:
128,148,82475,1,8,0:0:0:0:
128,148,82657,1,0,0:0:0:0:
148,36,82838,1,12,0:0:0:0:
120,148,83020,1,0,0:0:0:0:
144,44,83202,1,0,0:0:0:0:
116,152,83384,1,12,0:0:0:0:
140,52,83566,1,0,0:0:0:0:
124,164,83747,1,0,0:0:0:0:
136,68,83929,1,8,0:0:0:0:
264,236,84293,1,8,0:0:0:0:
216,144,84475,1,0,0:0:0:0:
228,124,84566,1,0,0:0:0:0:
228,124,84657,1,8,0:0:0:0:
156,24,84838,1,0,0:0:0:0:
188,68,84929,1,0,0:0:0:0:
228,124,85020,1,0,0:0:0:0:
164,44,85202,1,0,0:0:0:0:
196,84,85293,1,0,0:0:0:0:
228,128,85384,1,8,0:0:0:0:
144,108,85566,1,4,0:0:0:0:
