osu file format v14

[General]
AudioFilename: [ore gairu op1]nagi yanagi - yukitoki.mp3
AudioLeadIn: 0
PreviewTime: 56997
Countdown: 1
SampleSet: Soft
StackLeniency: 0.7
Mode: 0
LetterboxInBreaks: 1
WidescreenStoryboard: 0

[Editor]
DistanceSpacing: 2
BeatDivisor: 4
GridSize: 4
TimelineZoom: 1.4

[Metadata]
Title:Yukitoki
TitleUnicode:ユキトキ
Artist:yanaginagi
ArtistUnicode:yanaginagi
Creator:Dimadesu
Version:Idk stuff
Source:やはり俺の青春ラブコメはまちがっている
Tags:oregairu snafu hamachi
BeatmapID:943936
BeatmapSetID:438509

[Difficulty]
HPDrainRate:7
CircleSize:4
OverallDifficulty:7
ApproachRate:9
SliderMultiplier:1.4
SliderTickRate:2

[Events]
//Background and Video events
0,0,"oregairu-9.jpg",0,0
//Break Periods
//Storyboard Layer 0 (Background)
//Storyboard Layer 1 (Fail)
//Storyboard Layer 2 (Pass)
//Storyboard Layer 3 (Foreground)
//Storyboard Sound Samples

[TimingPoints]
995,363.636363636364,4,2,2,100,1,0
995,-66.6666666666667,4,2,2,100,0,0
20631,363.636363636364,4,2,2,100,1,0

[Colours]
Combo1 : 255,0,128
Combo2 : 128,255,0
Combo3 : 0,255,255
Combo4 : 255,255,128

[HitObjects]
264,104,995,6,0,P|320:120|352:184,1,105.000004005432,2|0,0:0|0:0,0:0:0:0:
256,272,1358,2,0,P|200:256|168:192,1,105.000004005432,2|0,0:0|0:0,0:0:0:0:
96,88,1722,1,2,0:0:0:0:
48,224,1904,1,0,0:0:0:0:
128,320,2085,2,0,P|176:344|240:304,1,105.000004005432,2|0,0:0|0:0,0:0:0:0:
352,168,2449,5,2,0:0:0:0:
472,284,2631,1,0,0:0:0:0:
484,112,2813,1,2,0:0:0:0:
344,312,2995,1,0,0:0:0:0:
288,104,3176,2,0,P|212:56|192:60,1,105.000004005432,2|0,0:0|0:0,0:0:0:0:
200,168,3540,2,0,P|113:143|103:126,1,105.000004005432,2|0,0:0|0:0,0:0:0:0:
208,64,3904,5,2,0:0:0:0:
104,248,4085,1,0,0:0:0:0:
160,160,4267,1,2,0:0:0:0:
48,344,4449,1,0,0:0:0:0:
256,344,4631,1,2,0:0:0:0:
416,272,4813,1,0,0:0:0:0:
292,192,4995,1,2,0:0:0:0:
416,112,5176,1,0,0:0:0:0:
292,192,5358,6,0,P|224:228|164:208,1,105.000004005432,2|0,0:0|0:0,0:0:0:0:
68,112,5722,1,2,0:0:0:0:
256,196,5904,1,0,0:0:0:0:
416,112,6085,1,2,0:0:0:0:
256,192,6176,12,0,7813,0:0:0:0:
68,216,7904,5,2,0:0:0:0:
93,239,7994,1,0,0:0:0:0:
123,258,8085,1,0,0:0:0:0:
155,270,8176,1,0,0:0:0:0:
188,276,8267,6,0,P|244:276|280:240,1,105.000004005432,8|0,0:0|0:0,0:0:0:0:
368,116,8631,1,0,0:0:0:0:
224,24,8813,2,0,P|191:69|199:119,1,105.000004005432,8|0,0:0|0:0,0:0:0:0:
240,276,9176,1,0,0:0:0:0:
408,164,9358,2,0,P|394:109|350:83,1,105.000004005432,8|0,0:0|0:0,0:0:0:0:
168,24,9722,1,0,0:0:0:0:
48,116,9904,2,8,P|12:168|48:216,1,105.000004005432
256,332,10449,1,8,0:0:0:0:
428,192,10813,1,8,0:0:0:0:
348,84,10995,5,0,0:0:0:0:
308,50,11085,1,0,0:0:0:0:
257,41,11176,2,0,P|188:40|152:68,1,105.000004005432,8|0,0:0|0:0,0:0:0:0:
36,196,11540,1,0,0:0:0:0:
200,308,11722,1,8,0:0:0:0:
184,112,11904,1,0,0:0:0:0:
116,256,12085,1,0,0:0:0:0:
292,236,12267,1,8,0:0:0:0:
108,144,12449,1,0,0:0:0:0:
152,328,12631,6,0,P|224:344|264:324,1,105.000004005432,8|0,0:0|0:0,0:0:0:0:
272,324,12904,1,0,0:0:0:0:
304,328,12995,2,0,P|376:344|416:324,1,105.000004005432,8|0,0:0|0:0,0:0:0:0:
424,320,13267,1,0,0:0:0:0:
444,296,13358,2,0,P|460:224|440:184,1,105.000004005432,8|0,0:0|0:0,0:0:0:0:
436,168,13631,1,0,0:0:0:0:
424,144,13721,1,8,0:0:0:0:
406,125,13812,1,0,0:0:0:0:
384,111,13903,1,0,0:0:0:0:
359,103,13994,1,0,0:0:0:0:
333,101,14085,1,8,0:0:0:0:
