osu file format v13

[General]
AudioFilename: yanaginagi 01.mp3
AudioLeadIn: 0
PreviewTime: 27854
Countdown: 0
SampleSet: Soft
StackLeniency: 0.7
Mode: 3
LetterboxInBreaks: 0
SpecialStyle: 0
WidescreenStoryboard: 1

[Editor]
DistanceSpacing: 1.3
BeatDivisor: 2
GridSize: 4
TimelineZoom: 0.5999999

[Metadata]
Title:Vidro Moyou (Tell Your World Mix)
TitleUnicode:Vidro Moyou (Tell Your World Mix)
Artist:yanaginagi
ArtistUnicode:yanaginagi
Creator:[ C r a c k ]
Version:Easy
Source:
Tags:ano natsu de matteru vocaloid
BeatmapID:496967
BeatmapSetID:209751

[Difficulty]
HPDrainRate:6
CircleSize:4
OverallDifficulty:7
ApproachRate:5
SliderMultiplier:1.4
SliderTickRate:1

[Events]
//Background and Video events
0,0,"1831942.jpg",0,0
//Break Periods
//Storyboard Layer 0 (Background)
//Storyboard Layer 1 (Fail)
//Storyboard Layer 2 (Pass)
//Storyboard Layer 3 (Foreground)
//Storyboard Sound Samples
//Background Colour Transformations
3,100,163,162,255

[TimingPoints]
1732,408.163265306122,4,2,1,20,1,0
68670,-100,4,2,1,20,0,1
94793,-100,4,2,1,20,0,0

[HitObjects]
64,192,1732,5,0,0:0:0:0:
192,192,1936,1,0,0:0:0:0:
320,192,2140,1,0,0:0:0:0:
448,192,2344,1,2,0:0:0:0:
192,192,2752,1,0,0:0:0:0:
320,192,2956,1,0,0:0:0:0:
448,192,3160,1,2,0:0:0:0:
192,192,3568,1,0,0:0:0:0:
320,192,3772,1,0,0:0:0:0:
448,192,3976,1,2,0:0:0:0:
64,192,4385,1,0,0:0:0:0:
192,192,4589,1,0,0:0:0:0:
320,192,4793,1,2,0:0:0:0:
192,192,4997,1,0,0:0:0:0:
320,192,5201,1,0,0:0:0:0:
448,192,5405,1,0,0:0:0:0:
320,192,5609,1,2,0:0:0:0:
448,192,6017,1,0,0:0:0:0:
320,192,6221,1,0,0:0:0:0:
192,192,6425,1,2,0:0:0:0:
448,192,6834,1,0,0:0:0:0:
320,192,7038,1,0,0:0:0:0:
192,192,7242,1,2,0:0:0:0:
448,192,7650,1,0,0:0:0:0:
320,192,7854,1,0,0:0:0:0:
192,192,8058,1,2,0:0:0:0:
64,192,8262,1,0,0:0:0:0:
192,192,8466,1,0,0:0:0:0:
320,192,8670,1,0,0:0:0:0:
448,192,8874,1,2,0:0:0:0:
192,192,9283,1,0,0:0:0:0:
320,192,9487,1,0,0:0:0:0:
448,192,9691,1,2,0:0:0:0:
192,192,10099,1,0,0:0:0:0:
320,192,10303,1,0,0:0:0:0:
448,192,10507,1,2,0:0:0:0:
192,192,10915,1,0,0:0:0:0:
320,192,11119,1,0,0:0:0:0:
448,192,11323,1,2,0:0:0:0:
320,192,11527,1,0,0:0:0:0:
192,192,11731,1,0,0:0:0:0:
64,192,11936,1,0,0:0:0:0:
192,192,12140,1,2,0:0:0:0:
64,192,12548,1,0,0:0:0:0:
192,192,12752,1,0,0:0:0:0:
320,192,12956,1,2,0:0:0:0:
448,192,13364,1,0,0:0:0:0:
320,192,13568,1,0,0:0:0:0:
192,192,13772,1,0,0:0:0:0:
64,192,13976,1,0,0:0:0:0:
192,192,14180,1,0,0:0:0:0:
320,192,14385,1,0,0:0:0:0:
192,192,14589,1,0,0:0:0:0:
448,192,14793,1,0,0:0:0:0:
320,192,14997,1,0,0:0:0:0:
192,192,15201,1,0,0:0:0:0:
64,192,15405,1,2,0:0:0:0:
320,192,15813,1,0,0:0:0:0:
192,192,16017,1,0,0:0:0:0:
64,192,16221,1,2,0:0:0:0:
320,192,16629,1,0,0:0:0:0:
192,192,16834,1,0,0:0:0:0:
64,192,17038,1,2,0:0:0:0:
448,192,17446,1,0,0:0:0:0:
320,192,17650,1,0,0:0:0:0:
192,192,17854,1,2,0:0:0:0:
64,192,18058,1,0,0:0:0:0:
192,192,18262,1,0,0:0:0:0:
320,192,18466,1,0,0:0:0:0:
448,192,18670,1,2,0:0:0:0:
192,192,19078,1,0,0:0:0:0:
320,192,19283,1,0,0:0:0:0:
448,192,19487,1,2,0:0:0:0:
192,192,19895,1,0,0:0:0:0:
320,192,20099,1,0,0:0:0:0:
448,192,20303,1,2,0:0:0:0:
64,192,20711,1,0,0:0:0:0:
192,192,20915,1,0,0:0:0:0:
320,192,21119,1,2,0:0:0:0:
448,192,21323,1,0,0:0:0:0:
320,192,21527,1,0,0:0:0:0:
192,192,21731,1,0,0:0:0:0:
64,192,21936,1,2,0:0:0:0:
320,192,22344,1,0,0:0:0:0:
192,192,22548,1,0,0:0:0:0:
64,192,22752,1,2,0:0:0:0:
320,192,23160,1,0,0:0:0:0:
192,192,23364,1,0,0:0:0:0:
64,192,23568,1,2,0:0:0:0:
448,192,23976,1,0,0:0:0:0:
320,192,24180,1,0,0:0:0:0:
192,192,24385,1,2,0:0:0:0:
64,192,24589,1,0,0:0:0:0:
192,192,24793,1,0,0:0:0:0:
320,192,24997,1,0,0:0:0:0:
448,192,25201,1,2,0:0:0:0:
64,192,25609,1,0,0:0:0:0:
192,192,25813,1,0,0:0:0:0:
320,192,26017,1,0,0:0:0:0:
448,192,26221,128,2,27854:0:0:0:0:
320,192,27854,1,0,0:0:0:0:
192,192,28058,1,0,0:0:0:0:
64,192,28262,1,0,0:0:0:0:
192,192,28466,1,2,0:0:0:0:
64,192,28874,1,0,0:0:0:0:
192,192,29078,1,0,0:0:0:0:
320,192,29283,1,2,0:0:0:0:
192,192,29691,1,0,0:0:0:0:
320,192,29895,1,0,0:0:0:0:
448,192,30099,1,2,0:0:0:0:
320,192,30507,1,0,0:0:0:0:
192,192,30711,1,0,0:0:0:0:
64,192,30915,1,0,0:0:0:0:
192,192,31119,1,2,0:0:0:0:
448,192,31527,1,0,0:0:0:0:
320,192,31731,1,2,0:0:0:0:
64,192,32140,1,0,0:0:0:0:
192,192,32344,1,0,0:0:0:0:
320,192,32548,1,2,0:0:0:0:
64,192,32956,1,0,0:0:0:0:
192,192,33160,1,0,0:0:0:0:
320,192,33364,1,2,0:0:0:0:
448,192,33772,1,0,0:0:0:0:
320,192,33976,1,0,0:0:0:0:
192,192,34180,1,0,0:0:0:0:
320,192,34385,1,2,0:0:0:0:
448,192,34589,1,0,0:0:0:0:
320,192,34793,1,0,0:0:0:0:
192,192,34997,1,2,0:0:0:0:
320,192,35405,1,0,0:0:0:0:
192,192,35609,1,0,0:0:0:0:
320,192,35813,1,0,0:0:0:0:
448,192,36017,1,2,0:0:0:0:
192,192,36221,1,0,0:0:0:0:
320,192,36425,1,0,0:0:0:0:
448,192,36629,1,2,0:0:0:0:
320,192,37038,1,0,0:0:0:0:
192,192,37242,1,0,0:0:0:0:
64,192,37446,1,0,0:0:0:0:
192,192,37650,1,2,0:0:0:0:
320,192,38058,1,0,0:0:0:0:
192,192,38262,1,2,0:0:0:0:
320,192,38670,1,0,0:0:0:0:
192,192,38874,1,0,0:0:0:0:
64,192,39078,1,0,0:0:0:0:
192,192,39283,1,2,0:0:0:0:
320,192,39487,1,0,0:0:0:0:
448,192,39691,1,0,0:0:0:0:
320,192,39895,1,0,0:0:0:0:
192,192,40099,1,2,0:0:0:0:
64,192,40303,1,0,0:0:0:0:
192,192,40507,1,0,0:0:0:0:
320,192,40711,1,0,0:0:0:0:
448,192,40915,1,2,0:0:0:0:
192,192,41527,1,0,0:0:0:0:
448,192,41936,1,0,0:0:0:0:
320,192,42140,1,0,0:0:0:0:
192,192,42344,1,2,0:0:0:0:
320,192,42548,1,0,0:0:0:0:
448,192,42752,1,0,0:0:0:0:
320,192,42956,1,0,0:0:0:0:
192,192,43160,1,2,0:0:0:0:
64,192,43568,1,0,0:0:0:0:
192,192,43772,1,0,0:0:0:0:
320,192,43976,1,0,0:0:0:0:
192,192,44180,1,2,0:0:0:0:
320,192,44589,1,0,0:0:0:0:
448,192,44793,1,2,0:0:0:0:
320,192,45201,1,0,0:0:0:0:
192,192,45405,1,0,0:0:0:0:
64,192,45609,1,2,0:0:0:0:
320,192,46221,1,0,0:0:0:0:
192,192,46425,1,0,0:0:0:0:
448,192,46834,1,0,0:0:0:0:
320,192,47038,1,0,0:0:0:0:
192,192,47242,1,0,0:0:0:0:
320,192,47446,1,2,0:0:0:0:
192,192,47854,1,0,0:0:0:0:
64,192,48058,1,2,0:0:0:0:
320,192,48466,1,0,0:0:0:0:
192,192,48670,1,0,0:0:0:0:
320,192,48874,1,0,0:0:0:0:
448,192,49078,1,2,0:0:0:0:
64,192,49283,1,0,0:0:0:0:
192,192,49487,1,0,0:0:0:0:
320,192,49691,1,2,0:0:0:0:
448,192,50099,1,0,0:0:0:0:
320,192,50303,1,0,0:0:0:0:
192,192,50507,1,0,0:0:0:0:
64,192,50711,1,2,0:0:0:0:
448,192,51119,1,2,0:0:0:0:
64,192,51323,1,2,0:0:0:0:
192,192,51731,1,0,0:0:0:0:
320,192,51936,1,0,0:0:0:0:
448,192,52140,1,2,0:0:0:0:
320,192,52344,1,0,0:0:0:0:
192,192,52548,1,0,0:0:0:0:
64,192,52752,1,0,0:0:0:0:
192,192,52956,1,0,0:0:0:0:
320,192,53160,1,0,0:0:0:0:
448,192,53364,1,0,0:0:0:0:
320,192,53568,1,0,0:0:0:0:
192,192,53772,1,0,0:0:0:0:
64,192,53976,1,8,0:0:0:0:
192,192,54385,1,8,0:0:0:0:
448,192,54793,1,8,0:0:0:0:
320,192,54997,1,0,0:0:0:0:
448,192,55405,1,8,0:0:0:0:
64,192,55813,1,0,0:0:0:0:
192,192,56017,1,8,0:0:0:0:
64,192,56425,1,8,0:0:0:0:
448,192,56629,1,0,0:0:0:0:
320,192,57038,1,8,0:0:0:0:
192,192,57242,1,8,0:0:0:0:
192,192,57650,1,8,0:0:0:0:
320,192,58058,1,0,0:0:0:0:
64,192,58262,1,0,0:0:0:0:
192,192,58670,1,0,0:0:0:0:
320,192,59078,1,8,0:0:0:0:
192,192,59283,128,2,59691:0:0:0:0:
64,192,59691,1,2,0:0:0:0:
320,192,59895,128,2,60303:0:0:0:0:
192,192,60303,1,8,0:0:0:0:
64,192,60507,1,8,0:0:0:0:
64,192,60915,1,8,0:0:0:0:
320,192,61323,1,8,0:0:0:0:
192,192,61527,1,0,0:0:0:0:
320,192,61936,1,8,0:0:0:0:
192,192,62344,1,0,0:0:0:0:
64,192,62548,1,8,0:0:0:0:
192,192,62956,1,0,0:0:0:0:
448,192,63160,1,0,0:0:0:0:
320,192,63568,1,0,0:0:0:0:
64,192,63772,1,0,0:0:0:0:
192,192,64180,1,0,0:0:0:0:
192,192,64589,1,0,0:0:0:0:
320,192,64793,1,0,0:0:0:0:
448,192,64997,1,8,0:0:0:0:
192,192,65201,1,8,0:0:0:0:
320,192,65609,128,2,67446:0:0:0:0:
64,192,67650,128,2,68262:0:0:0:0:
192,192,68262,1,8,0:0:0:0:
448,192,68670,1,0,0:0:0:0:
320,192,68670,1,4,0:0:0:0:
192,192,68874,1,0,0:0:0:0:
64,192,69078,1,0,0:0:0:0:
192,192,69283,1,0,0:0:0:0:
320,192,69487,1,0,0:0:0:0:
192,192,69691,1,0,0:0:0:0:
448,192,69895,1,0,0:0:0:0:
64,192,70099,1,0,0:0:0:0:
320,192,70303,1,0,0:0:0:0:
192,192,70507,1,0,0:0:0:0:
64,192,70711,1,0,0:0:0:0:
320,192,70915,1,0,0:0:0:0:
192,192,71119,1,0,0:0:0:0:
320,192,71323,1,0,0:0:0:0:
448,192,71527,1,0,0:0:0:0:
320,192,71731,1,0,0:0:0:0:
64,192,71936,1,0,0:0:0:0:
192,192,71936,1,0,0:0:0:0:
320,192,72140,1,0,0:0:0:0:
448,192,72344,1,0,0:0:0:0:
320,192,72548,1,0,0:0:0:0:
192,192,72752,1,0,0:0:0:0:
64,192,72956,1,0,0:0:0:0:
192,192,73160,1,0,0:0:0:0:
448,192,73364,1,0,0:0:0:0:
320,192,73568,1,2,0:0:0:0:
192,192,73976,1,0,0:0:0:0:
320,192,74385,128,0,74793:0:0:0:0:
64,192,74793,1,0,0:0:0:0:
192,192,74997,128,2,75609:0:0:0:0:
448,192,75609,1,0,0:0:0:0:
320,192,75813,1,0,0:0:0:0:
64,192,76017,1,0,0:0:0:0:
192,192,76221,1,0,0:0:0:0:
320,192,76425,1,0,0:0:0:0:
192,192,76629,1,0,0:0:0:0:
64,192,76834,1,0,0:0:0:0:
192,192,77038,1,0,0:0:0:0:
448,192,77242,1,0,0:0:0:0:
64,192,77446,1,0,0:0:0:0:
320,192,77650,1,0,0:0:0:0:
192,192,77854,1,0,0:0:0:0:
448,192,78058,1,0,0:0:0:0:
64,192,78262,1,0,0:0:0:0:
320,192,78466,1,0,0:0:0:0:
192,192,78466,1,0,0:0:0:0:
64,192,78670,1,0,0:0:0:0:
448,192,78874,1,0,0:0:0:0:
192,192,79078,1,0,0:0:0:0:
320,192,79283,1,0,0:0:0:0:
192,192,79487,1,0,0:0:0:0:
64,192,79691,1,0,0:0:0:0:
448,192,79895,1,0,0:0:0:0:
192,192,80099,1,0,0:0:0:0:
64,192,80303,1,0,0:0:0:0:
320,192,80507,1,0,0:0:0:0:
192,192,80711,1,0,0:0:0:0:
448,192,80915,1,0,0:0:0:0:
64,192,81119,1,0,0:0:0:0:
320,192,81323,1,0,0:0:0:0:
64,192,81731,1,0,0:0:0:0:
448,192,81731,1,0,0:0:0:0:
192,192,81936,1,0,0:0:0:0:
320,192,82140,1,0,0:0:0:0:
192,192,82344,1,0,0:0:0:0:
64,192,82548,1,0,0:0:0:0:
192,192,82752,1,0,0:0:0:0:
448,192,82956,1,0,0:0:0:0:
320,192,83160,1,0,0:0:0:0:
192,192,83364,1,0,0:0:0:0:
448,192,83568,1,0,0:0:0:0:
320,192,83772,1,0,0:0:0:0:
192,192,83976,1,0,0:0:0:0:
448,192,84180,1,0,0:0:0:0:
64,192,84385,1,0,0:0:0:0:
320,192,84589,1,0,0:0:0:0:
192,192,84793,1,0,0:0:0:0:
320,192,84997,1,0,0:0:0:0:
448,192,84997,1,0,0:0:0:0:
64,192,85201,1,0,0:0:0:0:
192,192,85405,1,0,0:0:0:0:
448,192,85609,1,0,0:0:0:0:
320,192,85813,1,0,0:0:0:0:
192,192,86017,1,0,0:0:0:0:
448,192,86221,1,0,0:0:0:0:
320,192,86425,1,0,0:0:0:0:
64,192,86629,1,0,0:0:0:0:
448,192,87038,1,2,0:0:0:0:
320,192,87446,128,0,87854:0:0:0:0:
192,192,87854,1,0,0:0:0:0:
64,192,88058,128,2,88874:0:0:0:0:
192,192,89283,1,0,0:0:0:0:
320,192,89487,1,0,0:0:0:0:
448,192,89691,128,2,90099:0:0:0:0:
64,192,90507,128,0,90915:0:0:0:0:
192,192,90915,128,0,91323:0:0:0:0:
320,192,91323,1,0,0:0:0:0:
448,192,91527,128,0,93160:0:0:0:0:
64,192,93160,1,0,0:0:0:0:
320,192,93364,1,0,0:0:0:0:
192,192,93568,1,0,0:0:0:0:
320,192,93772,1,0,0:0:0:0:
192,192,93976,1,4,0:0:0:0:
64,192,94385,128,2,94793:0:0:0:0:
192,192,94793,1,6,0:0:0:0:
320,192,94997,1,0,0:0:0:0:
192,192,95201,1,0,0:0:0:0:
448,192,95405,1,0,0:0:0:0:
64,192,95609,1,0,0:0:0:0:
320,192,95813,1,0,0:0:0:0:
192,192,96017,1,0,0:0:0:0:
64,192,96221,1,0,0:0:0:0:
320,192,96425,1,0,0:0:0:0:
448,192,96629,1,0,0:0:0:0:
320,192,96834,1,0,0:0:0:0:
192,192,97038,1,0,0:0:0:0:
448,192,97242,1,0,0:0:0:0:
320,192,97446,1,0,0:0:0:0:
192,192,97650,1,0,0:0:0:0:
448,192,97854,1,0,0:0:0:0:
64,192,98058,1,0,0:0:0:0:
192,192,98058,1,0,0:0:0:0:
320,192,98262,1,0,0:0:0:0:
64,192,98466,1,0,0:0:0:0:
192,192,98670,1,0,0:0:0:0:
448,192,98874,1,0,0:0:0:0:
192,192,99078,1,0,0:0:0:0:
64,192,99283,1,0,0:0:0:0:
192,192,99487,1,0,0:0:0:0:
320,192,99691,1,0,0:0:0:0:
64,192,99895,1,0,0:0:0:0:
448,192,100099,1,0,0:0:0:0:
320,192,100303,1,0,0:0:0:0:
192,192,100507,1,0,0:0:0:0:
320,192,100711,1,0,0:0:0:0:
64,192,100915,1,0,0:0:0:0:
192,192,101119,1,0,0:0:0:0:
320,192,101323,1,0,0:0:0:0:
448,192,101323,1,0,0:0:0:0:
192,192,101527,1,0,0:0:0:0:
64,192,101731,1,0,0:0:0:0:
192,192,101936,1,0,0:0:0:0:
448,192,102140,1,0,0:0:0:0:
320,192,102344,1,0,0:0:0:0:
64,192,102548,1,0,0:0:0:0:
192,192,102752,1,0,0:0:0:0:
448,192,102956,1,0,0:0:0:0:
320,192,103160,1,0,0:0:0:0:
192,192,103364,1,0,0:0:0:0:
448,192,103568,1,0,0:0:0:0:
64,192,103772,1,0,0:0:0:0:
192,192,103976,1,0,0:0:0:0:
448,192,104180,1,0,0:0:0:0:
64,192,104385,1,0,0:0:0:0:
320,192,104589,1,0,0:0:0:0:
448,192,104589,1,0,0:0:0:0:
192,192,104793,1,0,0:0:0:0:
64,192,104997,1,0,0:0:0:0:
320,192,105201,1,0,0:0:0:0:
192,192,105405,1,0,0:0:0:0:
448,192,105609,1,0,0:0:0:0:
320,192,105813,1,0,0:0:0:0:
64,192,106017,1,0,0:0:0:0:
192,192,106221,1,0,0:0:0:0:
320,192,106425,1,0,0:0:0:0:
192,192,106629,1,0,0:0:0:0:
64,192,106834,1,0,0:0:0:0:
448,192,107038,1,0,0:0:0:0:
64,192,107242,1,0,0:0:0:0:
320,192,107446,128,0,107854:0:0:0:0:
448,192,107854,1,12,0:0:0:0:
64,192,107854,1,12,0:0:0:0:
192,192,108262,1,8,0:0:0:0:
192,192,108670,1,8,0:0:0:0:
320,192,108874,1,0,0:0:0:0:
64,192,109283,1,8,0:0:0:0:
320,192,109691,1,0,0:0:0:0:
192,192,109895,1,8,0:0:0:0:
320,192,110303,1,8,0:0:0:0:
448,192,110507,1,0,0:0:0:0:
192,192,110915,1,8,0:0:0:0:
64,192,111119,1,0,0:0:0:0:
320,192,111527,1,8,0:0:0:0:
320,192,111936,1,8,0:0:0:0:
192,192,112140,1,0,0:0:0:0:
64,192,112548,1,8,0:3:0:0:
192,192,112956,1,8,0:0:0:0:
320,192,113160,1,8,0:0:0:0:
64,192,113364,1,0,0:0:0:0:
192,192,113568,1,0,0:0:0:0:
320,192,113772,1,0,0:0:0:0:
64,192,113976,128,6,114793:0:0:0:0:
