osu file format v9

[General]
AudioFilename: wtf.mp3
AudioLeadIn: 0
PreviewTime: 58352
Countdown: 0
SampleSet: Soft
StackLeniency: 0.7
Mode: 0
LetterboxInBreaks: 0

[Editor]
Bookmarks: 15299
DistanceSpacing: 0.9
BeatDivisor: 4
GridSize: 4

[Metadata]
Title:Vidro Moyou (TV Size)
Artist:yanaginagi
Creator:JauiPlaY
Version:Insane
Source:Ano Natsu de Matteru
Tags:pokie shinki ending yanagi nagi

[Difficulty]
HPDrainRate:6
CircleSize:4
OverallDifficulty:7
ApproachRate:8
SliderMultiplier:1.8
SliderTickRate:1

[Events]
//Background and Video events
0,0,"BG.jpg"
//Break Periods
//Storyboard Layer 0 (Background)
//Storyboard Layer 1 (Fail)
//Storyboard Layer 2 (Pass)
//Storyboard Layer 3 (Foreground)
//Storyboard Sound Samples
//Background Colour Transformations
3,100,0,0,0

[TimingPoints]
643,458.015267175573,4,2,1,50,1,0
29039,-100,4,2,1,70,0,0
29955,-100,4,2,2,90,0,1
30070,-100,4,2,1,90,0,0
57436,-100,4,1,0,20,0,0
58581,-100,4,1,0,30,0,0
58810,-100,4,1,0,40,0,0
59268,-100,4,2,2,90,0,1
73810,-100,4,2,2,90,0,0
73925,-100,4,2,2,90,0,1
84917,-100,4,1,2,20,0,1
85833,-100,4,1,1,30,0,1
86749,-100,4,1,1,40,0,1
87665,-100,4,1,1,50,0,1
88467,-100,4,1,1,50,0,0
88581,-100,4,2,1,90,0,1
88696,-100,4,2,1,90,0,0

[Colours]
Combo1 : 184,113,255
Combo2 : 255,102,102
Combo3 : 255,255,30
Combo4 : 147,255,38
Combo5 : 83,169,255
SliderBorder : 255,255,255

[HitObjects]
256,192,15299,5,4
256,192,15986,1,2
320,239,16215,1,0
297,315,16444,1,2
215,315,16673,1,0
191,239,16902,1,2
256,192,17131,2,0,B|314:180|332:122|332:122|369:124|398:100,1,180,0|0
342,40,17818,6,0,B|315:144|417:181,1,180,2|2
401,311,18505,2,0,B|442:290|462:248,1,90,0|2
326,279,18963,2,0,B|267:286|229:333|229:333|209:322,1,135
209,322,19421,1,0
128,310,19650,1,2
128,310,20108,1,2
128,310,20337,2,0,B|97:275|93:229,1,90,0|2
93,228,20795,5,0
219,29,21253,1,2
419,156,21711,1,0
293,355,22169,1,2
239,294,22398,1,0
293,234,22627,6,0,B|314:197|299:154|299:154|326:146|341:123,1,135
341,123,23085,1,0
274,76,23314,1,2
274,76,23772,1,2
274,76,24001,2,0,B|192:116,1,90,0|2
193,115,24459,5,0
220,285,24917,1,2
354,175,25375,2,0,B|371:264,1,90,0|0
435,180,25833,2,0,B|417:91,1,90,2|0
345,55,26291,6,0,B|269:67|236:143|236:143|268:130,1,180
292,210,26978,1,2
292,210,27436,1,2
292,210,27665,2,0,B|256:240|246:286,1,90,0|2
166,275,28123,6,0,B|139:309,4,45,0|0|0|0|8
110,217,28810,1,2
110,217,28925,1,0
110,217,29039,2,0,B|69:193|50:151,1,90,0|2
102,89,29497,5,8
114,93,29612,1,0
126,96,29726,1,2
139,100,29841,1,0
151,103,29955,2,0,B|216:98|251:47|251:47|266:52,1,135,4|0
266,53,30413,1,8
303,125,30643,5,2
379,150,30872,2,0,B|398:108|438:84,1,90,0|2
437,207,31330,2,0,B|418:249|378:273,1,90,8|2
328,337,31788,2,0,B|240:319,1,90,0|0
239,318,32131,1,0
239,318,32246,1,8
192,253,32475,5,2
116,223,32704,2,0,B|97:265|57:289,1,90,0|2
80,150,33162,2,0,B|44:180|-1:184,1,90,8|2
0,184,33505,1,8
0,184,33620,6,0,B|77:132|171:143,1,180,0|8
232,90,34307,1,2
232,90,34421,1,0
232,90,34536,2,0,B|270:63|286:20,1,90,0|2
294,144,34994,2,0,B|255:170|239:213,1,90,8|2
309,311,35452,6,0,B|300:267|319:223,1,90
382,276,35910,2,0,B|390:323|422:354,1,90,10|0
457,247,36368,1,0
457,247,36482,2,0,B|481:157,1,90
480,160,36826,1,10
425,100,37055,1,0
415,90,37169,1,0
405,80,37284,6,0,B|349:84|310:48|310:48|280:65,1,135,4|0
281,64,37742,1,8
207,102,37971,1,2
207,102,38429,1,2
207,102,38658,2,0,B|188:195,1,90,8|2
228,334,39116,6,0,B|247:246,1,90,0|0
112,212,39574,2,0,B|19:193,1,90,8|2
316,319,40032,2,0,B|404:337,1,90,0|2
459,277,40490,2,0,B|458:232|485:192,1,90,8|2
485,192,40833,1,0
485,192,40948,6,0,B|464:155|473:112|473:112|460:88|430:89,1,135
429,89,41406,1,8
358,127,41635,1,2
235,156,41864,2,0,B|271:130|288:85,1,90,0|10
154,147,42322,2,0,B|117:173|101:218,1,90,0|10
256,192,42780,12,4,44612
256,192,45299,5,0
256,192,45413,1,0
256,192,45528,1,0
269,271,45757,1,0
335,316,45986,2,0,B|352:270|388:244,1,90,8|0
469,244,46444,6,0,B|473:149|416:76,1,180,0|8
348,120,47131,2,0,B|253:118|183:57,1,180,0|8
110,95,47818,2,0,B|80:180,1,90,0|8
66,191,48162,1,0
51,202,48276,6,0,B|21:287,2,90,0|0|8
100,304,48963,1,0
167,348,49192,2,0,B|212:366|255:356,1,90,0|0
358,285,49650,2,0,B|312:267|270:277,1,90,8|0
240,201,50108,6,0,B|244:157,2,45
240,201,50566,1,8
185,99,50795,1,0
185,99,50910,2,0,B|212:13,1,90
211,13,51253,1,8
276,60,51482,5,0
284,70,51597,1,0
292,80,51711,1,8
300,90,51826,1,0
308,100,51940,2,0,B|376:95|422:143|422:143|415:149,1,135,4|0
414,149,52398,1,8
403,229,52627,6,0,B|354:209|318:246|318:246|284:216|237:224,1,180
167,283,53314,2,0,B|207:309|252:308,1,90,8|0
120,208,53772,2,0,B|89:261|22:231|12:159|71:144,1,180,0|8
71,144,54459,5,8
389,56,54917,1,8
306,375,55375,1,8
306,375,55490,1,0
306,375,55604,6,0,B|284:288,1,90,4|0
181,188,56062,2,0,B|204:276,1,90,8|0
310,134,56520,2,0,B|333:222,1,90
230,123,56978,2,0,B|208:36,1,90,8|0
128,56,57436,5,0
118,81,57551,1,0
108,106,57665,1,0
98,131,57780,1,0
88,156,57894,1,0
78,181,58009,1,0
68,206,58123,1,0
58,231,58238,1,0
48,256,58352,6,0,B|56:280,15,22.5
55,277,59268,6,0,B|136:320,1,90,4|2
204,280,59726,1,8
272,320,59955,2,0,B|322:303|326:252|326:252|371:253|402:217,1,180,2|2
336,172,60642,1,10
332,92,60872,2,0,B|364:59,1,45
404,52,61101,6,0,B|402:97|428:137,1,90,4|2
426,300,61559,2,0,B|428:255|402:216,1,90,8|2
336,172,62017,2,0,B|309:132|311:87,1,90,0|2
309,251,62475,2,0,B|335:290|334:336,1,90,10|0
334,335,62818,1,0
334,335,62933,6,0,B|249:360,1,90,4|2
107,323,63391,2,0,B|194:299,1,90,8|2
194,299,64078,1,2
246,237,64307,2,0,B|219:198|219:152,1,90,10|0
229,73,64765,6,0,B|198:108|153:119,1,90,4|0
375,165,65223,2,0,B|339:134|328:89,1,90,10|0
283,311,65681,2,0,B|313:275|358:264,1,90
137,219,66139,2,0,B|172:249|183:294,1,90,10|0
183,294,66482,1,0
183,294,66597,6,0,B|123:247|139:174,1,135,4|0
139,174,67055,1,8
251,50,67284,1,2
251,50,67398,1,0
251,50,67513,2,0,B|238:95|202:123,1,90,0|2
380,81,67971,2,0,B|346:112|299:115,1,90,10|0
392,164,68429,5,4
440,240,68658,1,2
328,228,68887,1,8
338,326,69116,1,2
240,248,69345,1,0
203,349,69574,1,2
152,228,69803,1,10
68,309,70032,1,0
68,309,70146,1,0
68,309,70261,6,0,B|85:260|41:233|32:253|32:253|52:263|69:215|26:187,1,180,4|8
26,188,70948,1,2
26,188,71406,2,0,B|84:176|84:176|104:152,1,90,2|10
184,158,71864,1,0
210,159,71978,1,0
233,172,72093,6,0,B|270:144|284:100,1,90,4|0
353,57,72551,2,0,B|412:125,1,90,10|0
405,150,72894,1,0
400,175,73009,2,0,B|459:243,1,90,0|8
415,311,73467,5,2
399,319,73581,1,0
383,328,73696,1,8
367,336,73810,1,0
351,344,73925,6,0,B|292:331|266:275|266:275|244:279,1,135,4|0
244,279,74383,1,8
184,224,74612,2,0,B|157:262|113:277,1,90,2|0
155,148,75070,2,0,B|181:109|225:94,1,90,2|10
305,82,75528,1,0
384,99,75757,6,0,B|410:102|430:87|430:87|447:74|468:75,1,90,4|2
423,192,76215,2,0,B|405:179|384:181|384:181|359:183|339:165,1,90,8|2
266,203,76673,2,0,B|273:228|295:241|295:241|314:250|321:271,1,90,0|2
195,298,77131,2,0,B|199:277|188:258|188:258|177:236|185:210,1,90,10|0
162,195,77475,1,0
148,171,77589,6,0,B|110:199|64:199,1,90,4|2
8,303,78047,2,0,B|45:275|92:275,1,90,8|2
91,274,78734,2,0,B|172:319,1,90,2|10
323,330,79192,2,0,B|245:287,1,90,0|4
299,178,79765,1,0
299,178,79879,6,0,B|261:206|215:206,1,90,10|0
381,176,80337,2,0,B|375:129|398:89,1,90
342,248,80795,2,0,B|385:266|408:306,1,90,10|0
408,306,81139,1,0
408,306,81253,6,0,B|334:291|289:352,1,135,4|0
289,351,81711,2,0,B|203:326,1,90,8|2
203,326,82398,1,2
242,257,82627,1,10
190,197,82856,1,0
116,228,83085,6,0,B|95:299|20:310,1,135,4|0
79,156,83543,2,0,B|50:120|48:73,1,90,8|2
170,33,84001,2,0,B|146:74|151:120,1,90,0|2
232,120,84459,2,0,B|252:78|293:57,1,90,10|0
372,84,84917,6,0,B|415:79,3,45,4|0|0|0
466,152,85375,2,0,B|421:157,3,45,0|0|0|0
392,240,85833,2,0,B|436:234,3,45,0|0|0|0
485,307,86291,2,0,B|440:312,3,45,0|0|0|0
417,345,86749,5,4
390,349,86864,1,0
363,353,86978,1,0
336,357,87093,1,0
313,323,87207,5,0
283,327,87322,1,0
253,331,87436,1,0
223,336,87551,1,0
200,302,87665,5,0
167,306,87780,1,0
135,311,87894,1,0
102,315,88009,1,0
70,320,88123,6,0,B|42:325,8,22.5,0|0|0|0|0|0|0|0|4
