osu file format v9

[General]
AudioFilename: wtf.mp3
AudioLeadIn: 0
PreviewTime: 58352
Countdown: 0
SampleSet: Soft
StackLeniency: 0.7
Mode: 0
LetterboxInBreaks: 0

[Editor]
Bookmarks: 15299
DistanceSpacing: 1.1
BeatDivisor: 4
GridSize: 4

[Metadata]
Title:Vidro Moyou (TV Size)
Artist:yanaginagi
Creator:JauiPlaY
Version:Easy
Source:Ano Natsu de Matteru
Tags:pokie shinki ending yanagi nagi

[Difficulty]
HPDrainRate:1
CircleSize:3
OverallDifficulty:1
ApproachRate:3
SliderMultiplier:0.8
SliderTickRate:1

[Events]
//Background and Video events
0,0,"BG.jpg"
//Break Periods
//Storyboard Layer 0 (Background)
//Storyboard Layer 1 (Fail)
//Storyboard Layer 2 (Pass)
//Storyboard Layer 3 (Foreground)
//Storyboard Sound Samples
//Background Colour Transformations
3,100,0,0,0

[TimingPoints]
643,458.015267175573,4,2,1,80,1,0
29955,-100,4,2,1,90,0,1
30070,-100,4,2,1,90,0,0
55604,-100,4,2,1,45,0,0
59268,-100,4,2,1,100,0,1
59383,-100,4,2,2,100,0,1
73810,-100,4,2,1,100,0,0
73925,-100,4,2,1,100,0,1
74039,-100,4,2,2,100,0,1
88467,-100,4,2,1,100,0,0
88581,-100,4,2,1,100,0,1
88696,-100,4,2,1,100,0,0

[Colours]
Combo1 : 184,113,255
Combo2 : 255,102,102
Combo3 : 255,255,30
Combo4 : 147,255,38
Combo5 : 83,169,255
SliderBorder : 255,255,255

[HitObjects]
256,240,15299,1,6
188,184,15757,6,0,B|220:136|292:136|324:184,1,160
360,264,17131,1,2
320,344,17589,2,0,B|288:312|256:364|256:364|224:312|192:344,1,160
152,264,18963,5,2
200,192,19421,2,0,B|224:184|232:152|232:152|256:128|280:152|280:152|288:184|312:192,1,160
304,280,20795,2,0,B|328:328|304:376|256:384|208:376|184:328|208:280,1,240,2|0
256,208,22627,5,2
340,180,23085,2,0,B|386:166|399:114|366:72|318:78,1,160
256,16,24459,1,2
193,78,24917,2,0,B|145:71|112:113|125:165|171:179,1,160
136,260,26291,5,2
204,316,26749,2,0,B|240:348|256:284|256:284|272:348|308:316,1,160
376,260,28123,1,2
352,176,28581,2,0,B|328:136|284:128|256:172|256:172|228:128|184:136|160:176,1,240,0|6
172,264,30413,6,0,B|136:297|165:335,2,80,8|0|8
256,308,31788,1,2
340,264,32246,2,0,B|375:297|346:335,2,80,8|0|8
328,176,33620,5,2
296,96,34078,2,0,B|284:48|256:28|256:28|228:48|216:96,1,160,8|8
184,176,35452,1,2
220,256,35910,2,0,B|256:276|256:276|292:256,1,80,8|0
328,176,36826,1,8
392,116,37284,5,2
320,68,37742,2,0,B|296:76|296:76|256:8|216:76|216:76|192:68,1,160,8|8
120,116,39116,1,2
188,172,39574,2,0,B|220:220|292:220|324:172,1,160,8|8
356,256,40948,6,0,B|295:318,1,80,2|8
212,313,41864,2,0,B|156:256,1,80,0|8
256,192,42780,12,4,44612
256,168,45528,5,0
308,240,45986,1,8
396,228,46444,2,0,B|420:216|428:188|428:188|464:196|476:232,2,120,0|8|8
308,240,48276,5,0
288,324,48734,2,0,B|254:342|254:342|218:322,1,80,8|0
204,240,49650,1,8
116,228,50108,2,0,B|92:216|84:188|84:188|48:196|36:232,2,120,0|8|8
168,156,51940,5,4
188,72,52398,2,0,B|220:24|292:24|324:72,1,160,8|8
344,156,53772,1,0
256,168,54230,2,0,B|256:216,1,40,8|8
220,288,54917,2,0,B|256:308|256:308|289:289,1,80,8|8
256,192,55604,12,2,57436
309,236,59268,6,0,B|325:276|325:276|301:304,1,80,4|8
213,304,60184,2,0,B|188:275|188:275|204:235,1,80,0|8
201,148,61101,2,0,B|257:108|313:148,2,120,4|8|8
153,76,62933,6,0,B|199:55|199:55|212:29,1,80,4|8
301,29,63849,2,0,B|314:55|314:55|360:75,1,80,0|8
300,140,64765,1,4
213,140,65223,5,8
186,222,65681,1,0
257,274,66139,1,8
327,222,66597,6,0,B|369:236|369:236|385:274|425:280,2,120,4|8|8
257,274,68429,2,0,B|257:314|257:314|249:322|249:322|265:322|265:322|257:330|257:330|257:370,2,120,4|8|8
186,222,70261,2,0,B|144:236|144:236|128:274|88:280,2,120,4|8|8
257,166,72093,5,4
328,218,72551,1,8
256,268,73009,2,0,B|256:348,1,80,0|8
172,328,73925,6,0,B|145:286|145:286|116:274,1,80,4|8
164,200,74841,2,0,B|188:150|188:150|211:140,1,80,0|8
300,140,75757,2,0,B|323:150|323:150|348:200,1,80,4|8
394,274,76673,2,0,B|366:286|366:286|340:328,1,80,0|8
256,360,77589,6,0,B|256:280,1,80,4|8
212,204,78505,1,0
300,204,78963,1,8
360,140,79421,6,0,B|314:127|322:79,1,80,4|8
256,20,80337,1,0
189,79,80795,2,0,B|197:127|152:140,1,80,8|4
104,216,81711,6,0,B|156:220|188:264|188:264|168:288|172:324,1,160,8|8
256,348,83085,1,4
340,320,83543,2,0,B|343:287|323:263|323:263|355:219|407:215,1,160,8|8
256,192,84917,12,4,88581
