osu file format v14

[General]
AudioFilename: Vidro Moyou.mp3
AudioLeadIn: 0
PreviewTime: 58352
Countdown: 0
SampleSet: None
StackLeniency: 0.4
Mode: 0
LetterboxInBreaks: 0
WidescreenStoryboard: 0

[Editor]
DistanceSpacing: 1.2
BeatDivisor: 4
GridSize: 4
TimelineZoom: 1.3

[Metadata]
Title:Vidro Moyou (TV Size)
TitleUnicode:ビードロ模様
Artist:yanaginagi
ArtistUnicode:yanaginagi
Creator:Heatherfield
Version:Happy Birthday
Source:Ano Natsu de Matteru
Tags:ending yanagi nagi aiaiclala yuca y_u_c_a yuka
BeatmapID:717137
BeatmapSetID:322561

[Difficulty]
HPDrainRate:4
CircleSize:4
OverallDifficulty:7
ApproachRate:7
SliderMultiplier:1.6
SliderTickRate:1

[Events]
//Background and Video events
0,0,"modoranai.png",0,0
//Break Periods
//Storyboard Layer 0 (Background)
//Storyboard Layer 1 (Fail)
//Storyboard Layer 2 (Pass)
//Storyboard Layer 3 (Foreground)
//Storyboard Sound Samples

[TimingPoints]
184,458.015267175573,4,2,1,5,1,0
643,458.015267175573,4,2,1,60,1,0
15986,-100,4,2,1,50,0,0
59268,-100,4,2,1,60,0,0
68887,-100,4,2,1,65,0,0
69116,-100,4,2,1,60,0,0
69345,-100,4,2,1,55,0,0
69574,-100,4,2,1,50,0,0
69803,-100,4,2,1,45,0,0
70032,-100,4,2,1,40,0,0
70261,-100,4,2,1,60,0,0
88581,-100,4,2,1,5,0,0

[Colours]
Combo1 : 168,234,227
Combo2 : 252,218,146
Combo3 : 198,215,219
Combo4 : 250,179,253

[HitObjects]
252,192,184,6,0,L|232:212,7,20
252,192,643,2,0,P|256:114|224:29,1,160,4|0,0:0|0:0,0:0:0:0:
134,51,1330,1,2,0:0:0:0:
105,142,1559,2,0,P|84:191|74:234,1,80,0|2,0:0|0:0,0:0:0:0:
152,276,2017,2,0,P|177:326|185:359,1,80,0|2,0:0|0:0,0:0:0:0:
374,364,2704,5,2,0:0:0:0:
394,173,3162,1,2,0:0:0:0:
482,135,3391,1,0,0:0:0:0:
394,173,3620,1,2,0:0:0:0:
401,77,3849,2,0,P|359:51|317:40,1,80
254,125,4307,6,0,L|238:306,1,160,2|0,0:0|0:0,0:0:0:0:
149,335,4994,2,0,L|163:175,1,160,2|0,0:0|0:0,0:0:0:0:
96,61,5681,2,0,P|83:108|74:147,1,80,0|2,0:0|0:0,0:0:0:0:
253,210,6368,5,2,0:0:0:0:
370,362,6826,1,2,0:0:0:0:
457,321,7055,1,0,0:0:0:0:
370,362,7284,1,2,0:0:0:0:
380,266,7513,2,0,P|380:212|392:179,1,80
439,106,7971,6,0,L|272:72,1,160,2|0,0:0|0:0,0:0:0:0:
190,144,8658,2,0,L|346:175,1,160,2|0,0:0|0:0,0:0:0:0:
430,242,9345,2,0,P|382:271|349:282,1,80,0|2,0:0|0:0,0:0:0:0:
272,318,9803,1,0,0:0:0:0:
272,318,10032,1,2,0:0:0:0:
80,300,10490,5,2,0:0:0:0:
116,211,10719,1,0,0:0:0:0:
173,288,10948,1,0,0:0:0:0:
116,211,11177,1,2,0:0:0:0:
173,288,11406,1,0,0:0:0:0:
80,300,11635,6,0,P|158:328|247:341,1,160,2|0,0:0|0:0,0:0:0:0:
305,276,12322,1,0,0:0:0:0:
399,294,12551,1,0,0:0:0:0:
399,294,12665,1,2,0:0:0:0:
454,215,12894,1,0,0:0:0:0:
454,215,13009,2,0,P|445:169|420:119,1,80,2|0,0:0|0:0,0:0:0:0:
370,64,13467,5,0,0:0:0:0:
274,50,13696,1,2,0:0:0:0:
274,50,13810,1,0,0:0:0:0:
274,50,13925,1,0,0:0:0:0:
183,82,14154,1,2,0:0:0:0:
89,59,14383,2,0,L|60:68,7,20
89,59,14841,2,0,P|96:105|96:150,1,80
73,272,15299,1,4,0:0:0:0:
375,305,15986,6,0,L|475:295,2,80,2|0|2,0:0|0:0|0:0,0:0:0:0:
281,328,16673,2,0,P|207:305|174:299,1,80,0|2,0:0|0:0,0:0:0:0:
110,285,17131,1,0,0:0:0:0:
110,285,17360,1,2,0:0:0:0:
188,47,17818,6,0,L|179:215,1,160,2|2,0:0|0:0,0:0:0:0:
150,298,18505,1,0,0:0:0:0:
150,298,18734,1,2,0:0:0:0:
244,280,18963,2,0,P|298:274|352:276,1,80,0|2,0:0|0:0,0:0:0:0:
413,308,19421,1,0,0:0:0:0:
468,228,19650,2,0,P|472:152|464:64,1,160,2|2,0:0|0:0,0:0:0:0:
372,42,20337,1,0,0:0:0:0:
287,87,20566,2,0,P|216:75|180:70,1,80,2|0,0:0|0:0,0:0:0:0:
100,76,21024,5,2,0:0:0:0:
145,262,21482,1,2,0:0:0:0:
331,216,21940,1,2,0:0:0:0:
334,120,22169,1,0,0:0:0:0:
428,223,22398,1,2,0:0:0:0:
331,216,22627,6,0,P|318:307|315:382,1,160,2|0,0:0|0:0,0:0:0:0:
315,375,23314,1,2,0:0:0:0:
165,211,23772,1,2,0:0:0:0:
105,285,24001,2,0,P|91:322|78:366,1,80,0|2,0:0|0:0,0:0:0:0:
299,89,24688,1,2,0:0:0:0:
354,166,24917,2,0,P|371:211|379:246,1,80,0|2,0:0|0:0,0:0:0:0:
153,88,25604,6,0,P|135:132|127:173,2,80,2|0|2,0:0|0:0|0:0,0:0:0:0:
256,50,26291,2,0,B|310:78|373:43|444:57,1,160
413,53,26978,1,2,0:0:0:0:
413,53,27207,5,0,1:0:0:0:
241,138,27665,1,0,1:0:0:0:
390,178,28009,1,2,0:0:0:0:
398,207,28123,5,0,1:0:0:0:
306,287,28352,1,2,0:0:0:0:
445,321,28581,1,0,1:0:0:0:
244,359,28810,1,2,0:0:0:0:
244,359,28925,1,0,0:0:0:0:
244,359,29039,1,0,1:0:0:0:
203,272,29268,1,0,0:0:0:0:
124,346,29497,6,0,L|158:348,7,20,0|0|0|0|0|0|0|0,1:0|0:0|0:0|0:0|0:0|0:0|0:0|0:0,0:0:0:0:
143,347,29955,2,0,B|192:356|192:356|328:319,1,160,0|8,1:0|0:0,0:0:0:0:
398,271,30643,2,0,L|422:368,2,80,2|0|2,0:0|1:0|0:0,0:0:0:0:
456,194,31330,2,0,L|484:104,1,80,8|2,0:0|0:0,0:0:0:0:
417,24,31788,2,0,P|393:73|323:177,1,160,0|8,1:0|0:0,0:0:0:0:
261,96,32475,2,0,P|197:89|101:53,1,160,2|2,0:0|0:0,0:0:0:0:
21,98,33162,1,8,0:0:0:0:
100,152,33391,6,0,P|111:192|119:237,1,80,2|0,0:0|1:0,0:0:0:0:
294,41,34078,6,0,P|282:98|281:123,1,80,8|2,0:0|0:0,0:0:0:0:
455,150,34765,6,0,P|462:198|462:240,1,80,2|8,0:0|0:0,0:0:0:0:
467,340,35452,5,0,1:0:0:0:
333,286,35910,1,8,0:0:0:0:
199,339,36368,1,0,1:0:0:0:
59,304,36826,1,8,0:0:0:0:
67,111,37284,5,0,1:0:0:0:
159,83,37513,1,2,0:0:0:0:
251,108,37742,1,8,0:0:0:0:
342,79,37971,1,2,0:0:0:0:
480,216,38429,5,2,0:0:0:0:
384,205,38658,1,8,0:0:0:0:
301,254,38887,1,2,0:0:0:0:
85,192,39345,5,2,0:0:0:0:
180,200,39574,1,8,0:0:0:0:
255,141,39803,1,2,0:0:0:0:
459,264,40261,5,2,0:0:0:0:
365,242,40490,1,8,0:0:0:0:
277,281,40719,1,2,0:0:0:0:
187,246,40948,2,0,P|147:235|93:231,1,80,0|2,1:0|0:0,0:0:0:0:
22,130,41406,5,8,0:0:0:0:
172,129,41635,2,0,L|271:113,1,80,2|0,0:0|1:0,0:0:0:0:
22,130,42093,5,8,0:0:0:0:
118,29,42322,1,0,0:0:0:0:
22,130,42551,5,8,0:0:0:0:
164,225,42780,2,0,L|162:321,1,80,0|2,1:0|0:0,0:0:0:0:
22,130,43238,5,12,0:0:0:0:
198,91,43696,6,0,L|204:140,1,40,8|0,0:0|0:0,0:0:0:0:
280,59,43925,2,0,L|286:108,1,40,8|0,0:0|0:0,0:0:0:0:
370,87,44154,2,0,L|376:136,1,40,8|0,0:0|0:0,0:0:0:0:
452,55,44383,2,0,L|458:104,1,40,8|0,0:0|0:0,0:0:0:0:
478,129,44612,5,0,1:0:0:0:
478,129,44841,1,0,1:0:0:0:
452,55,45070,1,8,0:0:0:0:
478,129,45299,2,0,L|464:295,1,160,2|2,0:0|0:0,0:0:0:0:
383,340,45986,1,8,0:0:0:0:
298,294,46215,1,0,1:0:0:0:
215,343,46444,2,0,P|192:286|193:183,1,160,0|8,1:0|0:0,0:0:0:0:
342,232,47131,2,0,B|354:152|354:152|310:81,1,160,0|0,1:0|1:0,0:0:0:0:
205,43,47818,6,0,L|177:46,7,20
237,69,48276,2,0,P|243:117|246:161,1,80,0|0,1:0|1:0,1:0:0:0:
208,253,48734,2,0,P|166:215|119:193,1,80,8|2,0:0|0:0,0:0:0:0:
64,254,49192,1,0,0:0:0:0:
51,349,49421,1,0,1:0:0:0:
146,335,49650,1,8,0:0:0:0:
239,357,49879,1,0,0:0:0:0:
333,340,50108,5,0,1:0:0:0:
333,340,50223,1,2,0:0:0:0:
333,340,50337,1,0,0:0:0:0:
333,340,50452,1,2,0:0:0:0:
333,340,50566,1,8,0:0:0:0:
432,360,50795,1,0,1:0:0:0:
453,335,50910,1,2,0:0:0:0:
434,250,51139,1,2,0:0:0:0:
455,225,51253,2,0,P|449:152|426:116,1,80,0|0,1:0|1:0,0:0:0:0:
431,109,51597,1,8,0:0:0:0:
296,224,51940,5,0,1:0:0:0:
204,253,52169,2,0,P|220:301|228:341,1,80,0|8,1:0|0:0,0:0:0:0:
325,364,52627,2,0,P|339:308|359:197,1,160,2|2,0:0|0:0,0:0:0:0:
427,141,53314,1,8,0:0:0:0:
383,55,53543,1,0,1:0:0:0:
291,83,53772,6,0,P|244:77|125:58,1,160,0|8,1:0|0:0,0:0:0:0:
57,118,54459,1,0,1:0:0:0:
277,204,54917,1,0,1:0:0:0:
341,274,55146,2,0,L|371:270,7,20,0|0|0|0|0|0|0|0,0:0|0:0|1:0|0:0|1:0|0:0|0:0|0:0,0:0:0:0:
341,274,55604,6,0,P|324:335|321:364,1,80,0|2,1:0|0:0,0:0:0:0:
182,193,56062,2,0,P|197:249|204:289,1,80,8|2,0:0|0:0,0:0:0:0:
396,112,56520,2,0,P|363:150|339:187,1,80,0|2,1:0|0:0,0:0:0:0:
120,68,56978,2,0,P|173:86|221:93,1,80,8|2,0:0|0:0,0:0:0:0:
312,72,57436,5,2,1:2:0:0:
307,95,57551,1,0,0:0:0:0:
302,118,57665,1,2,0:0:0:0:
296,142,57780,1,0,0:0:0:0:
291,165,57894,1,2,0:0:0:0:
286,188,58009,1,0,0:0:0:0:
280,212,58123,1,2,0:0:0:0:
275,235,58238,1,0,0:0:0:0:
269,259,58352,6,0,L|252:268,15,20,0|0|0|0|0|0|0|0|0|0|0|0|0|0|0|0,3:0|3:0|3:0|3:0|3:0|3:0|3:0|3:0|3:0|3:0|3:0|3:0|3:0|3:0|3:0|3:0,3:0:0:0:
269,259,59268,2,0,P|305:258|356:261,1,80,0|2,1:0|0:0,0:0:0:0:
387,276,59612,1,0,0:0:0:0:
387,276,59726,1,8,0:0:0:0:
479,300,59955,2,0,L|498:122,1,160,2|2,0:0|0:0,0:0:0:0:
240,48,60872,5,2,0:0:0:0:
148,77,61101,1,0,1:0:0:0:
148,173,61330,1,2,0:0:0:0:
240,203,61559,1,8,0:0:0:0:
296,125,61788,2,0,P|383:128|463:150,1,160,2|2,0:0|0:0,0:0:0:0:
431,176,62360,1,0,0:0:0:0:
446,192,62475,1,8,0:0:0:0:
480,272,62704,6,0,P|466:292|454:320,1,40,2|0,0:0|0:0,0:0:0:0:
426,332,62933,2,0,P|363:310|319:305,1,80,0|2,1:0|0:0,0:0:0:0:
242,337,63391,1,8,0:0:0:0:
139,292,63620,2,0,L|153:195,1,80,2|0,0:0|1:0,0:0:0:0:
50,123,64078,2,0,P|112:104|162:95,1,80,2|8,0:0|0:0,0:0:0:0:
126,100,64536,1,2,0:0:0:0:
287,44,64765,6,0,P|298:104|285:169,1,120,0|0,1:0|0:0,0:0:0:0:
273,215,65223,2,0,L|321:290,1,80,8|2,0:0|0:0,0:0:0:0:
248,372,65681,2,0,P|184:354|76:339,1,160,0|8,1:0|0:0,0:0:0:0:
23,231,66368,1,2,0:0:0:0:
23,231,66482,1,0,0:0:0:0:
23,231,66597,2,0,P|19:185|36:139,2,80,0|2|8,1:0|0:0|0:0,0:0:0:0:
115,257,67284,5,2,0:0:0:0:
188,318,67513,1,0,1:0:0:0:
283,305,67742,1,2,0:0:0:0:
324,218,67971,1,8,0:0:0:0:
419,223,68200,2,0,P|467:160|461:65,1,160,2|2,0:0|0:0,0:0:0:0:
354,83,68887,5,2,0:0:0:0:
271,36,69116,1,2,0:0:0:0:
175,41,69345,1,2,0:0:0:0:
98,99,69574,1,2,0:0:0:0:
63,189,69803,1,2,0:0:0:0:
84,283,70032,1,2,0:0:0:0:
151,351,70261,1,2,1:2:0:0:
245,331,70490,5,8,0:0:0:0:
380,356,70719,2,0,P|372:293|357:258,1,80,0|2,1:0|0:0,0:0:0:0:
316,179,71177,1,0,1:0:0:0:
245,331,71406,5,8,0:0:0:0:
213,134,71635,1,0,1:0:0:0:
245,331,71864,5,8,0:0:0:0:
81,245,72093,2,0,P|76:305|76:328,1,80,0|2,1:0|0:0,0:0:0:0:
245,331,72551,5,8,0:0:0:0:
485,219,73009,6,0,L|479:170,1,40,8|0,0:0|0:0,0:0:0:0:
403,251,73238,2,0,L|397:202,1,40,8|0,0:0|0:0,0:0:0:0:
313,223,73467,2,0,L|307:174,1,40,8|0,0:0|0:0,0:0:0:0:
231,255,73696,2,0,L|225:206,1,40,8|0,0:0|0:0,0:0:0:0:
205,181,73925,5,0,1:0:0:0:
205,181,74154,1,0,1:0:0:0:
231,255,74383,1,8,0:0:0:0:
205,181,74612,2,0,P|130:160|26:143,1,160,2|2,0:0|0:0,0:0:0:0:
282,328,75528,5,2,0:0:0:0:
190,299,75757,1,0,1:0:0:0:
190,203,75986,1,2,0:0:0:0:
282,173,76215,1,8,0:0:0:0:
338,251,76444,2,0,P|425:248|505:226,1,160,2|2,0:0|0:0,0:0:0:0:
495,229,77131,1,8,0:0:0:0:
455,107,77360,6,0,P|469:53|489:20,2,80,2|0|2,0:0|1:0|0:0,0:0:0:0:
361,158,78047,1,8,0:0:0:0:
314,72,78276,2,0,L|212:80,1,80,6|0,0:0|1:0,0:0:0:0:
110,157,78734,2,0,P|116:212|124:244,1,80,2|8,0:0|0:0,0:0:0:0:
244,346,79192,1,2,0:0:0:0:
244,346,79421,6,0,L|278:238,1,80,0|2,1:0|0:0,0:0:0:0:
393,91,79879,2,0,P|322:122|282:122,1,80,8|2,0:0|0:0,0:0:0:0:
129,43,80337,2,0,L|132:128,1,80,0|2,1:0|0:0,0:0:0:0:
27,298,80795,1,8,0:0:0:0:
128,264,81024,1,2,0:0:0:0:
128,264,81139,1,0,0:0:0:0:
128,264,81253,2,0,L|214:273,1,80,0|2,1:0|0:0,0:0:0:0:
303,335,81711,2,0,P|366:335|401:326,1,80,8|2,0:0|0:0,0:0:0:0:
431,186,82398,6,0,P|441:142|455:107,1,80,2|8,0:0|0:0,0:0:0:0:
381,28,82856,2,0,P|341:83|162:140,1,240,2|8,0:0|0:0,0:0:0:0:
105,219,83772,2,0,P|82:274|76:309,1,80,2|0,0:0|1:0,0:0:0:0:
256,340,84230,2,0,L|256:260,1,80,2|8,0:0|0:0,0:0:0:0:
408,244,84688,1,2,0:0:0:0:
452,352,84917,5,0,1:0:0:0:
452,344,85032,1,0,0:0:0:0:
452,336,85146,1,0,0:0:0:0:
452,328,85261,1,0,0:0:0:0:
408,332,85375,5,8,0:0:0:0:
403,326,85490,1,0,0:0:0:0:
397,320,85604,1,2,0:0:0:0:
392,315,85719,1,0,0:0:0:0:
348,328,85833,5,0,1:0:0:0:
348,320,85948,1,2,0:0:0:0:
348,312,86062,1,0,0:0:0:0:
348,304,86177,1,2,0:0:0:0:
304,308,86291,5,8,0:0:0:0:
299,302,86406,1,0,0:0:0:0:
293,296,86520,1,2,0:0:0:0:
288,291,86635,1,0,0:0:0:0:
248,288,86749,5,0,1:0:0:0:
248,280,86864,1,2,0:0:0:0:
248,272,86978,1,2,0:0:0:0:
248,264,87093,1,0,0:0:0:0:
204,268,87207,5,8,0:0:0:0:
199,262,87322,1,2,0:0:0:0:
193,256,87436,1,2,0:0:0:0:
188,251,87551,1,2,0:0:0:0:
144,264,87665,5,8,0:0:0:0:
144,256,87780,1,0,0:0:0:0:
144,248,87894,1,8,0:0:0:0:
144,240,88009,1,0,0:0:0:0:
100,244,88123,5,8,0:0:0:0:
95,238,88238,1,0,0:0:0:0:
89,232,88352,1,8,0:0:0:0:
84,227,88467,1,0,0:0:0:0:
256,192,88581,12,0,89955,0:0:0:0:
