osu file format v11

[General]
AudioFilename: Vidro Moyou.mp3
AudioLeadIn: 2000
PreviewTime: 58930
Countdown: 0
SampleSet: Soft
StackLeniency: 0.6
Mode: 0
LetterboxInBreaks: 0

[Editor]
DistanceSpacing: 0.9
BeatDivisor: 4
GridSize: 4

[Metadata]
Title:Vidro Moyou (TV Size)
TitleUnicode:ビードロ模様 (TV Size)
Artist:yanaginagi
ArtistUnicode:やなぎなぎ
Creator:Fumika
Version:Normal
Source:Ano Natsu de Matteru
Tags:ending Naryuga 0OoMickeyoO0 Netsukawa
BeatmapID:141007
BeatmapSetID:44540

[Difficulty]
HPDrainRate:3
CircleSize:4
OverallDifficulty:3
ApproachRate:4
SliderMultiplier:1.09
SliderTickRate:1

[Events]
//Background and Video events
Video,500,"Vidro Moyou.avi"
0,0,"BG.jpg"
//Break Periods
//Storyboard Layer 0 (Background)
//Storyboard Layer 1 (Fail)
//Storyboard Layer 2 (Pass)
//Storyboard Layer 3 (Foreground)
//Storyboard Sound Samples
//Background Colour Transformations
3,100,163,162,255

[TimingPoints]
648,458.015267175573,4,2,0,75,1,0
1106,-100,4,2,1,75,0,0
11640,-100,4,1,2,75,0,0
11869,-100,4,2,1,75,0,0
13243,-100,4,2,1,75,0,0
14846,-100,4,2,1,75,0,0
15304,-100,4,2,1,75,0,0
15762,-100,4,2,2,75,0,0
28586,-100,4,1,2,75,0,0
29044,-100,4,2,2,75,0,0
29960,-100,4,1,2,75,0,0
30418,-100,4,2,2,75,0,0
37289,-100,4,1,2,75,0,0
37747,-100,4,2,2,75,0,0
40953,-100,4,1,2,75,0,0
41182,-100,4,2,2,75,0,0
43243,-100,4,1,2,75,0,0
43701,-100,4,1,1,75,0,0
43930,-100,4,2,2,75,0,0
44159,-100,4,1,1,75,0,0
44388,-100,4,2,2,75,0,0
44617,-100,4,1,1,75,0,0
44846,-100,4,2,2,75,0,0
51945,-100,4,1,2,75,0,0
52174,-100,4,2,2,75,0,0
55609,-100,4,1,2,75,0,0
55838,-100,4,2,2,75,0,0
57441,-100,4,2,2,65,0,0
59273,-100,4,1,2,75,0,1
59731,-100,4,2,2,75,0,1
66602,-100,4,2,1,75,0,1
67060,-100,4,2,2,75,0,1
70266,-100,4,1,2,75,0,1
70495,-100,4,2,2,75,0,1
73243,-100,4,1,1,75,0,1
73472,-100,4,2,2,75,0,1
73701,-100,4,1,1,75,0,1
73815,-100,4,2,2,75,0,0
73930,-100,4,1,2,75,0,1
74159,-100,4,2,2,75,0,1
78281,-100,4,1,2,75,0,1
78739,-100,4,2,2,75,0,1
84922,-100,4,2,0,75,0,0
85151,-100,4,2,2,55,0,0
87670,-100,4,2,2,75,0,0
88586,-100,4,2,0,75,0,0

[Colours]
Combo1 : 255,205,34
Combo2 : 251,2,77
Combo3 : 0,128,255
Combo4 : 255,128,0
Combo5 : 254,109,254
Combo6 : 0,255,128

[HitObjects]
376,164,648,1,4,0:0:0
376,164,1106,2,8,B|376:232|336:280,1,109,8|10,0:0|0:0,0:0:0
280,192,2022,2,8,B|240:232|176:240,1,109,8|10,0:0|0:0,0:0:0
88,232,2938,2,8,B|128:280|128:344,2,109,8|10|8,0:0|0:0|0:0,0:0:0
128,144,4312,6,8,B|96:96|104:32,2,109,10|8|10,0:0|0:0|0:0,0:0:0
200,208,5686,1,8,0:0:0
280,152,6144,2,8,B|336:128|408:160,1,109,10|8,0:0|0:0,0:0:0
480,184,7060,2,8,B|416:208|408:272,1,109,10|8,0:0|0:0,0:0:0
368,352,7976,6,8,B|352:288|288:248,1,109,10|8,0:0|0:0,0:0:0
208,248,8892,2,8,B|120:336,2,109,10|8|10,0:0|0:0|0:0,0:0:0
280,176,10266,1,8,0:0:0
280,176,10724,2,8,B|368:88,2,109,10|8|12,0:0|0:0|0:0,0:0:0
180,176,12098,5,8,0:0:0
100,232,12556,2,0,B|28:232,2,54.5,10|0|2,0:0|0:0|0:0,0:0:0
196,252,13472,2,8,B|252:276|316:268,1,109,8|10,0:0|0:0,0:0:0
320,176,14388,2,8,B|264:160|192:168,1,109,8|10,0:0|0:0,0:0:0
120,136,15304,6,0,B|152:80|224:72,1,109,4|4,0:0|0:0,0:0:0
312,80,16220,2,0,B|432:96,1,109,6|4,0:0|0:0,0:0:0
472,176,17136,2,4,B|344:160,1,109,6|4,0:0|0:0,0:0:0
312,168,17823,2,0,B|280:216|208:208,1,109,2|2,0:0|0:0,0:0:0
168,224,18510,6,4,B|40:208,2,109,4|6|4,0:0|0:0|0:0,0:0:0
264,240,19884,2,4,B|392:256,1,109,6|4,0:0|0:0,0:0:0
444,320,20800,2,4,B|488:276|488:208,1,109,6|4,0:0|0:0,0:0:0
408,164,21716,2,4,B|420:100|388:40,1,109,6|4,0:0|0:0,0:0:0
300,64,22632,6,4,B|288:124|320:188,1,109,6|4,0:0|0:0,0:0:0
316,220,23319,2,0,B|196:192,1,109,2|2,0:0|0:0,0:0:0
160,200,24006,2,4,B|168:260|136:320,2,109,4|6|4,0:0|0:0|0:0,0:0:0
92,132,25380,2,4,B|64:76|84:4,2,109,6|4|6,0:0|0:0|0:0,0:0:0
64,224,26754,5,4,0:0:0
64,224,27212,2,4,B|120:200|172:224,1,109,6|4,0:0|0:0,0:0:0
260,264,28128,1,6,0:0:0
260,264,28586,2,0,B|236:200|256:136,1,109,10|6,0:0|0:0,0:0:0
316,84,29502,2,0,B|436:84,2,109,4|4|8,0:0|0:0|0:0,0:0:0
216,84,30877,6,0,B|104:84,1,109,6|8,0:0|0:0,0:0:0
40,156,31793,2,0,B|168:156,1,109,6|8,0:0|0:0,0:0:0
176,196,32480,2,0,B|208:244|280:240,1,109,2|2,0:0|0:0,0:0:0
316,228,33167,2,0,B|360:264|368:332,2,109,8|6|8,0:0|0:0|0:0,0:0:0
260,148,34541,5,6,0:0:0
260,148,34999,2,0,B|236:88|260:40,1,109,8|6,0:0|0:0,0:0:0
332,108,35915,2,0,B|356:48|420:32,1,109,8|6,0:0|0:0,0:0:0
476,108,36831,2,0,B|456:164|400:184,1,109,8|4,0:0|0:0,0:0:0
304,200,37747,5,8,0:0:0
256,284,38205,2,0,B|196:264|172:204,1,109,6|8,0:0|0:0,0:0:0
92,264,39121,2,0,B|60:204|96:144,1,109,6|8,0:0|0:0,0:0:0
0,112,40037,2,0,B|44:60|112:64,1,109,6|8,0:0|0:0,0:0:0
144,60,40724,1,2,0:0:0
184,88,40953,6,0,B|292:80,2,109,4|8|6,0:0|0:0|0:0,0:0:0
164,132,42098,2,0,B|136:188|176:248,1,109,8|8,0:0|0:0,0:0:0
196,276,42785,2,0,B|316:268,1,109,6|4,0:0|0:0,0:0:0
352,184,43701,2,0,B|428:180,2,54.5,10|8|10,0:0|0:0|0:0,0:0:0
304,188,44388,2,0,B|232:192,1,54.5,8|14,0:0|0:0,0:0:0
160,228,45075,38,0,B|112:188|128:108,1,109,8|2,0:0|0:0,0:0:0
160,36,45991,2,0,B|256:112,1,109,8|6,0:0|0:0,0:0:0
320,40,46907,2,0,B|376:80|376:152,1,109,8|2,0:0|0:0,0:0:0
356,176,47594,2,0,B|324:236|360:296,1,109,4|8,0:0|0:0,0:0:0
324,320,48281,2,0,B|204:336,1,109,6|8,0:0|0:0,0:0:0
144,268,49197,6,0,B|272:252,1,109,2|8,0:0|0:0,0:0:0
332,200,50113,2,0,B|340:136|296:96,1,109,6|8,0:0|0:0,0:0:0
260,128,50800,2,0,B|148:140,1,109,6|6,0:0|0:0,0:0:0
104,124,51487,2,0,B|68:172|88:244,1,109,8|4,0:0|0:0,0:0:0
116,320,52403,6,0,B|144:264|216:240,1,109,8|2,0:0|0:0,0:0:0
292,232,53319,2,0,B|396:280,2,109,8|6|8,0:0|0:0|0:0,0:0:0
264,192,54464,2,4,B|240:136|264:84,1,109,6|6,0:0|0:0,0:0:0
220,64,55151,2,0,B|112:112,1,109,8|4,0:0|0:0,0:0:0
64,188,56067,6,0,B|104:228|116:288,1,109,8|6,0:0|0:0,0:0:0
188,348,56983,2,0,B|176:280|208:228,1,109,8|6,0:0|0:0,0:0:0
256,192,57556,12,4,59273,0:0:0
324,280,59731,6,0,B|368:316|428:332,2,109,8|6|8,0:0|0:0|0:0,0:0:0
244,224,61106,2,0,B|180:208|128:236,1,109,6|8,0:0|0:0,0:0:0
48,276,62022,2,0,B|68:220|60:160,1,109,6|8,0:0|0:0,0:0:0
56,72,62938,6,0,B|164:120,1,109,6|8,0:0|0:0,0:0:0
200,92,63625,2,0,B|244:140|320:112,1,109,2|2,0:0|0:0,0:0:0
328,156,64312,2,0,B|352:212|328:268,1,109,8|6,0:0|0:0,0:0:0
232,280,65228,2,0,B|188:240|188:160,1,109,8|6,0:0|0:0,0:0:0
112,244,66144,2,0,B|112:176|60:132,1,109,8|4,0:0|0:0,0:0:0
52,48,67060,6,0,B|152:88,1,109,8|6,0:0|0:0,0:0:0
244,120,67976,2,0,B|300:140|348:112,1,109,8|6,0:0|0:0,0:0:0
432,60,68892,1,8,0:0:0
488,140,69350,1,6,0:0:0
456,232,69808,1,8,0:0:0
360,240,70266,6,0,B|240:284,1,109,4|8,0:0|0:0,0:0:0
208,280,70953,2,0,B|176:228|204:168,1,109,2|10,0:0|0:0,0:0:0
172,80,71869,2,0,B|288:124,1,109,10|2,0:0|0:0,0:0:0
320,140,72556,2,0,B|348:192|320:256,1,109,8|12,0:0|0:0,0:0:0
308,292,73243,2,4,B|352:336,2,54.5,4|12|4,0:0|0:0|0:0,0:0:0
260,304,73930,6,0,B|208:328|152:308,1,109,4|8,0:0|0:0,0:0:0
64,268,74846,2,0,B|96:216|168:212,1,109,6|8,0:0|0:0,0:0:0
252,212,75762,2,0,B|384:212,2,109,6|8|6,0:0|0:0|0:0,0:0:0
200,128,77136,1,8,0:0:0
200,128,77594,6,0,B|136:120|112:60,1,109,6|8,0:0|0:0,0:0:0
68,52,78281,2,0,B|40:112|56:184,1,109,4|2,0:0|0:0,0:0:0
84,196,78968,2,0,B|140:228|152:292,1,109,8|6,0:0|0:0,0:0:0
244,252,79884,2,0,B|228:192|260:140,1,109,8|6,0:0|0:0,0:0:0
312,64,80800,1,8,0:0:0
360,76,81029,1,0,0:0:0
400,108,81258,6,0,B|456:120|504:164,2,109,6|8|6,0:0|0:0|0:0,0:0:0
416,204,82632,2,0,B|368:176|292:176,1,109,8|6,0:0|0:0,0:0:0
344,268,83548,2,0,B|276:248|220:292,1,109,8|6,0:0|0:0,0:0:0
156,332,84464,2,0,B|172:276|152:220,1,109,8|6,0:0|0:0,0:0:0
256,192,85151,12,8,87670,0:0:0
256,240,88128,6,0,B|256:300,2,54.5,8|10|4,0:0|0:0|0:0,0:0:0
