osu file format v11

[General]
AudioFilename: Vidro Moyou.mp3
AudioLeadIn: 2000
PreviewTime: 58930
Countdown: 0
SampleSet: Soft
StackLeniency: 0.6
Mode: 0
LetterboxInBreaks: 0

[Editor]
DistanceSpacing: 0.5
BeatDivisor: 4
GridSize: 4

[Metadata]
Title:Vidro Moyou (TV Size)
TitleUnicode:ビードロ模様 (TV Size)
Artist:yanaginagi
ArtistUnicode:やなぎなぎ
Creator:Fumika
Version:Insane
Source:Ano Natsu de Matteru
Tags:ending Naryuga 0OoMickeyoO0 Netsukawa
BeatmapID:139477
BeatmapSetID:44540

[Difficulty]
HPDrainRate:7
CircleSize:4
OverallDifficulty:7
ApproachRate:8
SliderMultiplier:1.69
SliderTickRate:1

[Events]
//Background and Video events
Video,500,"Vidro Moyou.avi"
0,0,"BG.jpg"
//Break Periods
//Storyboard Layer 0 (Background)
//Storyboard Layer 1 (Fail)
//Storyboard Layer 2 (Pass)
//Storyboard Layer 3 (Foreground)
//Storyboard Sound Samples
//Background Colour Transformations
3,100,163,162,255

[TimingPoints]
648,458.015267175573,4,2,1,75,1,0
12785,-100,4,1,1,75,0,0
13930,-100,4,2,1,75,0,0
14731,-100,4,1,1,75,0,0
14846,-100,4,2,1,45,0,0
14960,-100,4,2,1,75,0,0
15762,-100,4,2,2,75,0,0
28586,-100,4,1,2,75,0,0
29044,-100,4,2,2,75,0,0
29960,-100,4,1,2,75,0,0
30418,-100,4,2,2,75,0,0
37289,-100,4,1,2,75,0,0
37747,-100,4,2,2,75,0,0
40953,-100,4,1,2,75,0,0
41182,-100,4,2,2,75,0,0
43243,-100,4,1,1,80,0,0
43472,-100,4,2,2,75,0,0
43701,-100,4,1,1,85,0,0
43930,-100,4,2,2,75,0,0
44159,-100,4,1,1,85,0,0
44388,-100,4,2,2,75,0,0
44617,-100,4,1,2,75,0,0
44846,-100,4,2,2,75,0,0
51945,-100,4,1,2,75,0,0
52174,-100,4,2,2,75,0,0
55609,-100,4,1,2,75,0,0
55838,-100,4,2,2,75,0,0
57441,-100,4,2,2,65,0,0
58357,-66.6666666666667,4,2,2,35,0,0
58586,-66.6666666666667,4,2,2,45,0,0
58815,-66.6666666666667,4,2,2,55,0,0
59044,-66.6666666666667,4,2,2,65,0,0
59273,-100,4,1,2,75,0,1
59502,-100,4,2,2,75,0,1
66602,-100,4,2,1,75,0,1
66716,-100,4,2,2,75,0,1
70266,-100,4,1,2,75,0,1
70495,-100,4,2,2,75,0,1
73243,-100,4,1,1,75,0,1
73472,-100,4,2,2,75,0,1
73701,-100,4,1,1,75,0,1
73815,-100,4,2,2,75,0,0
73930,-100,4,1,2,75,0,1
74159,-100,4,2,2,75,0,1
78281,-100,4,1,2,50,0,1
78739,-100,4,2,2,75,0,1
84922,-100,4,2,1,75,0,0
85037,-100,4,2,2,75,0,0
88357,-109.89010989011,4,1,1,75,0,0

[Colours]
Combo1 : 255,205,34
Combo2 : 251,2,77
Combo3 : 0,128,255
Combo4 : 255,128,0
Combo5 : 254,109,254
Combo6 : 0,255,128

[HitObjects]
416,120,648,2,0,B|372:136|372:136|328:176|340:248,1,169,4|8,0:0|0:0,0:0:0
420,264,1335,1,2,0:0:0
340,248,1564,1,8,0:0:0
268,144,1793,5,0,0:0:0
284,304,2022,1,10,0:0:0
212,200,2251,1,0,0:0:0
212,200,2365,1,0,0:0:0
212,200,2480,2,0,B|152:172|152:172|96:168|52:192,1,169,8|8,0:0|0:0,0:0:0
124,296,3167,5,2,0:0:0
52,192,3396,1,8,0:0:0
44,272,3625,1,0,0:0:0
84,120,3854,2,0,B|104:24,1,84.5,10|0,0:0|0:0,0:0:0
252,96,4312,6,0,B|236:200,1,84.5,10|0,0:0|0:0,0:0:0
308,232,4770,2,0,B|324:128,2,84.5,8|2|8,0:0|0:0|0:0,0:0:0
304,252,5342,1,0,0:0:0
300,272,5457,1,0,0:0:0
216,292,5686,1,10,0:0:0
368,348,5915,2,0,B|424:364|480:332,1,84.5,0|8,0:0|0:0,0:0:0
436,184,6373,2,0,B|396:168|348:192,1,84.5,2|8,0:0|0:0,0:0:0
354,189,6716,1,2,0:0:0
354,189,6831,1,0,0:0:0
284,240,7060,5,8,0:0:0
164,104,7289,1,2,0:0:0
124,224,7518,1,8,0:0:0
76,104,7747,1,0,0:0:0
236,136,7976,6,0,B|356:160,1,84.5,10|0,0:0|0:0,0:0:0
340,156,8320,1,2,0:0:0
360,160,8434,1,8,0:0:0
420,272,8663,1,2,0:0:0
400,268,8778,1,0,0:0:0
380,264,8892,2,0,B|340:256|340:256|308:256|284:276,1,84.5,8|2,0:0|0:0,0:0:0
284,280,9236,1,0,0:0:0
268,296,9350,6,0,B|244:312|220:312|220:312|172:296,2,84.5,8|2|8,0:0|0:0|0:0,0:0:0
336,192,10037,2,0,B|364:132,1,42.25,2|0,0:0|0:0,0:0:0
284,112,10266,2,0,B|284:68,1,42.25,10|0,0:0|0:0,0:0:0
212,24,10495,6,0,B|192:68|212:112,1,84.5,2|8,0:0|0:0,0:0:0
360,112,10953,2,0,B|380:68|356:24,1,84.5,2|8,0:0|0:0,0:0:0
424,176,11411,2,0,B|472:168|492:120,2,84.5,2|12|2,0:0|0:0|0:0,0:0:0
384,192,11984,1,0,0:0:0
384,192,12098,2,0,B|340:204|320:260,1,84.5,8|2,0:0|0:0,0:0:0
364,368,12556,6,0,B|400:336|408:284,1,84.5,8|8,0:0|0:0,0:0:0
304,172,13014,2,0,B|284:208|292:260,1,84.5,10|0,0:0|0:0,0:0:0
276,336,13472,1,2,0:0:0
160,304,13701,1,0,0:0:0
140,296,13816,1,8,0:0:0
124,288,13930,2,0,B|104:240|116:192,1,84.5,10|0,0:0|0:0,0:0:0
168,92,14388,1,10,0:0:0
188,96,14503,1,0,0:0:0
208,100,14617,1,0,0:0:0
228,104,14732,1,8,0:0:0
248,108,14846,2,0,B|268:152|252:204,1,84.5,14|0,0:0|0:0,0:0:0
216,312,15304,6,0,B|316:316|372:228,1,169,12|4,0:0|0:0,0:0:0
388,160,15991,1,0,0:0:0
468,192,16220,1,6,0:0:0
404,80,16449,1,0,0:0:0
388,160,16678,1,4,0:0:0
308,176,16907,1,0,0:0:0
156,128,17136,2,0,B|260:264,1,169,6|4,0:0|0:0,0:0:0
340,264,17823,6,0,B|324:320|260:352,1,84.5,0|6,0:0|0:0,0:0:0
76,96,18281,2,0,B|108:56|164:48,1,84.5,0|4,0:0|0:0,0:0:0
308,72,18739,1,0,0:0:0
156,128,18968,2,0,B|116:168|108:240,1,84.5,6|0,0:0|0:0,0:0:0
260,264,19426,2,0,B|284:232|292:176,1,84.5,4|0,0:0|0:0,0:0:0
116,280,19884,2,0,B|156:312|212:316,1,84.5,6|0,0:0|0:0,0:0:0
344,256,20342,6,0,B|360:224|368:188|352:148|352:148|292:92,1,169,4|6,0:0|0:0,0:0:0
156,40,21258,2,8,B|140:72|132:108|148:148|148:148|208:204,1,169,4|6,0:0|0:0,0:0:0
256,244,21945,5,0,0:0:0
336,216,22174,1,6,0:0:0
268,324,22403,1,0,0:0:0
408,248,22632,2,4,B|468:208|448:200|448:200|476:144|428:84,1,169,6|4,0:0|0:0,0:0:0
376,156,23320,6,0,B|268:156,1,84.5,0|6,0:0|0:0,0:0:0
148,232,23778,2,0,B|244:232,1,84.5,0|4,0:0|0:0,0:0:0
336,88,24236,2,0,B|292:112|292:168,1,84.5,0|6,0:0|0:0,0:0:0
420,252,24694,2,0,B|420:204|392:168,1,84.5,0|4,0:0|0:0,0:0:0
248,236,25152,2,0,B|292:248|340:236,2,84.5,0|6|0,0:0|0:0|0:0,0:0:0
168,212,25839,6,0,B|120:200|72:216,1,84.5,6|0,0:0|0:0,0:0:0
152,356,26297,2,0,B|248:380|320:332,1,169,6|4,0:0|0:0,0:0:0
256,184,26984,1,0,0:0:0
380,284,27213,5,6,0:0:0
416,208,27442,1,0,0:0:0
404,124,27671,1,4,0:0:0
256,184,27900,1,0,0:0:0
164,272,28129,5,6,0:0:0
136,148,28358,2,0,B|88:68,2,84.5,0|10|0,0:0|0:0|0:0,0:0:0
152,168,28930,1,2,0:0:0
164,188,29045,1,6,0:0:0
236,292,29274,1,0,0:0:0
360,264,29503,2,0,B|392:260,7,21.125,6|0|0|0|0|0|0|0,0:0|0:0|0:0|0:0|0:0|0:0|0:0|0:0,0:0:0
348,248,29961,6,0,B|412:184|392:88,1,169,12|12,0:0|0:0,0:0:0
268,76,30648,1,2,0:0:0
392,92,30877,2,0,B|436:84|436:84|472:52,1,84.5,4|2,0:0|0:0,0:0:0
412,172,31335,2,0,B|368:180|368:180|320:208,1,84.5,12|2,0:0|0:0,0:0:0
224,260,31793,6,0,B|204:280|204:280|188:312|204:348,1,84.5,4|2,0:0|0:0,0:0:0
264,196,32251,2,0,B|288:180|288:180|308:156|304:112,1,84.5,12|2,0:0|0:0,0:0:0
220,124,32709,2,0,B|120:124,1,84.5,4|2,0:0|0:0,0:0:0
284,320,33167,1,8,0:0:0
304,196,33396,1,2,0:0:0
284,196,33510,1,8,0:0:0
264,196,33625,6,0,B|168:196,1,84.5,4|2,0:0|0:0,0:0:0
179,196,34083,1,12,0:0:0
68,308,34312,1,2,0:0:0
52,184,34541,1,4,0:0:0
124,80,34770,1,2,0:0:0
180,196,34999,5,12,0:0:0
248,340,35228,1,2,0:0:0
312,228,35457,1,4,0:0:0
272,108,35686,1,2,0:0:0
180,196,35915,1,12,0:0:0
232,260,36144,1,2,0:0:0
312,228,36373,2,0,B|436:228,2,84.5,4|2|12,0:0|0:0|0:0,0:0:0
260,344,37060,1,2,0:0:0
156,272,37289,6,0,B|96:256|80:164|132:128,1,169,12|12,0:0|0:0,0:0:0
124,134,37976,1,2,0:0:0
280,164,38205,2,0,B|200:188,1,84.5,4|2,0:0|0:0,0:0:0
352,140,38663,2,0,B|444:112,1,84.5,12|2,0:0|0:0,0:0:0
432,276,39121,1,4,0:0:0
460,196,39350,1,2,0:0:0
432,116,39579,1,12,0:0:0
280,164,39808,5,2,0:0:0
252,244,40037,1,4,0:0:0
280,324,40266,1,2,0:0:0
196,324,40495,2,0,B|84:324,1,84.5,12|2,0:0|0:0,0:0:0
252,244,40953,6,0,B|348:244,2,84.5,12|2|12,0:0|0:0|0:0,0:0:0
92,244,41640,1,2,0:0:0
172,148,41869,5,4,0:0:0
252,244,42098,1,8,0:0:0
172,148,42327,1,4,0:0:0
332,140,42556,5,8,0:0:0
332,300,42785,1,4,0:0:0
176,332,43014,2,0,B|160:352,3,21.125,2|0|0|0,0:0|0:0|0:0|0:0,0:0:0
172,308,43243,6,0,B|144:268|152:216,1,84.5,14|2,0:0|0:0,0:0:0
280,120,43701,2,0,B|308:160|308:208,1,84.5,10|8,0:0|0:0,0:0:0
148,148,44159,2,0,B|144:96|168:52,1,84.5,2|8,0:0|0:0,0:0:0
228,220,44617,5,12,0:0:0
352,244,44846,1,4,0:0:0
440,152,45075,1,8,0:0:0
400,308,45304,54,0,B|340:348|264:308|272:232,1,169,2|2,0:0|0:0,0:0:0
272,128,45991,1,8,0:0:0
180,260,46220,1,6,0:0:0
324,192,46449,2,0,B|372:136|344:64|288:52,1,169,4|8,0:0|0:0,0:0:0
100,268,47136,2,0,B|114:338|190:359|244:312,1,169,6|6,0:0|0:0,0:0:0
324,192,47823,70,0,B|340:160,4,21.125,8|0|0|0|8,0:0|0:0|0:0|0:0|0:0,0:0:0
232,324,48281,1,4,0:0:0
356,348,48510,1,4,0:0:0
324,192,48739,22,0,B|304:72,2,84.5,8|2|0,0:0|0:0|0:0,0:0:0
376,260,49426,2,0,B|412:288|472:280,2,84.5,6|8|6,0:0|0:0|0:0,0:0:0
240,176,50113,2,0,B|192:180|164:232|164:232|120:264|64:252,1,169,4|8,0:0|0:0,0:0:0
260,264,50800,2,0,B|308:252|336:204|336:204|372:172|420:176,1,169,6|2,0:0|0:0,0:0:0
404,260,51487,2,0,B|396:312,2,42.25,8|4|2,0:0|0:0|0:0,0:0:0
428,100,51945,21,12,0:0:0
304,120,52174,1,4,0:0:0
428,100,52403,1,8,0:0:0
276,44,52632,70,0,B|212:76|212:152|268:200,1,169,2|2,0:0|0:0,0:0:0
324,292,53320,1,8,0:0:0
172,244,53548,1,6,0:0:0
324,292,53778,2,0,B|384:260|404:192|348:120,1,169,4|8,0:0|0:0,0:0:0
300,204,54465,2,0,B|356:248|428:228|456:160,1,169,6|6,0:0|0:0,0:0:0
368,148,55152,2,0,B|368:112,4,21.125,2|0|4|0|8,0:0|0:0|0:0|0:0|0:0,0:0:0
368,148,55610,6,0,B|368:244,1,84.5,12|2,0:0|0:0,0:0:0
296,336,56068,2,0,B|296:240,1,84.5,8|2,0:0|0:0,0:0:0
224,148,56526,2,0,B|224:264,1,84.5,4|2,0:0|0:0,0:0:0
160,340,56984,1,8,0:0:0
92,232,57213,1,2,0:0:0
100,104,57442,5,4,0:0:0
104,100,57556,1,4,0:0:0
108,96,57671,1,4,0:0:0
112,92,57785,1,4,0:0:0
116,88,57900,1,4,0:0:0
120,84,58014,1,4,0:0:0
124,80,58129,1,4,0:0:0
128,76,58243,1,4,0:0:0
132,72,58358,6,0,B|160:40,16,31.6874990556389,4|4|4|4|4|4|4|4|4|4|4|4|4|4|4|4|4,0:0|0:0|0:0|0:0|0:0|0:0|0:0|0:0|0:0|0:0|0:0|0:0|0:0|0:0|0:0|0:0|0:0,0:0:0
132,200,59503,6,0,B|140:252|168:284,1,84.5,2|12,0:0|0:0,0:0:0
312,220,59961,2,0,B|308:160|264:108,1,84.5,2|4,0:0|0:0,0:0:0
272,124,60304,1,0,0:0:0
256,112,60419,2,0,B|156:112,2,84.5,2|12|2,0:0|0:0|0:0,0:0:0
384,112,61106,6,0,B|476:112,1,84.5,4|2,0:0|0:0,0:0:0
328,188,61564,2,0,B|308:232|320:288,1,84.5,12|2,0:0|0:0,0:0:0
320,292,61907,1,0,0:0:0
324,312,62022,2,0,B|216:264,1,84.5,4|2,0:0|0:0,0:0:0
96,204,62480,2,0,B|200:252,1,84.5,12|2,0:0|0:0,0:0:0
404,220,62938,6,0,B|416:172|392:132,1,84.5,4|2,0:0|0:0,0:0:0
172,172,63396,2,0,B|160:224|200:272,1,84.5,12|2,0:0|0:0,0:0:0
332,188,63854,2,0,B|232:204,1,84.5,4|2,0:0|0:0,0:0:0
408,176,64312,2,0,B|508:160,2,84.5,12|2|4,0:0|0:0|0:0,0:0:0
324,268,64999,1,2,0:0:0
304,272,65113,1,0,0:0:0
284,276,65228,6,0,B|224:296|216:360,1,84.5,12|2,0:0|0:0,0:0:0
180,176,65686,2,0,B|216:204|284:196,1,84.5,4|2,0:0|0:0,0:0:0
144,308,66144,2,0,B|144:256|108:216,1,84.5,12|2,0:0|0:0,0:0:0
60,292,66602,2,0,B|228:236,1,169,12|12,0:0|0:0,0:0:0
240,240,67174,1,0,0:0:0
260,244,67289,6,0,B|304:272|368:256,1,84.5,2|4,0:0|0:0,0:0:0
372,104,67747,2,0,B|320:76|264:88,1,84.5,2|12,0:0|0:0,0:0:0
424,248,68205,2,0,B|448:196|432:144,1,84.5,2|4,0:0|0:0,0:0:0
204,108,68663,2,0,B|172:152|184:216,1,84.5,2|12,0:0|0:0,0:0:0
216,308,69121,5,2,0:0:0
88,212,69350,1,4,0:0:0
132,332,69579,1,2,0:0:0
260,236,69808,1,12,0:0:0
216,356,70037,1,2,0:0:0
184,200,70266,6,0,B|164:104,1,84.5,12|2,0:0|0:0,0:0:0
260,236,70724,2,0,B|288:352,1,84.5,12|2,0:0|0:0,0:0:0
332,168,71182,2,0,B|452:144,1,84.5,4|8,0:0|0:0,0:0:0
260,236,71640,2,0,B|140:264,1,84.5,4|8,0:0|0:0,0:0:0
336,272,72098,1,6,0:0:0
248,136,72327,6,0,B|232:112,4,21.125,2|0|0|0|12,0:0|0:0|0:0|0:0|0:0,0:0:0
248,136,72785,1,2,0:0:0
260,264,73014,1,12,0:0:0
324,112,73243,1,4,0:0:0
204,68,73472,1,12,0:0:0
300,196,73701,1,4,0:0:0
212,332,73930,6,0,B|168:348|124:340,1,84.5,12|2,0:0|0:0,0:0:0
108,344,74274,1,0,0:0:0
88,348,74388,2,0,B|120:308|116:256,1,84.5,12|2,0:0|0:0,0:0:0
44,168,74846,1,4,0:0:0
192,228,75075,2,0,B|236:244|280:232,1,84.5,2|12,0:0|0:0,0:0:0
328,80,75533,6,0,B|280:64|216:92,1,84.5,2|4,0:0|0:0,0:0:0
396,132,75991,2,0,B|420:96|408:64|408:64|396:32,1,84.5,2|12,0:0|0:0,0:0:0
288,156,76449,2,0,B|272:184|276:216|276:216|292:252,1,84.5,2|4,0:0|0:0,0:0:0
296,260,76793,1,0,0:0:0
304,280,76907,1,2,0:0:0
312,300,77022,1,0,0:0:0
320,320,77136,2,0,B|244:380,1,84.5,12|2,0:0|0:0,0:0:0
384,268,77594,6,0,B|452:212,1,84.5,4|2,0:0|0:0,0:0:0
468,88,78052,1,12,0:0:0
468,88,78281,2,0,B|404:160|284:136,1,169,4|2,0:0|0:0,0:0:0
200,84,78968,1,12,0:0:0
280,224,79197,1,2,0:0:0
136,136,79426,6,0,B|92:124|48:144,1,84.5,4|2,0:0|0:0,0:0:0
36,300,79884,2,0,B|80:308|120:288,1,84.5,12|2,0:0|0:0,0:0:0
216,212,80342,2,0,B|260:196|304:224,1,84.5,4|2,0:0|0:0,0:0:0
356,368,80800,1,12,0:0:0
252,292,81029,6,0,B|168:228,2,84.5,2|4|2,0:0|0:0|0:0,0:0:0
268,304,81602,1,0,0:0:0
284,316,81716,1,12,0:0:0
396,260,81945,1,2,0:0:0
388,240,82060,1,0,0:0:0
380,220,82174,2,0,B|348:136,1,84.5,4|2,0:0|0:0,0:0:0
200,88,82632,6,0,B|180:132|200:180,1,84.5,12|2,0:0|0:0,0:0:0
208,188,82976,1,0,0:0:0
216,208,83091,2,0,B|240:260|200:316,1,84.5,4|2,0:0|0:0,0:0:0
144,244,83548,6,0,B|60:244,2,84.5,12|2|4,0:0|0:0|0:0,0:0:0
304,244,84236,1,2,0:0:0
392,152,84465,1,12,0:0:0
360,308,84694,1,2,0:0:0
304,156,84923,5,14,0:0:0
284,144,85037,1,0,0:0:0
264,136,85152,1,2,0:0:0
244,136,85266,1,0,0:0:0
224,140,85381,1,12,0:0:0
204,148,85495,1,0,0:0:0
184,156,85610,1,2,0:0:0
164,164,85724,1,0,0:0:0
144,168,85839,1,4,0:0:0
124,168,85953,1,0,0:0:0
104,164,86068,1,2,0:0:0
84,156,86182,1,0,0:0:0
64,148,86297,6,0,B|52:188,3,42.25,12|0|2|0,0:0|0:0|0:0|0:0,0:0:0
12,252,86755,2,0,B|48:284,3,42.25,4|0|2|0,0:0|0:0|0:0|0:0,0:0:0
60,356,87213,2,0,B|112:340,3,42.25,12|0|2|0,0:0|0:0|0:0|0:0,0:0:0
172,364,87671,6,0,B|184:316,1,42.25,8|0,0:0|0:0,0:0:0
256,312,87900,2,0,B|236:256,1,42.25,8|0,0:0|0:0,0:0:0
296,220,88129,2,0,B|260:196,1,42.25,8|0,0:0|0:0,0:0:0
296,128,88358,6,0,B|256:112|219:132,1,76.8950025813142,8|4,0:0|0:0,0:0:0
