osu file format v11

[General]
AudioFilename: Vidro Moyou.mp3
AudioLeadIn: 2000
PreviewTime: 58930
Countdown: 0
SampleSet: Soft
StackLeniency: 0.6
Mode: 0
LetterboxInBreaks: 0

[Editor]
DistanceSpacing: 1
BeatDivisor: 4
GridSize: 8

[Metadata]
Title:Vidro Moyou (TV Size)
TitleUnicode:ビードロ模様 (TV Size)
Artist:yanaginagi
ArtistUnicode:やなぎなぎ
Creator:Fumika
Version:Easy
Source:Ano Natsu de Matteru
Tags:ending Naryuga 0OoMickeyoO0 Netsukawa
BeatmapID:141006
BeatmapSetID:44540

[Difficulty]
HPDrainRate:2
CircleSize:3
OverallDifficulty:2
ApproachRate:2
SliderMultiplier:0.89
SliderTickRate:1

[Events]
//Background and Video events
Video,500,"Vidro Moyou.avi"
0,0,"BG.jpg"
//Break Periods
//Storyboard Layer 0 (Background)
//Storyboard Layer 1 (Fail)
//Storyboard Layer 2 (Pass)
//Storyboard Layer 3 (Foreground)
//Storyboard Sound Samples
//Background Colour Transformations
3,100,163,162,255

[TimingPoints]
648,458.015267175573,4,2,1,75,1,0
11869,-100,4,2,1,75,0,0
12785,-100,4,2,1,65,0,0
13243,-100,4,2,1,75,0,0
14846,-100,4,2,2,75,0,0
15304,-100,4,2,1,75,0,0
15762,-100,4,2,2,75,0,0
28586,-100,4,1,2,75,0,0
29044,-100,4,2,2,75,0,0
29960,-100,4,1,2,75,0,0
30418,-100,4,2,2,75,0,0
37289,-100,4,1,2,75,0,0
37747,-100,4,2,2,75,0,0
40953,-100,4,1,2,75,0,0
41182,-100,4,2,2,75,0,0
43243,-100,4,1,1,75,0,0
43357,-100,4,2,2,75,0,0
44617,-100,4,1,2,75,0,0
44846,-100,4,2,2,75,0,0
51945,-100,4,1,2,75,0,0
52174,-100,4,2,2,75,0,0
55609,-100,4,1,2,75,0,0
55838,-100,4,2,2,75,0,0
57441,-100,4,2,2,75,0,0
59273,-100,4,2,1,75,0,1
60189,-100,4,2,2,75,0,1
66602,-100,4,2,1,75,0,1
67060,-100,4,2,2,75,0,1
70266,-100,4,1,2,75,0,1
70495,-100,4,2,2,75,0,1
73243,-100,4,1,1,75,0,1
73472,-100,4,2,2,75,0,1
73701,-100,4,1,1,75,0,1
73815,-100,4,2,2,75,0,0
73930,-100,4,1,2,75,0,1
74388,-100,4,2,2,75,0,1
84922,-100,4,2,1,75,0,0

[Colours]
Combo1 : 255,205,34
Combo2 : 251,2,77
Combo3 : 0,128,255
Combo4 : 255,128,0
Combo5 : 254,109,254
Combo6 : 0,255,128

[HitObjects]
256,312,648,2,8,B|64:312,2,178,4|10|10,0:0|0:0|0:0,0:0:0
336,280,2938,2,8,B|384:200|336:104,1,178
272,56,4312,2,8,B|96:56,2,178,10|8|10,0:0|0:0|0:0,0:0:0
248,232,7060,6,8,B|440:232,2,178,8|10|8,0:0|0:0|0:0,0:0:0
88,152,9808,1,8,0:0:0
48,232,10266,1,8,0:0:0
88,312,10724,1,10,0:0:0
248,232,11640,5,12,0:0:0
288,152,12098,1,8,0:0:0
248,72,12556,1,10,0:0:0
424,88,13472,6,8,B|400:184|280:208,1,178,10|8,0:0|0:0,0:0:0
208,192,14846,2,0,B|176:296,2,89,2|4|4,0:0|0:0|0:0,0:0:0
144,128,16220,6,4,B|64:176|72:280,2,178,6|6|4,0:0|0:0|0:0,0:0:0
312,176,18968,2,4,B|352:264|288:352,2,178,6|4|4,0:0|0:0|0:0,0:0:0
168,64,21716,6,4,B|360:64,2,178,4|6|4,0:0|0:0|0:0,0:0:0
320,152,24464,2,4,B|504:152,2,178,6|4|6,0:0|0:0|0:0,0:0:0
240,192,26754,5,4,0:0:0
168,248,27212,2,4,B|64:232|40:120,2,178,4|6|4,0:0|0:0|0:0,0:0:0
328,328,29960,38,4,B|440:328|480:224,2,178,4|4|6,0:0|0:0|0:0,0:0:0
240,328,32251,2,0,B|56:328,2,178,8|10|8,0:0|0:0|0:0,0:0:0
224,152,34999,2,8,B|416:152,2,178,10|8|10,0:0|0:0|0:0,0:0:0
136,152,37289,37,4,0:0:0
96,232,37747,1,8,0:0:0
136,312,38205,1,4,0:0:0
288,232,39121,1,4,0:0:0
328,152,39579,1,8,0:0:0
288,72,40037,1,4,0:0:0
112,72,40953,54,4,B|112:256,2,178,4|4|6,0:0|0:0|0:0,0:0:0
200,96,43243,2,0,B|200:232,2,133.5,4|8|4,0:0|0:0|0:0,0:0:0
288,120,45075,54,8,B|352:184|336:288,1,178,8|8,0:0|0:0,0:0:0
272,344,46449,2,0,B|232:248|128:232,1,178,4|2,0:0|0:0,0:0:0
152,144,47823,2,8,B|56:160,2,89,8|4|8,0:0|0:0|0:0,0:0:0
240,128,49197,6,0,B|336:120|416:176,2,178,2|4|2,0:0|0:0|0:0,0:0:0
160,168,51487,1,8,0:0:0
224,232,51945,2,0,B|208:320|120:376,2,178,4|2|4,0:0|0:0|0:0,0:0:0
304,192,54235,6,0,B|480:192,2,178,8|2|8,0:0|0:0|0:0,0:0:0
216,192,56525,1,4,0:0:0
128,192,56983,1,8,0:0:0
256,192,57441,12,4,59273,0:0:0
152,272,60189,5,6,0:0:0
112,192,60647,1,8,0:0:0
152,112,61106,2,0,B|240:72|336:104,1,178,6|4,0:0|0:0,0:0:0
344,280,62938,2,4,B|256:328|160:296,2,178,6|4|6,0:0|0:0|0:0,0:0:0
416,224,65228,6,8,B|448:184|448:128,2,89,8|6|8,0:0|0:0|0:0,0:0:0
360,152,66602,2,0,B|168:152,1,178,4|6,0:0|0:0,0:0:0
104,192,67976,1,8,0:0:0
184,240,68434,2,4,B|368:240,2,178,4|6|4,0:0|0:0|0:0,0:0:0
104,288,70724,6,0,B|72:320|16:336,2,89,8|6|4,0:0|0:0|0:0,0:0:0
104,200,72098,2,0,B|104:144|168:80|240:88,1,178,2|4,0:0|0:0,0:0:0
312,104,73472,6,0,B|416:128,2,89,6|4|8,0:0|0:0|0:0,0:0:0
328,192,74846,2,0,B|232:168,2,89,4|8|6,0:0|0:0|0:0,0:0:0
392,256,76220,2,8,B|384:320|304:352|240:328,1,178
200,256,77594,6,4,B|144:296|64:264|56:200,2,178,6|2|6,0:0|0:0|0:0,0:0:0
144,184,79884,2,8,B|176:120|248:104|312:144,1,178
304,224,81258,5,6,0:0:0
384,264,81716,1,8,0:0:0
464,224,82174,1,4,0:0:0
304,144,83090,1,6,0:0:0
224,104,83548,1,8,0:0:0
144,144,84006,1,4,0:0:0
256,192,84922,12,4,88586,0:0:0
