osu file format v9

[General]
AudioFilename: Ano_Natsu_de_Matteru_ED_Short_Version.mp3
AudioLeadIn: 500
PreviewTime: 74600
Countdown: 0
SampleSet: Soft
StackLeniency: 0.4
Mode: 0
LetterboxInBreaks: 0

[Editor]
DistanceSpacing: 1.2
BeatDivisor: 2
GridSize: 4

[Metadata]
Title:Vidro Moyou (Short Ver.)
Artist:yanaginagi
Creator:jonathanlfj
Version:Normal
Source:Ano Natsu de Matteru
Tags:ending Moonlight Nyquill

[Difficulty]
HPDrainRate:3
CircleSize:4
OverallDifficulty:3
ApproachRate:5
SliderMultiplier:1
SliderTickRate:2

[Events]
//Background and Video events
Video,16000,"Ano_Natsu_de_Matteru_ED_TV_Size.avi"
0,0,"BG.jpg"
//Break Periods
//Storyboard Layer 0 (Background)
//Storyboard Layer 1 (Fail)
//Storyboard Layer 2 (Pass)
//Storyboard Layer 3 (Foreground)
//Storyboard Sound Samples
//Background Colour Transformations
3,100,0,0,0

[TimingPoints]
1541,458.015267175573,4,2,0,60,1,0
30395,-100,4,1,1,45,0,0
30853,-125,4,2,0,60,0,0
43678,-125,4,1,1,45,0,0
45510,-100,4,2,0,60,0,0
58334,-100,4,1,1,45,0,0
60166,-125,4,2,0,60,0,0
67037,-125,4,1,1,45,0,0
67495,-125,4,2,0,60,0,0
72991,-125,4,1,1,45,0,0
74594,-125,4,2,0,60,0,0
74823,-83.3333333333333,4,2,0,60,0,1
84441,-83.3333333333333,4,2,0,50,0,1
84670,-83.3333333333333,4,2,0,45,0,1
84899,-83.3333333333333,4,2,0,40,0,1
85128,-83.3333333333333,4,2,0,35,0,1
85357,-83.3333333333333,4,2,0,30,0,1
85586,-83.3333333333333,4,2,0,25,0,1
85815,-83.3333333333333,4,2,0,60,0,1
89021,-83.3333333333333,4,1,1,45,0,1
89479,-83.3333333333333,4,2,0,60,0,1
100472,-83.3333333333333,4,1,1,45,0,1
104021,-83.3333333333333,4,2,0,5,0,0

[Colours]
Combo1 : 236,211,70
Combo2 : 197,48,54
Combo3 : 19,105,214
Combo4 : 228,126,28
Combo5 : 254,125,228
Combo6 : 46,176,116

[HitObjects]
164,96,1541,6,0,B|177:19|177:19|119:68|119:68|55:31|55:31|79:102|79:102|17:152|17:152|101:151|101:151|141:223|141:223|153:144|153:144|229:133,1,700,4|2
304,44,5205,6,0,B|379:18|449:63|449:63|444:144|376:192,1,300,4|0
264,156,7037,2,0,B|200:201|194:281|194:281|265:326|340:301,1,300,2|0
396,196,8869,6,0,B|440:255|440:255|443:180|443:180|514:157|514:157|445:128|445:128|445:49|445:49|396:111|396:111|314:90|314:90|364:153|364:153|320:216,1,700,2|2
272,328,12533,6,0,B|196:353|126:308|126:308|132:228|200:180,1,300,2|0
312,220,14365,2,0,B|375:174|381:94|381:94|310:49|235:74,1,300,2|2
116,92,16197,6,0,B|68:124|72:180,1,100,4|2
64,236,16884,1,0
68,296,17113,1,2
124,312,17342,1,0
156,264,17571,1,2
120,216,17800,1,0
340,316,18716,2,0,B|292:288|292:232,2,100,0|0|0
400,316,19861,6,0,B|448:288|448:232,1,100,4|2
444,172,20548,1,0
425,115,20777,1,2
367,114,21006,1,0
349,169,21235,1,2
395,206,21464,1,0
220,44,22380,2,0,B|164:48|136:104,1,100,0|0
124,152,23067,1,0
244,160,23525,6,0,B|284:196|284:196|240:228|256:288,1,150,4|0
308,308,24441,2,0,B|404:356,2,100,2|2|0
308,128,26044,2,0,B|416:88,2,100,0|0|0
252,152,27189,6,0,B|292:252,1,100,4|0
176,288,28105,2,0,B|136:188,1,100,2|0
96,84,29021,2,0,B|132:48|132:48|200:44,1,100,2|0
300,44,29937,1,2
388,124,30395,1,0
416,176,30624,1,0
440,224,30853,6,0,B|364:268,1,80,4|0
328,288,31540,1,0
284,312,31770,2,0,B|236:232,1,80,2|0
196,160,32686,2,0,B|248:92|248:92|268:128|316:136,1,160,2|2
356,140,33831,2,0,B|388:96,2,40
328,180,34518,6,0,B|304:212|304:212|256:224,1,80,2|0
216,224,35205,2,0,B|180:212|180:212|144:240,1,80,0|0
112,272,35892,1,0
28,228,36350,1,2
48,136,36808,1,0
144,120,37266,1,2
192,120,37495,6,0,B|236:120,2,40
144,120,38182,2,0,B|132:164|160:196,1,80,2|0
236,140,39098,2,0,B|280:136|312:168,1,80,2|0
244,236,40014,2,0,B|228:276|184:284,1,80,2|0
160,196,40930,1,2
120,172,41159,6,0,B|84:188,2,40
132,124,41846,2,0,B|165:97|207:112,1,80,2|0
178,205,42762,2,0,B|186:251|231:267,1,80,2|0
276,181,43678,6,0,B|309:150|302:100,1,80,0|0
288,16,44594,1,0
196,44,45052,1,0
140,60,45281,1,0
84,80,45510,6,0,B|60:152|60:152|104:140|132:168,1,150,4|0
168,212,46426,1,0
260,292,46884,1,8
288,176,47342,2,0,B|340:200|392:168,1,100,2|8
436,144,48029,6,0,B|476:184|468:240,1,100
460,296,48716,1,8
340,280,49174,2,0,B|283:270|283:270|304:244|300:208,1,100,4|8
316,172,49861,6,0,B|272:96|168:128,1,150,0|8
80,180,51006,1,2
40,228,51235,1,0
84,268,51464,1,8
128,224,51693,1,0
204,132,52151,6,0,B|248:80,2,50,0|8|0
168,180,52838,2,0,B|204:224|264:204,1,100,4|8
364,152,53754,1,0
352,272,54212,1,8
300,300,54441,2,0,B|224:336|152:296,1,150,0|8
108,264,55357,1,0
156,152,55815,5,0
184,100,56044,1,8
212,48,56273,1,0
272,48,56502,2,0,B|376:48,1,100,4|8
372,168,57418,2,0,B|372:232,1,50,0|8
312,220,57876,2,0,B|244:220,1,50,0|8
204,220,58334,5,0
236,104,58792,1,4
120,72,59250,1,0
100,16,59479,1,0
40,20,59708,1,0
28,80,59937,1,0
76,108,60166,6,0,B|76:148|76:148|116:156,1,80,4|8
108,204,60853,2,0,B|96:268,2,40
156,208,61541,1,8
188,116,61999,2,0,B|200:60|200:60|264:72,1,120,2|0
356,88,63144,1,0
396,176,63602,1,8
408,224,63831,6,0,B|376:276|292:280,1,120,4|0
260,276,64747,2,0,B|224:232,1,40
204,208,65205,2,0,B|144:176,1,40,8|0
124,168,65663,2,0,B|120:88|120:88|200:36,1,160,2|0
280,72,67037,1,0
256,164,67495,5,4
304,248,67953,1,8
352,252,68182,2,0,B|384:292,2,40
364,204,68869,1,8
380,108,69327,2,0,B|348:120|316:108|316:108|288:132,1,80,2|8
268,152,70014,1,0
172,168,70472,2,0,B|88:124,1,80,0|8
60,108,71159,5,2
179,58,71617,1,8
113,165,72075,1,0
102,42,72533,1,8
186,135,72991,6,0,B|232:160,2,40
128,102,73678,1,4
376,232,74594,5,0
432,188,74823,2,0,B|500:124|472:20,1,180.000004291535,4|0
332,56,75968,1,0
196,100,76426,1,0
132,132,76655,2,0,B|112:168|128:204,2,60.0000014305115,2|0|8
192,172,77342,2,0,B|239:223|295:223|295:223|280:252|280:288,1,180.000004291535,0|8
216,320,78258,1,0
216,320,78487,6,0,B|172:324|144:304,1,60.0000014305115,4|0
100,272,78945,1,8
48,224,79174,2,0,B|88:176|176:172|232:212,1,180.000004291535,0|8
284,220,80090,1,0
356,208,80319,1,2
440,88,80777,1,8
296,76,81235,6,0,B|328:136,2,60.0000014305115,0|0|8
240,28,81922,1,0
188,80,82151,2,0,B|228:144|228:144|172:164|168:228,1,180.000004291535,4|0
172,296,83067,1,0
312,268,83525,1,8
296,124,83983,5,2
180,208,84441,2,0,B|112:208,1,60.0000014305115,2|2
140,140,84899,2,0,B|220:140,1,60.0000014305115,2|2
180,72,85357,2,0,B|112:72,1,60.0000014305115,2|2
48,72,85815,6,0,B|48:204,1,120.000002861023,4|8
72,260,86502,2,0,B|176:348,1,120.000002861023,0|8
220,292,87189,1,0
276,244,87418,2,0,B|336:244|336:244|336:184,1,120.000002861023,8|0
336,112,88105,1,8
264,112,88334,1,0
192,112,88563,2,0,B|192:184,1,60.0000014305115,8|4
192,244,89021,5,0
192,316,89250,1,4
120,316,89479,2,0,B|60:316,2,60.0000014305115,4|0|8
192,316,90166,2,0,B|288:316|288:316|280:260|332:228,1,180.000004291535,0|8
368,192,91082,1,0
440,192,91311,2,0,B|468:264,2,60.0000014305115,2|0|8
408,128,91999,2,0,B|384:64|312:64,1,120.000002861023
244,64,92686,5,8
176,84,92915,1,0
124,132,93144,2,0,B|100:112|104:56,2,60.0000014305115,2|0|8
128,204,93831,2,0,B|120:264|120:264|52:296,1,120.000002861023,4|0
208,316,94747,2,0,B|272:352,1,60.0000014305115,0|2
292,204,95434,2,0,B|256:148|184:152,1,120.000002861023,8|0
48,168,96350,1,8
60,96,96579,1,0
116,48,96808,6,0,B|172:12|236:40,1,120.000002861023,4|8
296,68,97495,1,0
256,208,97953,2,0,B|184:184,2,60.0000014305115,0|8|0
324,228,98640,2,0,B|392:244|448:196,1,120.000002861023,4|8
492,156,99327,1,0
356,104,99785,1,0
256,208,100243,1,0
200,164,100472,5,0
153,220,100701,2,0,B|110:278,2,60.0000014305115
200,164,101388,1,0
143,117,101617,2,0,B|85:74,2,60.0000014305115
200,164,102304,5,0
256,210,102533,2,0,B|314:253,2,60.0000014305115
200,164,103220,1,0
246,107,103449,2,0,B|289:49,2,60.0000014305115,0|0|4
256,192,104136,12,0,107800
