osu file format v9

[General]
AudioFilename: Ano_Natsu_de_Matteru_ED_Short_Version.mp3
AudioLeadIn: 500
PreviewTime: 74600
Countdown: 0
SampleSet: Soft
StackLeniency: 0.4
Mode: 0
LetterboxInBreaks: 0

[Editor]
DistanceSpacing: 1
BeatDivisor: 2
GridSize: 4

[Metadata]
Title:Vidro Moyou (Short Ver.)
Artist:yanaginagi
Creator:jonathanlfj
Version:Easy
Source:Ano Natsu de Matteru
Tags:ending Moonlight Nyquill

[Difficulty]
HPDrainRate:2
CircleSize:3
OverallDifficulty:2
ApproachRate:3
SliderMultiplier:0.8
SliderTickRate:2

[Events]
//Background and Video events
Video,16000,"Ano_Natsu_de_Matteru_ED_TV_Size.avi"
0,0,"BG.jpg"
//Break Periods
//Storyboard Layer 0 (Background)
//Storyboard Layer 1 (Fail)
//Storyboard Layer 2 (Pass)
//Storyboard Layer 3 (Foreground)
//Storyboard Sound Samples
//Background Colour Transformations
3,100,0,0,0

[TimingPoints]
1541,458.015267175573,4,2,0,60,1,0
30395,-100,4,1,1,45,0,0
30853,-100,4,2,0,60,0,0
43678,-100,4,1,1,45,0,0
45510,-100,4,2,0,60,0,0
58334,-100,4,1,1,45,0,0
60166,-100,4,2,0,60,0,0
67037,-100,4,1,1,45,0,0
67495,-100,4,2,0,60,0,0
72991,-100,4,2,0,40,0,0
74823,-100,4,2,0,60,0,1
84441,-100,4,2,0,45,0,1
85815,-100,4,2,0,60,0,1
87418,-100,4,1,1,45,0,1
87647,-100,4,2,0,60,0,1
89021,-100,4,1,1,45,0,1
89479,-100,4,2,0,60,0,1
100472,-100,4,1,1,45,0,1
104021,-100,4,2,0,5,0,0

[Colours]
Combo1 : 236,211,70
Combo2 : 197,48,54
Combo3 : 19,105,214
Combo4 : 228,126,28
Combo5 : 254,125,228
Combo6 : 46,176,116

[HitObjects]
256,64,1541,54,0,B|120:-56|12:160|144:248|252:320|252:320|256:324,1,480,4|0
256,323,5205,2,0,B|260:320|260:320|368:248|500:160|392:-56|256:64,1,480,4|0
256,144,8411,1,0
176,128,8869,6,0,B|80:188|96:368|216:420|336:396|396:332|428:236|380:148|328:124,2,640,2|2|4
256,144,16655,5,0
256,224,17113,2,0,B|256:304,2,80,2|2|0
180,128,18716,2,0,B|204:56|308:56|332:128,1,200,0|4
256,152,20319,5,0
256,232,20777,2,0,B|256:316,2,80,2|2|0
140,196,22380,2,0,B|64:200|52:272,1,120,0|0
132,276,23525,6,0,B|208:272|220:196,1,120,4|0
228,168,24441,2,0,B|320:168,2,80,2|2|0
312,256,26044,2,0,B|312:348,2,80
312,216,27189,6,0,B|356:144|452:148,2,160,4|2|2
288,292,29479,1,2
232,232,29937,1,2
180,168,30395,1,0
124,108,30853,6,0,B|60:156|60:156|60:236,1,160,4|2
80,312,32228,1,0
136,256,32686,2,0,B|180:212|180:212|236:240|280:200,1,160,2|2
304,132,34060,1,0
224,144,34518,6,0,B|224:104|224:104|200:72,1,80,2|0
120,72,35434,2,0,B|96:104|96:104|96:144,1,80,2|0
160,192,36350,2,0,B|184:240|128:260|156:308,2,120,2|0|0
188,116,38182,6,0,B|224:88|272:104,1,80,2|0
240,180,39098,2,0,B|256:228|320:244,1,80,2|0
320,160,40014,2,0,B|356:124|340:52,1,80,2|0
272,52,40930,5,2
192,60,41388,1,0
124,104,41846,2,0,B|96:140|112:188,1,80,2|0
188,156,42762,2,0,B|236:172|252:236,1,80,2|0
168,236,43678,6,0,B|132:272|60:256,1,80,0|0
48,196,44594,1,0
56,116,45052,1,0
128,76,45510,6,0,B|212:144,1,80,4|8
148,192,46426,1,0
216,236,46884,1,8
260,168,47342,2,0,B|312:192|364:160,1,80,2|8
376,156,48029,2,0,B|436:196|440:268,1,120,0|8
376,304,49174,6,0,B|332:292|312:248,1,80,4|8
320,216,49861,2,0,B|304:148|236:144,1,120,0|8
240,224,51006,1,2
160,224,51464,2,0,B|48:224,2,80,8|0|8
164,304,52838,6,0,B|248:304,1,80,4|8
324,300,53754,1,0
380,240,54212,1,8
352,164,54670,2,0,B|320:140|268:144,1,80,2|8
196,152,55586,1,0
128,112,56044,1,8
196,72,56502,22,0,B|300:72,1,80,4|8
328,132,57418,2,0,B|372:132,2,40,0|8|0
288,200,58334,2,0,B|240:220|192:176,1,80,0|4
184,116,59250,2,0,B|184:68,2,40
132,180,60166,6,0,B|136:220|136:220|160:256,1,80,4|8
228,292,61082,1,0
308,288,61541,1,8
372,240,61999,2,0,B|408:220|408:220|396:168,1,80,2|8
388,144,62686,2,0,B|368:76|296:56,1,120,0|0
228,48,63831,6,0,B|180:36|140:72,1,80,4|8
100,124,64747,2,0,B|36:116,2,40,0|0|8
136,196,65663,2,0,B|152:252|228:276|280:220,1,160,2|0
212,172,67037,2,0,B|236:76,1,80,0|4
312,108,67953,5,8
292,184,68411,2,0,B|272:264,1,80,0|8
196,244,69327,2,0,B|164:220|164:220|132:252|68:232,1,120,2|0
112,160,70472,2,0,B|88:108|136:64,1,80,0|8
144,56,71159,6,0,B|240:40,1,80,2|8
304,32,72075,2,0,B|320:124,1,80,2|8
240,124,72991,6,0,B|176:136|176:136|140:184,1,120,2|2
292,312,74823,6,0,B|368:312|384:228,2,120,4|0|8
300,232,76655,2,0,B|224:232|208:316,2,120,2|0|8
380,232,78487,6,0,B|376:188|344:164,1,80,4|8
264,164,79403,2,0,B|260:200|300:232,1,80,0|8
344,164,80319,1,2
304,96,80777,1,8
224,96,81235,6,0,B|168:100|148:156,2,80,0|8|4
228,176,82609,2,0,B|248:220|224:260,1,80,8|0
156,292,83525,2,0,B|136:248|160:208,1,80,8|2
228,176,84441,1,8
220,96,84899,1,0
140,80,85357,1,8
104,152,85815,6,0,B|160:216,1,80,4|8
184,244,86502,2,0,B|248:280|300:240,1,120,0|8
296,204,87418,2,0,B|292:128|364:108,1,120,0|8
376,188,88563,2,0,B|416:216,2,40,0|4|0
328,252,89479,6,0,B|302:301|250:305,1,80,4|8
188,316,90395,2,0,B|176:272|176:272|216:244,1,80,0|8
264,200,91311,2,0,B|300:152,2,40,2|0|8
188,172,92228,2,0,B|180:128|128:112,1,80,0|8
112,192,93144,6,0,B|120:236|172:252,1,80,2|8
200,264,93831,2,0,B|264:264|264:264|304:312,1,120,4|8
376,332,94976,1,2
452,308,95434,2,0,B|484:276|480:228,1,80,8|0
452,160,96350,1,8
428,84,96808,2,0,B|388:96|372:140,1,80,4|8
392,216,97724,5,0
340,276,98182,1,8
260,280,98640,2,0,B|216:284|180:252,1,80,4|8
120,208,99556,1,0
80,140,100014,1,8
72,60,100472,6,0,B|88:48|88:48|104:60|104:60|120:48|120:48|136:60|136:60|152:48|152:48|168:60|168:60|184:48|184:48|200:60|200:60|216:48|216:48|232:60|232:60|248:48|248:48|264:60|264:60|280:48|280:48|296:60|296:60|312:48|312:48|328:60|328:60|344:48|344:48|360:60|360:60|376:48|376:48|392:60|392:60|408:48|408:48|424:60|424:60|440:48|440:48|456:60,1,480
484,88,103449,2,0,B|484:136,2,40,0|0|4
256,192,104136,12,0,107800
