osu file format v12

[General]
AudioFilename: Vidro Moyou.mp3
AudioLeadIn: 0
PreviewTime: 73106
Countdown: 0
SampleSet: Soft
StackLeniency: 0.7
Mode: 0
LetterboxInBreaks: 1
EpilepsyWarning: 1
WidescreenStoryboard: 1

[Editor]
DistanceSpacing: 1.4
BeatDivisor: 4
GridSize: 4

[Metadata]
Title:Vidro Moyou
TitleUnicode:Vidro Moyou
Artist:yanaginagi
ArtistUnicode:yanaginagi
Creator:Moway
Version:Normal
Source:Ano Natsu de Matteru
Tags:waiting in the summer ending unitedwesin uws jonathanlfj collaboration raose
BeatmapID:308909
BeatmapSetID:120513

[Difficulty]
HPDrainRate:3
CircleSize:3
OverallDifficulty:3
ApproachRate:4
SliderMultiplier:0.899999999999999
SliderTickRate:1

[Events]
//Background and Video events
0,0,"bg.jpg",0,0
//Break Periods
2,104451,110260
2,185062,198199
//Storyboard Layer 0 (Background)
//Storyboard Layer 1 (Fail)
//Storyboard Layer 2 (Pass)
//Storyboard Layer 3 (Foreground)
//Storyboard Sound Samples
//Background Colour Transformations
3,100,163,162,255

[TimingPoints]
16313,458.015267175573,4,2,1,70,1,0
30511,-100,4,2,1,30,0,0
30969,-100,4,2,1,60,0,0
45626,-100,4,2,1,70,0,0
60282,-100,4,2,1,60,0,0
71275,-100,4,2,1,70,0,0
74938,-100,4,2,1,80,0,1
104251,-100,4,2,1,80,0,0
111580,-100,4,2,1,60,0,0
126237,-100,4,2,1,70,0,0
140893,-100,4,2,1,60,0,0
151886,-100,4,2,1,70,0,0
155549,-100,4,2,1,80,0,1
184862,-100,4,2,1,80,0,0
199519,-100,4,2,1,70,0,0
214176,-100,4,2,1,50,0,0
216007,-100,4,2,1,80,0,1
245320,-100,4,2,1,80,0,0

[Colours]
Combo1 : 196,255,255
Combo2 : 0,64,128
Combo3 : 255,255,128
Combo4 : 255,128,192

[HitObjects]
124,184,16312,2,0,P|120:228|124:276,1,89.9999999999999,4|0,0:0|0:0,0:0:0:0:
184,364,17229,1,2,0:0:0:0:
284,328,17687,2,0,L|332:328,2,45,2|0|0,0:0|0:0|0:0,0:0:0:0:
196,264,18603,2,0,L|104:264,2,89.9999999999999,0|2|0,0:0|0:0|0:0,0:0:0:0:
296,224,19977,6,0,P|344:208|372:172,1,89.9999999999999,2|0,0:0|0:0,0:0:0:0:
428,88,20893,1,2,0:0:0:0:
324,56,21351,2,0,L|268:56,2,45,2|0|0,0:0|0:0|0:0,0:0:0:0:
256,140,22267,2,0,L|152:140,2,89.9999999999999,0|0|0,0:0|0:0|0:0,0:0:0:0:
364,140,23641,6,0,B|404:164|404:212|404:212|304:228|296:344,1,270,2|2,0:0|0:0,0:0:0:0:
192,308,25473,2,0,P|204:256|224:220,1,89.9999999999999,0|0,0:0|0:0,0:0:0:0:
132,164,26389,2,0,P|114:205|102:253,1,89.9999999999999,2|2,0:0|0:0,0:0:0:0:
192,308,27305,6,0,P|296:348|424:264,1,270,4|0,0:0|0:0,0:0:0:0:
472,172,29137,2,0,P|436:148|388:128,1,89.9999999999999,0|0,0:0|0:0,0:0:0:0:
288,148,30053,2,0,L|268:196,2,45,0|0|4,0:0|0:0|0:0,0:0:0:0:
328,48,30969,5,4,0:0:0:0:
412,248,31885,2,0,L|384:352,1,89.9999999999999,0|0,0:0|0:0,0:0:0:0:
280,324,32801,2,0,P|224:300|144:304,2,135,0|2|2,0:0|0:0|0:0,0:0:0:0:
328,228,34633,6,0,L|351:141,1,89.9999999999999,2|0,0:0|0:0,0:0:0:0:
360,88,35320,2,0,P|300:68|228:64,1,135,2|0,0:0|0:0,0:0:0:0:
120,72,36465,1,2,0:0:0:0:
36,140,36923,1,0,0:0:0:0:
108,220,37381,1,2,0:0:0:0:
192,152,37839,1,0,0:0:0:0:
296,124,38297,6,0,P|360:156|380:220,2,135,2|0|2,0:0|0:0|0:0,0:0:0:0:
188,124,40129,2,0,L|96:140,1,89.9999999999999,0|0,0:0|0:0,0:0:0:0:
52,236,41045,2,0,L|140:220,1,89.9999999999999,0|0,0:0|0:0,0:0:0:0:
248,200,41961,5,2,0:0:0:0:
332,132,42419,2,0,L|372:88,1,45,2|0,0:0|0:0,0:0:0:0:
400,60,42877,2,0,P|448:92|468:128,1,89.9999999999999,0|0,0:0|0:0,0:0:0:0:
448,224,43793,1,2,0:0:0:0:
372,304,44251,2,0,L|372:360,2,45,8|2|0,0:0|0:0|0:0,0:0:0:0:
320,208,45167,1,10,0:0:0:0:
216,244,45625,6,0,P|163:271|124:268,1,89.9999999999999,4|8,0:0|0:0,0:0:0:0:
58,192,46542,2,0,P|111:165|150:168,1,89.9999999999999,2|8,0:0|0:0,0:0:0:0:
244,136,47458,2,0,P|288:133|326:109,1,89.9999999999999,2|8,0:0|0:0,0:0:0:0:
426,68,48374,1,0,0:0:0:0:
484,160,48832,1,8,0:0:0:0:
390,216,49290,6,0,P|346:272|340:340,2,135,2|2|8,0:0|0:0|0:0,0:0:0:0:
288,176,51122,2,0,L|188:176,1,89.9999999999999,2|8,0:0|0:0,0:0:0:0:
132,260,52038,2,0,L|222:260,1,89.9999999999999,0|8,0:0|0:0,0:0:0:0:
288,176,52954,6,0,P|316:132|324:92,1,89.9999999999999,2|8,0:0|0:0,0:0:0:0:
316,40,53641,2,0,B|253:18|243:67|184:48,1,135,2|8,0:0|0:0,0:0:0:0:
80,28,54786,1,2,0:0:0:0:
0,104,55244,1,8,0:0:0:0:
80,180,55702,1,2,0:0:0:0:
0,256,56160,1,8,0:0:0:0:
80,328,56618,6,0,B|148:328|148:328|184:304|184:304|256:304,1,180,2|0,0:0|0:0,0:0:0:0:
344,248,57992,2,0,L|388:248,1,45,2|8,0:0|0:0,0:0:0:0:
256,192,58450,12,4,60282,0:0:0:0:
256,80,61656,5,8,0:0:0:0:
152,104,62114,2,0,P|168:144|208:176,1,89.9999999999999,2|8,0:0|0:0,0:0:0:0:
252,188,62801,2,0,P|312:176|356:120,1,135,2|8,0:0|0:0,0:0:0:0:
452,168,63946,6,0,L|452:264,1,89.9999999999999,4|8,0:0|0:0,0:0:0:0:
384,344,64862,1,2,0:0:0:0:
288,296,65320,1,10,0:0:0:0:
184,324,65778,2,0,P|132:352|52:348,2,135,2|0|8,0:0|0:0|0:0,0:0:0:0:
208,220,67610,6,0,P|188:164|168:136,1,89.9999999999999,4|8,0:0|0:0,0:0:0:0:
132,104,68297,2,0,P|68:136|0:144,1,135,2|8,0:0|0:0,0:0:0:0:
60,236,69442,2,0,P|100:284|112:356,2,135,2|2|8,0:0|0:0|0:0,0:0:0:0:
168,224,71274,6,0,L|264:224,1,89.9999999999999,4|8,0:0|0:0,0:0:0:0:
328,140,72190,2,0,L|238:140,1,89.9999999999999,2|8,0:0|0:0,0:0:0:0:
132,136,73106,6,0,B|120:140|120:140|88:136|92:168|92:168|56:168|28:204,2,135,4|4|0,3:0|3:0|0:0,0:0:0:0:
236,104,74938,6,0,P|280:140|296:184,1,89.9999999999999,4|8,0:0|0:0,0:0:0:0:
300,224,75625,2,0,P|256:272|244:312,2,89.9999999999999,2|2|0,0:0|0:0|0:0,0:0:0:0:
352,204,76771,2,0,L|444:180,1,89.9999999999999,2|8,0:0|0:0,0:0:0:0:
488,164,77458,2,0,P|488:96|428:52,1,135,2|8,0:0|0:0,0:0:0:0:
332,68,78603,6,0,P|264:88|232:88,1,89.9999999999999,2|8,0:0|0:0,0:0:0:0:
192,80,79290,2,0,P|120:136|112:192,1,135,2|8,0:0|0:0,0:0:0:0:
116,284,80435,1,2,0:0:0:0:
200,352,80893,1,8,0:0:0:0:
312,352,81351,1,2,0:0:0:0:
396,284,81809,1,8,0:0:0:0:
388,176,82267,6,0,P|340:148|288:148,1,89.9999999999999,2|8,0:0|0:0,0:0:0:0:
252,148,82954,2,0,P|248:200|316:248,1,135,0|8,0:0|0:0,0:0:0:0:
388,176,84099,1,0,0:0:0:0:
468,248,84557,2,0,P|500:296|508:340,2,89.9999999999999,2|2|8,0:0|0:0|0:0,0:0:0:0:
388,176,85931,6,0,L|304:136,1,89.9999999999999,4|8,0:0|0:0,0:0:0:0:
300,84,86618,2,0,L|212:115,1,89.9999999999999,2|0,0:0|3:0,0:0:0:0:
172,80,87305,2,0,L|148:136,1,45,0|0,0:0|3:0,0:0:0:0:
224,204,87992,2,0,L|248:260,2,45,2|8|2,0:0|0:0|0:0,0:0:0:0:
124,164,88908,2,0,L|63:156,2,45,8|2|8,0:0|3:2|0:0,0:0:0:0:
148,212,89595,6,0,L|180:296,1,89.9999999999999,4|8,0:0|0:0,0:0:0:0:
204,344,90282,2,0,P|236:352|292:336,2,89.9999999999999,2|2|0,0:0|0:0|0:0,0:0:0:0:
152,332,91427,2,0,P|104:316|56:320,1,89.9999999999999,2|8,0:0|0:0,0:0:0:0:
12,316,92114,2,0,P|4:256|40:188,1,135,2|8,0:0|0:0,0:0:0:0:
89,178,93030,6,0,L|180:164,1,89.9999999999999,0|0,0:0|0:0,0:0:0:0:
232,160,93717,1,8,0:0:0:0:
268,200,93946,2,0,P|248:240|204:252,1,89.9999999999999,4|0,0:0|0:0,0:0:0:0:
105,284,94862,2,0,L|113:337,1,45,0|2,0:0|0:0,0:0:0:0:
216,356,95549,1,8,0:0:0:0:
272,264,96007,1,2,0:0:0:0:
200,184,96465,2,0,L|154:162,2,45,8|0|2,0:0|0:0|0:0,0:0:0:0:
284,116,97381,6,0,P|340:96|380:96,1,89.9999999999999,8|0,0:0|0:0,0:0:0:0:
460,156,98297,2,0,L|468:200,1,45,8|2,0:0|0:0,0:0:0:0:
480,252,98755,2,0,P|460:305|421:329,1,89.9999999999999,2|8,0:0|0:0,0:0:0:0:
381,314,99442,2,0,P|292:294|280:296,2,89.9999999999999,0|0|2,0:0|0:0|0:0,0:0:0:0:
256,192,100587,12,4,104251,0:0:0:0:
424,176,111580,6,0,P|381:163|336:176,1,89.9999999999999,4|8,0:0|0:0,0:0:0:0:
256,248,112496,2,0,L|256:296,2,45,0|0|8,0:0|0:0|0:0,0:0:0:0:
173,174,113412,2,0,P|130:163|88:176,1,89.9999999999999,0|8,0:0|0:0,0:0:0:0:
40,196,114099,2,0,P|32:260|76:320,1,135,0|8,0:0|0:0,0:0:0:0:
172,352,115244,5,0,0:0:0:0:
276,328,115702,2,0,L|332:312,1,45,8|0,0:0|0:0,0:0:0:0:
360,280,116160,2,0,L|416:264,2,45,0|0|8,0:0|0:0|0:0,0:0:0:0:
256,248,117076,1,0,0:0:0:0:
180,172,117534,1,8,0:0:0:0:
256,96,117992,1,0,0:0:0:0:
332,172,118450,1,8,0:0:0:0:
256,248,118908,6,0,P|200:288|124:292,2,135,0|0|8,0:0|0:0|0:0,0:0:0:0:
332,172,120740,2,0,L|396:172,2,45,0|0|8,0:0|0:0|0:0,0:0:0:0:
400,256,121656,2,0,L|464:256,2,45,0|0|8,0:0|0:0|0:0,0:0:0:0:
348,256,122343,1,0,0:0:0:0:
296,256,122572,6,0,P|240:260|208:280,1,89.9999999999999,0|8,0:0|0:0,0:0:0:0:
160,292,123259,2,0,P|139:252|139:207,1,89.9999999999999,0|8,0:0|0:0,0:0:0:0:
220,136,124175,2,0,L|276:116,1,45,8|2,0:0|0:0,0:0:0:0:
364,88,124862,1,8,0:0:0:0:
432,172,125320,2,0,P|440:200|440:228,2,45,10|8|10,0:0|0:0|0:0,0:0:0:0:
332,208,126236,6,0,P|272:236|248:264,1,89.9999999999999,4|8,0:0|0:0,0:0:0:0:
212,284,126923,1,0,0:0:0:0:
160,292,127152,2,0,P|100:264|76:236,1,89.9999999999999,2|8,0:0|0:0,0:0:0:0:
88,140,128068,2,0,P|148:168|172:196,1,89.9999999999999,2|8,0:0|0:0,0:0:0:0:
204,220,128755,2,0,P|280:248|340:232,1,135,2|8,0:0|0:0,0:0:0:0:
416,172,129900,6,0,L|392:80,1,89.9999999999999,2|8,0:0|0:0,0:0:0:0:
348,56,130587,2,0,P|268:48|216:68,1,135,2|8,0:0|0:0,0:0:0:0:
120,112,131732,1,2,0:0:0:0:
32,172,132190,1,8,0:0:0:0:
56,276,132648,1,0,0:0:0:0:
164,288,133106,1,8,0:0:0:0:
208,188,133564,6,0,P|264:160|296:156,1,89.9999999999999,2|8,0:0|0:0,0:0:0:0:
340,176,134251,2,0,P|396:204|472:200,1,135,0|8,0:0|0:0,0:0:0:0:
456,96,135396,2,0,L|448:52,2,45,0|0|8,0:0|0:0|0:0,0:0:0:0:
348,84,136313,2,0,L|305:68,2,45,0|0|8,0:0|0:0|0:0,0:0:0:0:
276,164,137229,6,0,P|220:200|208:240,1,89.9999999999999,2|8,0:0|0:0,0:0:0:0:
308,268,138145,1,0,0:0:0:0:
412,236,138603,2,0,L|460:236,1,45,0|8,0:0|0:0,0:0:0:0:
256,192,139061,12,4,140893,0:0:0:0:
256,304,142267,5,8,0:0:0:0:
256,196,142725,2,0,P|236:144|208:124,1,89.9999999999999,2|8,0:0|0:0,0:0:0:0:
156,140,143412,2,0,P|96:164|28:152,1,135,2|0,0:0|0:0,0:0:0:0:
84,60,144557,6,0,P|128:36|180:36,1,89.9999999999999,0|8,0:0|0:0,0:0:0:0:
276,48,145473,2,0,P|318:74|344:119,1,89.9999999999999,0|8,0:0|0:0,0:0:0:0:
344,160,146160,1,0,0:0:0:0:
308,200,146389,2,0,P|244:272|232:328,2,135,2|2|8,0:0|0:0|0:0,0:0:0:0:
204,172,148221,6,0,L|112:172,1,89.9999999999999,4|8,0:0|0:0,0:0:0:0:
60,176,148908,2,0,P|12:224|0:288,1,135,2|8,0:0|0:0,0:0:0:0:
100,332,150053,2,0,P|152:328|196:308,1,89.9999999999999,2|8,0:0|0:0,0:0:0:0:
240,300,150740,2,0,P|284:302|326:318,1,89.9999999999999,2|0,0:0|0:0,0:0:0:0:
420,268,151656,6,0,L|440:224,1,45,8|4,0:0|0:0,0:0:0:0:
364,152,152343,1,8,0:0:0:0:
260,180,152801,1,2,0:0:0:0:
200,92,153259,1,8,0:0:0:0:
112,156,153717,6,0,B|116:168|116:168|112:200|144:196|144:196|144:232|180:260,2,135,4|4|0,3:0|3:0|0:0,0:0:0:0:
200,92,155549,6,0,P|260:68|292:72,1,89.9999999999999,4|8,0:0|0:0,0:0:0:0:
336,76,156236,2,0,L|440:40,2,89.9999999999999,2|0|0,0:0|0:0|0:0,0:0:0:0:
308,120,157381,1,0,0:0:0:0:
344,220,157839,1,8,0:0:0:0:
304,256,158068,2,0,L|168:284,1,135,2|8,0:0|0:0,0:0:0:0:
120,288,158984,6,0,P|84:228|96:164,1,135,0|8,0:0|0:0,0:0:0:0:
136,132,159900,2,0,L|228:120,2,89.9999999999999,2|0|0,0:0|0:0|0:0,0:0:0:0:
96,96,161045,1,2,0:0:0:0:
184,32,161503,1,10,0:0:0:0:
288,56,161961,1,2,0:0:0:0:
392,24,162419,2,0,L|424:76,2,45,10|0|4,0:0|0:0|0:0,0:0:0:0:
288,56,163335,6,0,P|244:84|224:128,1,89.9999999999999,8|2,0:0|0:0,0:0:0:0:
184,216,164251,1,8,0:0:0:0:
256,296,164709,1,2,0:0:0:0:
360,268,165167,2,0,L|408:248,1,45,10|0,0:0|0:0,0:0:0:0:
412,196,165625,2,0,L|460:176,2,45,2|0|10,0:0|0:0|0:0,0:0:0:0:
308,172,166542,6,0,P|264:152|224:144,1,89.9999999999999,4|8,0:0|0:0,0:0:0:0:
168,148,167229,2,0,P|124:168|84:176,1,89.9999999999999,2|8,0:0|0:0,0:0:0:0:
104,280,168145,1,2,0:0:0:0:
204,324,168603,2,0,L|235:375,2,45,2|10|0,0:0|0:0|0:0,0:0:0:0:
194,270,169290,2,0,P|190:218|198:174,1,89.9999999999999,2|8,0:0|0:0,0:0:0:0:
231,78,170206,6,0,L|211:38,2,45,4|0|8,0:0|0:0|0:0,0:0:0:0:
259,123,170893,2,0,P|311:135|367:127,2,89.9999999999999,2|0|0,0:0|0:0|0:0,0:0:0:0:
206,133,172038,2,0,P|174:169|166:209,1,89.9999999999999,2|8,0:0|0:0,0:0:0:0:
171,262,172725,2,0,L|307:290,1,135,2|8,0:0|0:0,0:0:0:0:
409,267,173870,6,0,L|461:252,2,45,2|0|8,0:0|0:0|0:0,0:0:0:0:
355,258,174557,2,0,P|295:218|287:146,1,135,4|8,0:0|0:0,0:0:0:0:
338,66,175702,1,2,0:0:0:0:
442,90,176160,1,10,0:0:0:0:
370,170,176618,1,2,0:0:0:0:
266,138,177076,2,0,L|214:114,1,45,10|0,0:0|0:0,0:0:0:0:
173,105,177534,6,0,P|130:124|93:161,1,89.9999999999999,4|8,0:0|0:0,0:0:0:0:
112,260,178450,2,0,P|154:240|191:203,1,89.9999999999999,2|8,0:0|0:0,0:0:0:0:
228,180,179137,2,0,P|296:224|312:280,1,135,2|8,0:0|0:0,0:0:0:0:
312,328,180053,2,0,P|356:344|408:344,2,89.9999999999999,2|0|2,0:0|0:0|0:0,0:0:0:0:
256,192,181198,12,4,184862,0:0:0:0:
388,92,199519,6,0,P|392:144|388:192,1,89.9999999999999,4|8,0:0|0:0,0:0:0:0:
388,236,200206,2,0,P|328:224|256:236,1,135,2|8,0:0|0:0,0:0:0:0:
148,248,201351,2,0,P|96:232|76:200,1,89.9999999999999,2|8,0:0|0:0,0:0:0:0:
24,200,202038,2,0,P|11:146|29:113,1,89.9999999999999,2|0,0:0|0:0,0:0:0:0:
60,76,202725,1,8,0:0:0:0:
112,60,202954,6,0,L|164:60,1,45,0|2,0:0|0:0,0:0:0:0:
212,60,203412,1,0,0:0:0:0:
256,92,203641,2,0,P|280:144|280:184,2,89.9999999999999,8|0|8,0:0|0:0|0:0,0:0:0:0:
180,168,205015,2,0,P|192:248|236:284,2,135,2|2|8,0:0|0:0|0:0,0:0:0:0:
256,92,206847,6,0,L|304:72,2,45,4|0|8,0:0|0:0|0:0,0:0:0:0:
336,164,207763,2,0,L|387:170,2,45,0|0|8,0:0|0:0|0:0,0:0:0:0:
228,168,208679,2,0,P|184:192|168:236,1,89.9999999999999,2|8,0:0|0:0,0:0:0:0:
212,260,209366,2,0,P|256:284|272:328,1,89.9999999999999,2|0,0:0|0:0,0:0:0:0:
232,356,210053,2,0,L|184:356,2,45,8|0|4,0:0|0:0|0:0,0:0:0:0:
332,316,210969,6,0,P|384:280|400:248,2,89.9999999999999,8|2|8,0:0|0:0|0:0,0:0:0:0:
256,192,212343,12,2,214175,0:0:0:0:
196,304,215091,6,2,P|128:292|84:224,1,135,0|0,0:0|0:0,0:0:0:0:
76,192,216007,6,0,L|156:136,1,89.9999999999999,6|8,0:0|0:0,0:0:0:0:
196,116,216694,2,0,P|244:144|260:184,1,89.9999999999999,2|0,0:0|0:0,0:0:0:0:
264,228,217381,2,0,L|224:272,1,45,8|0,0:0|0:0,0:0:0:0:
196,300,217839,2,0,P|232:352|272:364,1,89.9999999999999,2|8,0:0|0:0,0:0:0:0:
308,356,218526,2,0,P|368:320|392:256,1,135,2|8,0:0|0:0,0:0:0:0:
416,156,219671,6,0,L|451:115,2,45,2|0|8,0:0|0:0|0:0,0:0:0:0:
364,176,220358,2,0,P|316:176|276:208,1,89.9999999999999,2|0,0:0|0:0,0:0:0:0:
212,280,221274,2,0,L|172:256,1,45,0|2,0:0|0:0,0:0:0:0:
84,200,221961,1,8,0:0:0:0:
76,308,222419,1,2,0:0:0:0:
173,256,222877,2,0,L|220:224,1,45,8|0,0:0|0:0,0:0:0:0:
256,200,223335,6,0,P|300:220|328:256,1,89.9999999999999,4|8,0:0|0:0,0:0:0:0:
352,300,224022,1,2,0:0:0:0:
392,336,224251,2,0,P|436:336|484:320,2,89.9999999999999,0|8|2,0:0|0:0|0:0,0:0:0:0:
284,352,225625,2,0,L|232:332,1,45,10|0,0:0|0:0,0:0:0:0:
200,304,226083,2,0,L|191:248,1,45,2|0,0:0|0:0,0:0:0:0:
208,208,226542,2,0,L|251:172,1,45,10|2,0:0|0:0,0:0:0:0:
288,152,227000,6,0,P|312:104|312:68,1,89.9999999999999,4|8,0:0|0:0,0:0:0:0:
272,32,227687,2,0,P|225:37|168:40,1,89.9999999999999,2|8,0:0|0:0,0:0:0:0:
128,32,228374,1,0,0:0:0:0:
84,64,228603,2,0,P|52:112|64:192,2,135,8|8|12,0:0|0:0|0:0,0:0:0:0:
136,72,230206,2,0,L|184:96,1,45,8|12,0:0|0:0,0:0:0:0:
228,112,230664,6,0,P|280:116|324:100,1,89.9999999999999,4|8,0:0|0:0,0:0:0:0:
368,92,231351,2,0,P|428:132|440:152,2,89.9999999999999,2|0|0,0:0|0:0|0:0,0:0:0:0:
332,132,232496,2,0,P|304:184|304:220,1,89.9999999999999,2|8,0:0|0:0,0:0:0:0:
312,268,233183,2,0,L|408:296,2,89.9999999999999,2|0|0,0:0|0:0|0:0,0:0:0:0:
260,248,234328,6,0,B|204:220|180:264|128:232,1,135,2|4,0:0|0:0,0:0:0:0:
241,349,235702,1,8,0:0:0:0:
348,335,236160,1,2,0:0:0:0:
433,269,236618,1,8,0:0:0:0:
438,161,237076,2,0,P|426:114|382:85,1,89.9999999999999,0|8,0:0|0:0,0:0:0:0:
288,92,237992,6,0,L|188:112,1,89.9999999999999,2|8,0:0|0:0,0:0:0:0:
156,208,238908,2,0,L|244:190,1,89.9999999999999,0|8,0:0|0:0,0:0:0:0:
296,176,239595,2,0,P|348:232|360:296,1,135,2|8,0:0|0:0,0:0:0:0:
316,316,240511,2,0,P|232:316|216:320,2,89.9999999999999,2|0|2,0:0|0:0|0:0,0:0:0:0:
256,192,241656,12,4,245320,0:0:0:0:
136,148,246236,6,0,L|224:112,1,89.9999999999999,2|8,0:0|0:0,0:0:0:0:
320,72,247152,1,2,0:0:0:0:
400,144,247610,1,8,0:0:0:0:
332,228,248068,2,0,P|308:272|304:316,1,89.9999999999999,2|8,0:0|0:0,0:0:0:0:
208,360,248984,6,0,P|132:364|84:328,2,135,2|2|8,0:0|0:0|0:0,0:0:0:0:
308,316,250816,2,0,P|356:304|416:308,1,89.9999999999999,2|8,0:0|0:0,0:0:0:0:
472,228,251732,2,0,L|500:188,2,45,0|0|8,0:0|0:0|0:0,0:0:0:0:
368,200,252648,6,0,P|272:176|184:184,1,180,4|0,0:0|0:0,0:0:0:0:
84,200,254022,1,10,0:0:0:0:
28,292,254480,1,0,0:0:0:0:
124,340,254938,2,0,P|152:348|176:344,1,45,10|0,0:0|0:0,0:0:0:0:
220,336,255396,2,0,P|241:328|263:329,1,45,2|0,0:0|0:0,0:0:0:0:
316,340,255854,2,0,P|344:348|368:344,1,45,10|0,0:0|0:0,0:0:0:0:
412,336,256313,6,0,P|444:268|444:248,1,89.9999999999999,4|8,0:0|0:0,0:0:0:0:
376,172,257229,2,0,L|352:128,2,45,0|8|0,0:0|0:0|0:0,0:0:0:0:
360,224,257916,2,0,P|308:256|228:248,1,135,8|10,0:0|0:0,0:0:0:0:
132,220,259061,2,0,L|76:196,1,45,8|8,0:0|0:0,0:0:0:0:
84,148,259519,2,0,L|28:124,1,45,10|8,0:0|0:0,0:0:0:0:
44,76,259977,6,0,P|84:44|128:40,1,89.9999999999999,4|8,0:0|0:0,0:0:0:0:
172,136,260893,2,0,P|212:168|256:172,1,89.9999999999999,0|8,0:0|0:0,0:0:0:0:
352,140,261809,2,0,L|404:124,2,45,2|0|8,0:0|0:0|0:0,0:0:0:0:
328,244,262725,2,0,L|315:297,2,45,2|0|8,0:0|0:0|0:0,0:0:0:0:
220,232,263641,6,0,P|164:244|136:268,1,89.9999999999999,2|8,0:0|0:0,0:0:0:0:
84,172,264557,2,0,P|101:117|94:81,1,89.9999999999999,0|8,0:0|0:0,0:0:0:0:
204,108,265473,2,0,P|280:152|376:156,1,180,2|2,0:0|0:0,0:0:0:0:
420,140,266618,2,0,L|420:92,2,45,0|8|0,0:0|0:0|0:0,0:0:0:0:
408,192,267305,6,0,P|404:236|408:288,1,89.9999999999999,4|8,0:0|0:0,0:0:0:0:
312,332,268221,2,0,P|316:288|312:236,1,89.9999999999999,2|8,0:0|0:0,0:0:0:0:
264,148,269137,1,2,0:0:0:0:
160,172,269595,2,0,L|108:188,1,45,10|0,0:0|0:0,0:0:0:0:
68,164,270053,2,0,L|30:203,2,45,2|0|8,0:0|0:0|0:0,0:0:0:0:
256,192,270969,12,4,274633,0:0:0:0:
