osu file format v12

[General]
AudioFilename: Vidro Moyou.mp3
AudioLeadIn: 0
PreviewTime: 73106
Countdown: 0
SampleSet: Soft
StackLeniency: 0.7
Mode: 0
LetterboxInBreaks: 1
EpilepsyWarning: 1
WidescreenStoryboard: 1

[Editor]
Bookmarks: 59709
DistanceSpacing: 1.4
BeatDivisor: 4
GridSize: 4

[Metadata]
Title:Vidro Moyou
TitleUnicode:Vidro Moyou
Artist:yanaginagi
ArtistUnicode:yanaginagi
Creator:Moway
Version:Insane
Source:Ano Natsu de Matteru
Tags:waiting in the summer ending unitedwesin uws jonathanlfj collaboration raose
BeatmapID:308908
BeatmapSetID:120513

[Difficulty]
HPDrainRate:6
CircleSize:4
OverallDifficulty:7
ApproachRate:8
SliderMultiplier:1.9
SliderTickRate:1

[Events]
//Background and Video events
0,0,"bg.jpg",0,0
//Break Periods
2,104451,110372
2,185062,196021
//Storyboard Layer 0 (Background)
//Storyboard Layer 1 (Fail)
//Storyboard Layer 2 (Pass)
//Storyboard Layer 3 (Foreground)
Sprite,Foreground,Centre,"jonathanlfj.png",130,110 F,0,16083,16312,0,1 M,0,16312,,147,108 S,0,16312,,0.8674247 F,0,44938,45167,1,0 F,0,111351,111580,0,1 F,0,125549,125778,1,0 F,0,215778,216007,0,1 F,0,244633,244862,1,0
Sprite,Foreground,Centre,"Moway.png",130,110 F,0,45396,45625,0,1 M,0,45625,,130,110 S,0,45625,,0.9024931 F,0,74251,74480,1,0 F,0,155320,155549,0,1 F,0,184633,184862,1,0 F,0,245091,245320,0,1 F,0,274404,274633,1,0
Sprite,Foreground,Centre,"UnitedWeSin.png",130,110 F,0,74709,74938,0,1 M,0,74938,,175,113 S,0,74938,,0.8533973 F,0,104022,104251,1,0 F,0,126007,126236,0,1 F,0,154862,155091,1,0 F,0,199290,199519,0,1 F,0,215320,215549,1,0
//Storyboard Sound Samples
//Background Colour Transformations
3,100,163,162,255

[TimingPoints]
16313,458.015267175573,4,2,1,70,1,0
16313,-111.111111111111,4,2,1,70,0,0
30511,-111.111111111111,4,2,1,40,0,0
30969,-125,4,2,1,60,0,0
45625,-111.111111111111,4,2,1,70,0,0
58908,-111.111111111111,4,2,1,30,0,0
59137,-111.111111111111,4,2,1,70,0,0
60282,-125,4,2,1,60,0,0
71274,-111.111111111111,4,2,1,70,0,0
73106,-111.111111111111,4,2,1,15,0,0
73564,-111.111111111111,4,2,1,20,0,0
74022,-111.111111111111,4,2,1,30,0,0
74480,-111.111111111111,4,2,1,35,0,0
74709,-111.111111111111,4,2,1,45,0,0
74938,-100,4,2,1,80,0,1
104251,-111.111111111111,4,2,1,80,0,0
111580,-125,4,2,1,60,0,0
125778,-125,4,2,1,50,0,0
125893,-125,4,2,1,55,0,0
126007,-125,4,2,1,60,0,0
126122,-125,4,2,1,65,0,0
126237,-111.111111111111,4,2,1,70,0,0
140893,-125,4,2,1,60,0,0
151885,-111.111111111111,4,2,1,70,0,0
153717,-111.111111111111,4,2,1,15,0,0
154175,-111.111111111111,4,2,1,20,0,0
154633,-111.111111111111,4,2,1,30,0,0
155091,-111.111111111111,4,2,1,35,0,0
155320,-111.111111111111,4,2,1,45,0,0
155549,-100,4,2,1,80,0,1
184862,-111.111111111111,4,2,1,80,0,0
196771,-111.111111111111,4,2,1,20,0,0
197229,-111.111111111111,4,2,1,25,0,0
197687,-111.111111111111,4,2,1,30,0,0
198145,-111.111111111111,4,2,1,35,0,0
198603,-111.111111111111,4,2,1,40,0,0
199061,-111.111111111111,4,2,1,45,0,0
199519,-111.111111111111,4,2,1,70,0,0
210511,-111.111111111111,4,2,1,60,0,0
214175,-166.666666666667,4,2,1,50,0,0
216007,-100,4,2,1,80,0,1
245320,-100,4,2,1,80,0,0
274633,-100,4,2,1,50,0,0

[Colours]
Combo1 : 196,255,255
Combo2 : 0,64,128
Combo3 : 255,255,128
Combo4 : 255,128,192

[HitObjects]
60,200,16312,2,0,P|136:212|232:160,1,190,4|0,0:0|0:0,0:0:0:0:
284,44,17000,1,0,0:0:0:0:
368,140,17229,2,0,L|384:240,1,85.4999973907472,2|0,0:0|0:0,0:0:0:0:
256,356,17687,1,2,0:0:0:0:
292,216,17916,6,0,P|320:288|416:308,1,170.999994781494
456,168,18603,2,0,L|460:72,1,85.4999973907472,0|2,0:0|0:0,0:0:0:0:
284,44,19061,2,0,L|300:136,1,85.4999973907472,2|0,0:0|0:0,0:0:0:0:
152,192,19519,2,0,L|168:92,1,85.4999973907472,0|2,0:0|0:0,0:0:0:0:
240,248,19977,6,0,P|176:288|80:268,1,170.999994781494,2|0,0:0|0:0,0:0:0:0:
32,156,20664,1,0,0:0:0:0:
188,68,20893,1,2,0:0:0:0:
152,192,21122,1,0,0:0:0:0:
60,32,21351,1,2,0:0:0:0:
216,144,21580,6,0,P|260:144|356:56,1,170.999994781494
448,152,22267,2,0,L|436:252,1,85.4999973907472,0|2,0:0|0:0,0:0:0:0:
332,324,22725,1,0,0:0:0:0:
248,180,22954,1,2,0:0:0:0:
168,240,23183,2,0,P|124:236|72:208,1,85.4999973907472,0|2,0:0|0:0,0:0:0:0:
192,32,23641,6,0,P|240:84|248:180,1,170.999994781494,2|0,0:0|0:0,0:0:0:0:
152,344,24328,1,0,0:0:0:0:
268,280,24557,2,0,L|348:312,1,85.4999973907472,2|0,0:0|0:0,0:0:0:0:
168,240,25015,1,2,0:0:0:0:
340,200,25244,6,0,P|416:228|460:316,1,170.999994781494,0|0,0:0|0:0,0:0:0:0:
252,364,25931,2,0,L|268:280,1,85.4999973907472,0|2,0:0|0:0,0:0:0:0:
468,160,26389,2,0,L|416:232,1,85.4999973907472,2|0,0:0|0:0,0:0:0:0:
264,116,26847,2,0,P|304:92|352:88,1,85.4999973907472,2|0,0:0|0:0,0:0:0:0:
248,212,27305,6,0,P|192:184|172:76,1,170.999994781494,4|0,0:0|0:0,0:0:0:0:
336,188,27992,1,0,0:0:0:0:
244,304,28221,2,0,L|152:328,2,85.4999973907472,2|2|0,0:0|0:3|0:0,0:0:0:0:
412,240,28908,6,0,P|424:208|424:156,1,85.4999973907472,2|0,0:0|0:0,0:0:0:0:
328,44,29366,2,0,L|332:8,4,21.3749993476868,2|0|0|0|0,0:0|0:0|0:0|0:0|0:0,0:0:0:0:
240,180,29824,1,2,0:0:0:0:
100,104,30053,2,0,L|64:104,8,21.3749993476868,0|0|0|0|2|0|0|0|4,0:0|0:0|0:0|0:0|0:0|0:0|0:0|0:0|0:0,0:0:0:0:
320,136,30740,1,2,0:3:0:0:
196,332,30969,6,0,P|156:276|164:188,1,152,4|0,0:0|0:0,0:0:0:0:
244,88,31656,1,2,0:0:0:0:
320,224,31885,2,0,P|312:272|292:304,1,76
396,180,32343,2,0,P|444:204|464:236,1,76,0|2,0:0|0:0,0:0:0:0:
320,136,32801,6,0,P|344:80|432:40,1,152
392,260,33488,2,0,P|328:280|240:252,1,152,2|0,0:0|0:0,0:0:0:0:
168,92,34175,1,2,0:0:0:0:
136,252,34404,1,0,0:0:0:0:
244,112,34633,6,0,L|392:76,1,152,2|0,0:0|0:0,0:0:0:0:
434,209,35320,2,0,L|518:217,2,76,2|0|0,0:0|0:0|0:0,0:0:0:0:
320,288,36007,1,0,0:0:0:0:
228,184,36236,6,0,P|216:124|244:32,1,152,2|0,0:0|0:0,0:0:0:0:
56,212,37152,2,0,P|68:272|40:364,1,152,2|0,0:0|0:0,0:0:0:0:
180,268,37839,2,0,L|272:256,1,76
448,344,38297,6,0,L|364:328,1,76,2|0,0:0|0:0,0:0:0:0:
324,192,38755,1,2,0:0:0:0:
440,112,38984,2,0,P|468:172|448:260,1,152
324,192,39671,1,2,0:0:0:0:
248,16,39900,6,0,P|220:76|240:164,2,152,0|2|0,0:0|0:0|0:0,0:0:0:0:
380,120,41045,2,0,P|408:156|416:200,1,76,0|2,0:0|0:0,0:0:0:0:
284,312,41503,1,0,0:0:0:0:
324,192,41732,1,0,0:0:0:0:
144,216,41961,6,0,P|180:232|228:232,1,76,2|0,0:0|0:0,0:0:0:0:
92,128,42419,1,2,0:0:0:0:
136,316,42648,2,0,P|216:328|284:312,1,152
404,192,43335,2,0,L|412:284,1,76
216,200,43793,5,2,0:0:0:0:
304,72,44022,1,0,0:0:0:0:
312,224,44251,1,8,0:0:0:0:
212,104,44480,1,2,0:0:0:0:
212,104,44595,1,0,0:0:0:0:
212,104,44709,2,0,L|128:96,1,76,0|2,0:0|0:3,0:0:0:0:
72,244,45167,2,0,L|44:256,7,19,2|0|0|0|0|0|0|0,0:0|0:0|0:0|0:0|0:0|0:0|0:0|0:0,0:0:0:0:
88,240,45625,6,0,L|266:264,1,170.999994781494,4|8,0:0|0:0,0:0:0:0:
420,280,46313,1,0,0:0:0:0:
276,331,46542,1,0,0:0:0:0:
234,184,46771,1,0,0:0:0:0:
136,273,47000,2,0,P|171:305|216:314,1,85.4999973907472,8|0,0:0|0:0,0:0:0:0:
334,164,47458,6,0,P|289:98|197:90,1,170.999994781494,2|8,0:0|0:0,0:0:0:0:
79,129,48145,2,0,P|39:147|-4:153,1,85.4999973907472
147,195,48603,1,0,0:0:0:0:
97,303,48832,1,8,0:0:0:0:
259,377,49061,1,0,0:0:0:0:
259,377,49175,1,0,0:0:0:0:
259,377,49290,6,0,P|348:370|408:316,1,170.999994781494,2|8,0:0|0:0,0:0:0:0:
375,61,49977,2,0,P|337:136|353:219,1,170.999994781494,2|0,0:0|0:0,0:0:0:0:
486,176,50664,2,0,P|479:132|452:87,1,85.4999973907472,8|0,0:0|0:0,0:0:0:0:
256,169,51122,6,0,P|263:213|290:258,1,85.4999973907472,2|0,0:0|0:0,0:0:0:0:
398,293,51580,2,0,P|441:280|483:278,1,85.4999973907472,8|2,0:0|0:0,0:0:0:0:
346,184,52038,1,0,0:0:0:0:
187,119,52267,1,2,0:0:0:0:
226,249,52496,1,8,0:0:0:0:
346,185,52725,1,2,0:0:0:0:
187,119,52954,6,0,P|113:171|92:254,1,170.999994781494,2|8,0:0|0:0,0:0:0:0:
159,357,53641,1,2,0:0:0:0:
323,257,53870,1,0,0:0:0:0:
187,231,54099,1,0,0:0:0:0:
308,359,54328,2,0,P|354:361|389:339,1,85.4999973907472,8|0,0:0|0:0,0:0:0:0:
458,201,54786,6,0,L|470:111,1,85.4999973907472,2|0,0:0|0:0,0:0:0:0:
234,123,55244,2,0,P|251:163|284:195,1,85.4999973907472,8|0,0:0|0:0,0:0:0:0:
348,40,55702,2,0,P|312:24|266:18,1,85.4999973907472,2|0,0:0|0:0,0:0:0:0:
340,269,56160,2,0,P|374:229|384:195,1,85.4999973907472,8|0,0:0|0:0,0:0:0:0:
138,138,56618,6,0,P|124:195|203:283,1,170.999994781494,2|8,0:0|0:0,0:0:0:0:
341,269,57305,1,0,0:0:0:0:
237,220,57534,1,0,0:0:0:0:
374,350,57763,1,8,0:0:0:0:
464,248,57992,2,0,L|512:178,1,85.4999973907472,2|8,0:0|0:0,0:0:0:0:
297,104,58450,5,0,0:0:0:0:
153,52,58679,2,0,L|140:31,4,21.3749993476868,0|0|0|0|4,0:0|0:0|0:0|0:0|0:0,0:0:0:0:
239,202,59137,1,0,0:0:0:0:
88,296,59366,2,0,L|52:320,1,42.7499986953736,2|0,0:0|0:0,0:0:0:0:
216,340,59595,2,0,L|240:376,1,42.7499986953736,2|0,0:0|0:0,0:0:0:0:
239,202,59824,2,0,P|202:185|151:178,1,85.4999973907472,8|0,0:0|0:0,0:0:0:0:
304,328,60282,6,0,P|341:345|380:350,1,76,4|0,0:0|0:0,0:0:0:0:
470,169,60740,1,8,0:0:0:0:
296,204,60969,2,0,P|225:217|150:193,1,152,2|0,0:0|0:0,0:0:0:0:
54,147,61656,2,0,L|43:69,1,76,8|0,0:0|0:0,0:0:0:0:
179,285,62114,6,0,P|171:324|150:360,1,76,2|0,0:0|0:0,0:0:0:0:
50,290,62572,1,8,0:0:0:0:
212,220,62801,2,0,L|374:195,1,152,2|0,0:0|0:0,0:0:0:0:
471,70,63488,2,0,L|480:48,6,19,8|0|0|0|8|0|0,0:0|0:0|0:0|0:0|0:0|0:0|0:0,0:0:0:0:
470,70,63946,6,0,P|407:109|332:110,1,152,4|8,0:0|0:0,0:0:0:0:
94,54,64633,1,0,0:0:0:0:
115,156,64862,2,0,P|146:185|178:198,1,76,2|0,0:0|0:0,0:0:0:0:
327,138,65320,2,0,P|286:150|259:171,1,76,10|0,0:0|0:0,0:0:0:0:
335,364,65778,6,0,P|354:293|322:215,1,152,2|8,0:0|0:0,0:0:0:0:
179,106,66465,2,0,P|160:177|192:255,1,152
427,319,67152,1,8,0:0:0:0:
427,319,67267,1,0,0:0:0:0:
256,215,67610,5,4,0:0:0:0:
108,186,67839,1,0,0:0:0:0:
212,295,68068,1,8,0:0:0:0:
190,145,68297,2,0,P|252:123|333:157,1,152,2|0,0:0|0:0,0:0:0:0:
380,239,68984,2,0,L|356:313,1,76,8|0,0:0|0:0,0:0:0:0:
128,208,69442,6,0,P|106:146|140:65,1,152,2|8,0:0|0:0,0:0:0:0:
256,26,70129,1,2,0:0:0:0:
413,180,70587,1,2,0:0:0:0:
454,276,70816,2,0,L|426:292,6,19,8|0|0|0|0|0|0,0:0|0:0|0:0|0:0|0:0|0:0|0:0,0:0:0:0:
437,285,71274,6,0,P|395:311|358:322,1,85.4999973907472,4|0,0:0|0:0,0:0:0:0:
156,184,71732,2,0,P|113:158|76:147,1,85.4999973907472,8|0,0:0|0:0,0:0:0:0:
80,244,72190,1,2,0:0:0:0:
255,285,72419,1,0,0:0:0:0:
416,164,72648,2,0,P|436:210|427:258,1,85.4999973907472,8|0,0:0|0:0,0:0:0:0:
238,361,73106,5,4,3:0:0:0:
214,354,73221,1,4,3:0:0:0:
192,343,73335,1,4,3:0:0:0:
173,328,73450,1,4,3:0:0:0:
157,310,73564,1,4,3:0:0:0:
144,289,73679,1,4,3:0:0:0:
136,266,73793,1,4,3:0:0:0:
133,241,73908,1,4,3:0:0:0:
133,217,74022,2,0,L|134:183,14,21.3749993476868,0|0|0|0|0|0|0|0|0|0|0|0|0|0|0,0:0|0:0|0:0|0:0|0:0|0:0|0:0|0:0|0:0|0:0|0:0|0:0|0:0|0:0|0:0,0:0:0:0:
164,192,74938,6,0,P|173:146|202:103,1,95,4|0,0:0|0:0,0:0:0:0:
360,240,75396,2,0,P|327:273|279:293,1,95,8|2,0:0|0:0,0:0:0:0:
344,76,75854,1,0,0:0:0:0:
264,192,76083,1,2,0:0:0:0:
456,212,76313,1,8,0:0:0:0:
452,360,76542,5,0,0:0:0:0:
452,360,76656,1,0,0:0:0:0:
452,360,76771,2,0,P|408:380|356:380,1,95,2|0,0:0|0:0,0:0:0:0:
224,248,77229,1,8,0:0:0:0:
136,356,77458,2,0,B|64:304|112:240|28:188,1,190,2|0,0:0|0:0,0:0:0:0:
16,356,78145,1,8,0:0:0:0:
80,112,78374,1,0,0:0:0:0:
172,236,78603,6,0,P|228:244|272:228,1,95,2|0,0:0|0:0,0:0:0:0:
424,180,79061,1,8,0:0:0:0:
420,328,79290,2,0,P|364:315|329:284,1,95,2|0,0:0|0:0,0:0:0:0:
216,140,79748,1,0,0:0:0:0:
216,140,79862,1,0,0:0:0:0:
216,140,79977,1,8,0:0:0:0:
328,52,80206,1,0,0:0:0:0:
144,92,80435,6,0,P|101:68|71:22,1,95,2|0,0:0|0:0,0:0:0:0:
16,224,80893,2,0,P|16:276|-4:324,1,95,8|0,0:0|0:0,0:0:0:0:
200,248,81351,2,0,P|272:216|348:228,1,142.5,2|0,0:0|0:0,0:0:0:0:
368,240,81809,2,0,L|400:148,1,95,8|0,0:0|0:0,0:0:0:0:
452,316,82267,6,0,P|412:344|276:312,1,190,2|8,0:0|0:0,0:0:0:0:
210,151,82954,1,0,0:0:0:0:
160,326,83183,1,2,0:0:0:0:
309,201,83412,1,0,0:0:0:0:
126,226,83641,2,0,P|100:181|101:132,1,95,8|2,0:0|0:0,0:0:0:0:
244,264,84099,2,0,P|285:241|310:202,1,95,0|0,0:0|0:0,0:0:0:0:
364,80,84557,5,10,0:0:0:0:
384,272,84786,1,0,0:0:0:0:
212,176,85015,1,2,0:0:0:0:
456,120,85244,1,2,0:0:0:0:
316,324,85473,1,8,0:0:0:0:
256,88,85702,1,2,0:0:0:0:
160,272,85931,6,0,B|76:280|36:208|36:208|-4:232,1,190,4|8,0:0|0:0,0:0:0:0:
20,360,86618,1,2,0:0:0:0:
140,168,86847,1,0,0:0:0:0:
272,312,87076,2,0,P|316:332|368:336,1,95,0|0,3:0|0:0,0:0:0:0:
496,244,87534,1,0,3:0:0:0:
404,128,87763,6,0,P|392:84|396:36,1,95,2|0,0:0|0:0,0:0:0:0:
432,16,88106,2,0,L|460:24,2,23.75,0|0|2,0:0|0:0|0:0,0:0:0:0:
300,160,88450,1,0,0:0:0:0:
168,56,88679,6,0,L|144:108,1,47.5,0|0,3:0|0:0,0:0:0:0:
72,168,88908,2,0,L|56:116,1,47.5,8|0,0:0|0:0,0:0:0:0:
32,248,89137,2,0,P|76:276|132:280,1,95,2|8,3:2|0:0,0:0:0:0:
196,216,89480,5,0,0:0:0:0:
196,216,89595,2,0,P|252:200|296:208,1,95,4|0,0:0|0:0,0:0:0:0:
433,327,90053,2,0,P|377:306|347:274,1,95,8|2,0:0|0:0,0:0:0:0:
372,136,90511,1,0,0:0:0:0:
252,280,90740,1,2,0:0:0:0:
172,108,90969,1,8,0:0:0:0:
128,300,91198,5,0,0:0:0:0:
128,300,91313,1,0,0:0:0:0:
128,300,91427,2,0,P|112:251|76:208,1,95,2|0,0:0|0:0,0:0:0:0:
52,56,91885,1,8,0:0:0:0:
168,184,92114,2,0,P|255:167|311:83,1,190,2|0,0:0|0:0,0:0:0:0:
192,64,92801,1,8,0:0:0:0:
208,280,93030,1,0,0:0:0:0:
380,148,93259,6,0,P|356:195|324:227,1,95,2|0,0:0|0:0,0:0:0:0:
132,312,93717,1,8,0:0:0:0:
132,312,93946,2,0,P|170:347|214:363,1,95,2|0,0:0|0:0,0:0:0:0:
376,276,94404,1,0,0:0:0:0:
388,244,94519,1,0,0:0:0:0:
388,212,94633,1,8,0:0:0:0:
252,84,94862,1,0,0:0:0:0:
100,160,95091,6,0,P|76:120|72:68,1,95,2|0,0:0|0:0,0:0:0:0:
186,237,95549,2,0,P|167:280|132:312,1,95,8|0,0:0|0:0,0:0:0:0:
268,128,96007,2,0,P|356:124|436:192,1,190,2|8,0:0|0:0,0:0:0:0:
284,300,96694,5,0,0:0:0:0:
284,300,96809,1,0,0:0:0:0:
284,300,96923,2,0,P|260:240|356:208,1,190,2|8,0:0|0:0,0:0:0:0:
340,360,97610,2,0,P|296:380|248:372,1,95
192,192,98068,5,2,0:0:0:0:
120,328,98297,1,8,0:0:0:0:
32,180,98526,2,0,P|14:224|15:271,1,95,2|0,0:0|0:0,0:0:0:0:
152,96,98984,1,0,0:0:0:0:
112,240,99213,1,8,0:0:0:0:
260,272,99442,6,0,P|306:260|346:227,1,95,2|0,0:0|0:0,0:0:0:0:
336,68,99900,2,0,L|308:172,1,95,2|8,0:0|0:0,0:0:0:0:
244,352,100358,1,0,0:0:0:0:
148,288,100587,6,0,L|140:236,3,47.5,0|0|0|0,3:0|0:0|0:0|0:0,0:0:0:0:
56,224,101045,2,0,P|62:199|72:179,3,47.5,0|0|0|0,3:0|0:0|0:0|0:0,0:0:0:0:
156,156,101503,2,0,P|181:162|199:173,3,47.5,0|0|0|0,3:0|0:0|0:0|0:0,0:0:0:0:
264,232,101961,2,0,P|278:212|288:184,3,47.5,0|0|0|0,3:0|0:0|0:0|0:0,0:0:0:0:
260,108,102419,5,0,3:0:0:0:
270,80,102534,1,0,0:0:0:0:
289,58,102648,1,0,0:0:0:0:
314,45,102763,1,0,0:0:0:0:
339,35,102877,1,0,3:0:0:0:
367,38,102992,1,0,0:0:0:0:
394,49,103106,1,0,0:0:0:0:
417,68,103221,1,0,0:0:0:0:
426,93,103335,6,0,L|432:139,1,47.5,0|0,3:0|0:0,0:0:0:0:
393,250,103564,2,0,L|366:206,1,47.5,0|0,3:0|0:0,0:0:0:0:
275,193,103793,2,0,L|253:237,1,47.5,0|0,3:0|0:0,0:0:0:0:
173,318,104022,6,0,P|138:275|85:265,1,95,0|4,3:0|0:0,0:0:0:0:
92,152,111122,5,2,0:0:0:0:
116,140,111236,1,0,0:0:0:0:
140,128,111351,1,0,0:0:0:0:
164,116,111465,1,0,0:0:0:0:
188,104,111580,2,0,P|260:104|340:156,1,152,4|8,0:0|0:0,0:0:0:0:
352,292,112267,1,0,0:0:0:0:
228,224,112496,2,0,L|136:240,1,76
348,184,112954,2,0,L|360:92,1,76,8|0,0:0|0:0,0:0:0:0:
256,312,113412,6,0,P|176:336|104:328,1,152,0|8,0:0|0:0,0:0:0:0:
28,152,114099,2,0,P|112:156|172:200,1,152
20,248,114786,1,8,0:0:0:0:
88,72,115015,1,0,0:0:0:0:
260,172,115244,6,0,P|340:152|388:96,1,152,0|8,0:0|0:0,0:0:0:0:
440,252,115931,2,0,P|472:176|464:104,1,152,0|0,0:0|0:0,0:0:0:0:
308,256,116618,2,0,P|268:268|216:260,1,76,8|0,0:0|0:0,0:0:0:0:
152,128,117076,5,0,0:0:0:0:
112,264,117305,1,0,0:0:0:0:
88,72,117534,1,8,0:0:0:0:
8,212,117763,1,0,0:0:0:0:
152,128,117992,2,0,L|236:120,1,76
348,240,118450,2,0,L|272:228,1,76,8|0,0:0|0:0,0:0:0:0:
408,344,118908,6,0,P|448:304|460:200,1,152,0|8,0:0|0:0,0:0:0:0:
380,112,119595,2,0,L|400:32,2,76
248,172,120282,2,0,L|232:88,1,76,8|0,0:0|0:0,0:0:0:0:
348,240,120740,6,0,P|388:216|412:180,1,76
260,256,121198,2,0,P|220:280|196:316,1,76,8|0,0:0|0:0,0:0:0:0:
328,160,121656,2,0,P|336:108|328:76,1,76
180,28,122114,1,8,0:0:0:0:
104,184,122343,1,0,0:0:0:0:
256,120,122572,6,0,L|408:132,1,152,0|8,0:0|0:0,0:0:0:0:
492,288,123259,2,0,P|456:308|420:312,1,76
260,256,123717,1,8,0:0:0:0:
408,132,123946,1,0,0:0:0:0:
340,284,124175,1,8,0:0:0:0:
340,284,124290,1,0,0:0:0:0:
340,284,124404,6,0,L|324:192,1,76,2|0,0:0|0:0,0:0:0:0:
176,84,124862,2,0,L|160:164,1,76,8|0,0:0|0:0,0:0:0:0:
332,132,125320,1,10,0:0:0:0:
164,236,125549,1,8,0:0:0:0:
272,52,125778,2,0,L|296:32,7,19,10|0|0|0|8|0|0|0,0:0|0:0|0:0|0:0|0:0|0:0|0:0|0:0,0:0:0:0:
264,64,126236,6,0,L|236:224,1,152,4|8,0:0|0:0,0:0:0:0:
220,364,126923,1,0,0:0:0:0:
356,300,127152,1,2,0:0:0:0:
237,213,127381,1,0,0:0:0:0:
340,384,127610,2,0,P|392:376|428:348,1,85.4999973907472,8|0,0:0|0:0,0:0:0:0:
452,192,128068,6,0,L|440:284,1,85.4999973907472,2|0,0:0|0:0,0:0:0:0:
396,112,128526,1,8,0:0:0:0:
288,216,128755,2,0,P|236:232|200:228,1,85.4999973907472,2|0,0:0|0:0,0:0:0:0:
300,80,129213,1,0,0:0:0:0:
372,264,129442,1,8,0:0:0:0:
240,148,129671,5,0,0:0:0:0:
240,148,129786,1,0,0:0:0:0:
240,148,129900,2,0,L|252:236,1,85.4999973907472,2|0,0:0|0:0,0:0:0:0:
264,340,130358,1,8,0:0:0:0:
128,184,130587,2,0,L|148:364,1,170.999994781494,2|0,0:0|0:0,0:0:0:0:
264,232,131274,2,0,L|253:148,1,85.4999973907472,8|0,0:0|0:0,0:0:0:0:
165,292,131732,5,2,0:0:0:0:
353,172,131961,1,0,0:0:0:0:
145,88,132190,1,8,0:0:0:0:
265,232,132419,2,0,B|305:280|366:277|366:277|374:304|399:331,1,170.999994781494,2|0,0:0|0:0,0:0:0:0:
497,312,133106,2,0,P|513:260|513:224,1,85.4999973907472,8|0,0:0|0:0,0:0:0:0:
444,56,133564,6,0,L|428:140,1,85.4999973907472,2|0,0:0|0:0,0:0:0:0:
264,232,134022,2,0,P|296:202|315:165,1,85.4999973907472,8|0,0:0|0:0,0:0:0:0:
304,364,134480,2,0,P|250:346|215:314,1,85.4999973907472
172,208,134938,1,8,0:0:0:0:
56,264,135167,6,0,B|16:188|80:168|32:92,1,170.999994781494,2|0,0:0|0:0,0:0:0:0:
152,16,135854,2,0,P|180:56|220:76,1,85.4999973907472,8|0,0:0|0:0,0:0:0:0:
328,108,136313,1,0,0:0:0:0:
192,240,136542,2,0,P|213:191|249:164,1,85.4999973907472,0|8,0:0|0:0,0:0:0:0:
368,188,137000,1,0,0:0:0:0:
320,336,137229,6,0,B|276:340|276:340|236:328,1,85.4999973907472,2|0,0:0|0:0,0:0:0:0:
80,180,137687,2,0,B|95:221|95:221|94:263,1,85.4999973907472,8|0,0:0|0:0,0:0:0:0:
0,104,138145,5,0,0:0:0:0:
164,144,138374,1,8,0:0:0:0:
8,236,138603,1,0,0:0:0:0:
96,72,138832,1,8,0:0:0:0:
260,152,139061,6,0,P|308:148|348:124,1,85.4999973907472,2|0,0:0|0:0,0:0:0:0:
364,100,139404,2,0,L|360:80,2,21.3749993476868,0|0|4,0:0|0:0|0:0,0:0:0:0:
388,260,139748,1,0,0:0:0:0:
240,330,139977,2,0,L|236:352,7,21.3749993476868,0|0|0|0|8|0|0|0,0:0|0:0|0:0|0:0|0:0|0:0|0:0|0:0,0:0:0:0:
200,356,140435,2,0,P|152:350|112:328,1,85.4999973907472,8|8,0:0|0:0,0:0:0:0:
32,140,140893,5,4,0:0:0:0:
32,140,141122,2,0,L|48:220,1,76,0|8,0:0|0:0,0:0:0:0:
176,156,141580,2,0,P|240:140|332:172,1,152,2|0,0:0|0:0,0:0:0:0:
368,264,142267,1,8,0:0:0:0:
292,104,142496,1,0,0:0:0:0:
204,232,142725,6,0,P|152:264|60:260,1,152,2|8,0:0|0:0,0:0:0:0:
96,99,143412,2,0,P|101:137|118:171,1,76,2|0,0:0|0:0,0:0:0:0:
212,108,143870,1,0,0:0:0:0:
152,12,144099,1,0,0:0:0:0:
96,100,144328,1,8,0:0:0:0:
292,56,144557,5,0,0:0:0:0:
292,56,144786,2,0,L|352:112,1,76,0|8,0:0|0:0,0:0:0:0:
276,300,145244,2,0,P|228:308|196:328,1,76,2|0,0:0|0:0,0:0:0:0:
164,232,145702,1,0,0:0:0:0:
352,352,145931,1,8,0:0:0:0:
304,160,146160,1,0,0:0:0:0:
204,321,146389,6,0,P|128:360|64:340,1,152,2|8,0:0|0:0,0:0:0:0:
108,152,147076,2,0,P|192:142|245:184,1,152,2|8,0:0|0:0,0:0:0:0:
332,308,147763,1,8,0:0:0:0:
332,308,147877,1,0,0:0:0:0:
332,308,147992,2,0,L|364:264,1,38,2|0,0:0|0:0,0:0:0:0:
400,212,148221,5,4,0:0:0:0:
244,180,148450,1,0,0:0:0:0:
348,56,148679,1,8,0:0:0:0:
180,84,148908,2,0,P|112:120|24:116,1,152,2|0,0:0|0:0,0:0:0:0:
12,228,149595,1,8,0:0:0:0:
160,252,149824,1,0,0:0:0:0:
60,344,150053,6,0,P|128:308|216:312,1,152,2|8,0:0|0:0,0:0:0:0:
328,352,150740,2,0,P|403:351|469:315,1,152,2|0,0:0|0:0,0:0:0:0:
512,208,151427,1,0,0:0:0:0:
512,208,151542,1,0,0:0:0:0:
512,208,151656,1,8,0:0:0:0:
376,244,151885,6,0,P|334:236|298:210,1,85.4999973907472,4|0,0:0|0:0,0:0:0:0:
160,76,152343,2,0,P|205:73|246:90,1,85.4999973907472,8|0,0:0|0:0,0:0:0:0:
232,272,152801,2,0,P|197:296|155:304,1,85.4999973907472,2|0,0:0|0:0,0:0:0:0:
376,152,153259,2,0,P|415:137|457:140,1,85.4999973907472,8|0,0:0|0:0,0:0:0:0:
504,287,153717,5,4,3:0:0:0:
487,308,153832,1,4,3:0:0:0:
464,324,153946,1,4,3:0:0:0:
438,331,154061,1,4,3:0:0:0:
411,330,154175,1,4,3:0:0:0:
385,319,154290,1,4,3:0:0:0:
365,301,154404,1,4,3:0:0:0:
351,278,154519,1,4,3:0:0:0:
349,252,154633,2,0,L|376:232,14,21.3749993476868
314,257,155549,6,0,P|269:262|217:257,1,95,4|0,0:0|0:0,0:0:0:0:
74,145,156007,2,0,P|119:140|171:145,1,95,8|2,0:0|0:0,0:0:0:0:
338,343,156465,1,0,0:0:0:0:
488,259,156694,1,2,0:0:0:0:
265,157,156923,1,8,0:0:0:0:
248,272,157152,1,0,0:0:0:0:
248,272,157267,1,0,0:0:0:0:
248,272,157381,6,0,P|295:263|344:234,1,95,2|0,0:0|0:0,0:0:0:0:
444,162,157839,1,8,0:0:0:0:
298,359,158068,2,0,P|218:356|145:266,1,190,2|0,0:0|0:0,0:0:0:0:
86,110,158755,1,8,0:0:0:0:
261,161,158984,1,0,0:0:0:0:
261,161,159099,1,0,0:0:0:0:
261,161,159213,6,0,L|355:139,1,95,2|0,0:0|0:0,0:0:0:0:
492,93,159671,1,8,0:0:0:0:
374,265,159900,2,0,P|354:311|352:360,1,95,2|0,0:0|0:0,0:0:0:0:
483,352,160358,1,0,0:0:0:0:
391,146,160587,1,8,0:0:0:0:
248,308,160816,1,0,0:0:0:0:
248,308,160931,1,0,0:0:0:0:
248,308,161045,6,0,P|208:300|165:267,1,95,2|0,0:0|0:0,0:0:0:0:
231,78,161503,2,0,P|261:104|282:155,1,95,10|0,0:0|0:0,0:0:0:0:
43,233,161961,2,0,P|68:140|95:100,1,142.5,2|0,0:0|0:0,0:0:0:0:
112,69,162419,2,0,L|18:26,1,95,10|0,0:0|0:0,0:0:0:0:
234,275,162877,6,0,P|329:289|410:242,1,190,4|8,0:0|0:0,0:0:0:0:
490,158,163564,1,0,0:0:0:0:
490,158,163679,1,0,0:0:0:0:
490,158,163793,2,0,L|512:254,1,95,2|0,0:0|0:0,0:0:0:0:
388,336,164251,1,8,0:0:0:0:
298,176,164480,1,0,0:0:0:0:
162,206,164709,6,0,L|62:240,1,95,2|0,0:0|0:0,0:0:0:0:
187,323,165167,1,10,0:0:0:0:
389,222,165396,1,0,0:0:0:0:
187,121,165625,1,2,0:0:0:0:
293,295,165854,1,0,0:0:0:0:
107,213,166083,1,10,0:0:0:0:
307,171,166313,1,0,0:0:0:0:
167,319,166542,6,0,B|227:353|279:306|279:306|289:337|331:352,1,190,4|8,0:0|0:0,0:0:0:0:
212,248,167229,2,0,L|121:213,1,95,2|0,0:0|0:0,0:0:0:0:
304,100,167687,1,8,0:0:0:0:
442,171,167916,1,0,0:0:0:0:
330,323,168145,6,0,P|310:275|314:229,1,95,2|0,0:0|0:0,0:0:0:0:
439,68,168603,2,0,L|463:48,4,23.75,2|0|0|0|10,0:0|0:0|0:0|0:0|0:0,0:0:0:0:
320,164,169061,1,0,0:0:0:0:
118,128,169290,6,0,P|84:114|59:98,1,47.5,2|0,0:0|0:0,0:0:0:0:
187,40,169519,2,0,P|216:17|242:3,1,47.5,2|0,0:0|0:0,0:0:0:0:
341,74,169748,1,8,0:0:0:0:
418,264,169977,1,0,0:0:0:0:
418,264,170091,1,0,0:0:0:0:
418,264,170206,6,0,P|379:301|334:304,1,95,4|0,0:0|0:0,0:0:0:0:
127,210,170664,1,8,0:0:0:0:
172,302,170893,2,0,P|211:339|256:342,1,95,2|0,0:0|0:0,0:0:0:0:
333,235,171351,1,2,0:0:0:0:
208,180,171580,1,8,0:0:0:0:
417,351,171809,1,0,0:0:0:0:
417,351,171923,1,0,0:0:0:0:
417,351,172038,6,0,P|436:304|430:254,1,95,2|0,0:0|0:0,0:0:0:0:
386,115,172496,1,8,0:0:0:0:
297,316,172725,2,0,P|197:347|109:303,1,190,2|0,0:0|0:0,0:0:0:0:
14,207,173412,1,8,0:0:0:0:
106,86,173641,1,2,0:0:0:0:
216,265,173870,6,0,P|266:241|285:205,1,95,2|0,0:0|0:0,0:0:0:0:
221,73,174328,1,8,0:0:0:0:
337,317,174557,2,0,P|382:227|374:139,1,190,4|0,0:0|0:0,0:0:0:0:
221,73,175244,1,8,0:0:0:0:
84,160,175473,1,0,0:0:0:0:
237,281,175702,6,0,P|286:281|331:260,1,95,2|0,0:0|0:0,0:0:0:0:
348,82,176160,2,0,P|305:106|277:147,1,95,10|0,0:0|0:0,0:0:0:0:
420,334,176618,2,0,P|444:291|448:242,1,95,2|0,0:0|0:0,0:0:0:0:
462,83,177076,1,10,0:0:0:0:
292,20,177305,1,0,0:0:0:0:
342,165,177534,6,0,P|363:212|364:263,1,95,4|0,0:0|0:0,0:0:0:0:
256,360,177992,1,8,0:0:0:0:
123,285,178221,2,0,P|102:238|101:187,1,95,2|0,0:0|0:0,0:0:0:0:
205,85,178679,1,2,0:0:0:0:
416,71,178908,1,8,0:0:0:0:
265,218,179137,6,0,P|236:274|325:335,1,190,2|0,0:0|0:0,0:0:0:0:
356,129,179824,1,8,0:0:0:0:
164,246,180053,2,0,P|163:299|179:336,1,95,2|0,0:0|0:0,0:0:0:0:
376,283,180511,1,0,0:0:0:0:
184,162,180740,1,8,0:0:0:0:
261,316,180969,1,2,0:0:0:0:
414,202,181198,6,0,L|441:160,3,47.5,0|0|0|0,3:0|0:0|0:0|0:0,0:0:0:0:
364,120,181656,2,0,L|337:78,3,47.5,0|0|0|0,3:0|0:0|0:0|0:0,0:0:0:0:
268,132,182114,2,0,P|248:139|219:142,3,47.5,0|0|0|0,3:0|0:0|0:0|0:0,0:0:0:0:
140,116,182572,2,0,P|120:108|91:105,3,47.5,0|0|0|0,3:0|0:0|0:0|0:0,0:0:0:0:
76,188,183030,5,0,3:0:0:0:
93,214,183145,1,0,0:0:0:0:
119,231,183259,1,0,0:0:0:0:
150,235,183374,1,0,0:0:0:0:
182,231,183488,1,0,3:0:0:0:
213,235,183603,1,0,0:0:0:0:
239,252,183717,1,0,0:0:0:0:
257,279,183832,1,0,0:0:0:0:
269,308,183946,6,0,P|285:331|310:350,1,47.5,0|0,3:0|0:0,0:0:0:0:
340,232,184175,2,0,P|324:209|299:190,1,47.5,0|0,3:0|0:0,0:0:0:0:
380,304,184404,2,0,P|410:310|436:319,1,47.5,0|0,3:0|0:0,0:0:0:0:
480,212,184633,6,0,P|457:222|423:226,2,47.5,0|0|4,0:0|0:0|0:0,0:0:0:0:
256,192,196771,12,0,199061,0:0:0:0:
368,92,199519,6,0,L|348:180,1,85.4999973907472,4|0,0:0|0:0,0:0:0:0:
304,368,199977,1,8,0:0:0:0:
190,284,200206,1,2,0:0:0:0:
160,276,200320,1,0,0:0:0:0:
128,275,200435,1,0,0:0:0:0:
97,283,200549,1,0,0:0:0:0:
69,299,200664,1,0,0:0:0:0:
140,376,200893,1,8,0:0:0:0:
228,180,201122,1,0,0:0:0:0:
356,284,201351,6,0,P|432:288|504:220,1,170.999994781494,2|8,0:0|0:0,0:0:0:0:
448,72,202038,2,0,P|372:68|300:136,1,170.999994781494,2|0,0:0|0:0,0:0:0:0:
248,272,202725,1,8,0:0:0:0:
152,192,202954,1,0,0:0:0:0:
212,376,203183,5,2,0:0:0:0:
212,376,203412,1,0,0:0:0:0:
256,160,203641,1,8,0:0:0:0:
108,272,203870,1,2,0:0:0:0:
79,256,203984,1,0,0:0:0:0:
51,241,204099,1,0,0:0:0:0:
23,225,204213,1,0,0:0:0:0:
0,210,204328,1,2,0:0:0:0:
0,344,204557,1,8,0:0:0:0:
140,160,204786,1,0,0:0:0:0:
248,296,205015,6,0,L|432:280,1,170.999994781494,2|8,0:0|0:0,0:0:0:0:
464,136,205702,2,0,L|280:120,1,170.999994781494,2|0,0:0|0:0,0:0:0:0:
172,48,206389,1,8,0:0:0:0:
128,220,206618,2,0,P|100:228|72:228,1,42.7499986953736
16,176,206847,6,0,P|4:216|8:264,1,85.4999973907472,4|0,0:0|0:0,0:0:0:0:
200,364,207305,2,0,P|228:333|247:289,1,85.4999973907472,8|2,0:0|0:0,0:0:0:0:
244,260,207648,1,0,0:0:0:0:
232,228,207763,1,0,0:0:0:0:
232,196,207877,1,0,0:0:0:0:
244,164,207992,1,0,0:0:0:0:
364,88,208221,1,8,0:0:0:0:
216,40,208450,1,0,0:0:0:0:
336,216,208679,6,0,P|380:232|432:224,1,85.4999973907472,2|0,0:0|0:0,0:0:0:0:
336,104,209137,1,8,0:0:0:0:
280,312,209366,2,0,P|228:240|252:152,1,170.999994781494,2|0,0:0|0:0,0:0:0:0:
384,48,210053,1,8,0:0:0:0:
400,68,210167,1,0,0:0:0:0:
408,92,210282,1,0,0:0:0:0:
336,216,210511,6,0,L|240:240,1,85.4999973907472,4|0,0:0|0:0,0:0:0:0:
32,280,210969,2,0,L|128:304,1,85.4999973907472,8|0,0:0|0:0,0:0:0:0:
280,344,211427,2,0,L|224:328,2,42.7499986953736,2|0|0,0:0|0:0|0:0,0:0:0:0:
420,248,211885,2,0,P|423:205|409:165,1,85.4999973907472,8|0,0:0|0:0,0:0:0:0:
272,24,212343,6,0,P|246:38|232:52,3,42.7499986953736,0|0|0|0,3:0|0:0|0:0|0:0,0:0:0:0:
161,26,212801,2,0,P|156:54|158:74,3,42.7499986953736,0|0|0|0,3:0|0:0|0:0|0:0,0:0:0:0:
86,105,213259,5,0,3:0:0:0:
106,130,213374,1,0,0:0:0:0:
134,148,213488,1,0,0:0:0:0:
164,152,213603,1,0,0:0:0:0:
192,148,213717,1,0,3:0:0:0:
220,148,213832,1,0,0:0:0:0:
248,160,213946,1,0,0:0:0:0:
272,180,214061,1,0,0:0:0:0:
288,208,214175,6,0,P|300:236|304:268,1,56.9999982604981,2|0,0:0|0:0,0:0:0:0:
272,368,214519,2,0,P|248:347|226:322,1,56.9999982604981,2|0,0:0|0:0,0:0:0:0:
200,236,214862,1,0,0:0:0:0:
120,324,215091,5,0,0:0:0:0:
120,324,215206,2,0,P|92:336|60:336,1,56.9999982604981,2|0,0:0|0:0,0:0:0:0:
76,256,215549,6,0,L|60:171,1,85.4999973907472
104,116,216007,6,0,L|124:212,1,95,6|0,0:0|0:0,0:0:0:0:
280,260,216465,1,8,0:0:0:0:
212,16,216694,2,0,L|216:160,1,142.5,2|0,0:0|0:0,0:0:0:0:
200,236,217152,2,0,P|168:275|104:292,1,95,2|8,0:0|0:0,0:0:0:0:
104,116,217610,1,0,0:0:0:0:
300,176,217839,6,0,P|372:180|416:160,1,95,2|0,0:0|0:0,0:0:0:0:
468,40,218297,1,8,0:0:0:0:
368,264,218526,2,0,P|448:244|484:148,1,190,2|0,0:0|0:0,0:0:0:0:
344,72,219213,1,8,0:0:0:0:
204,224,219442,1,0,0:0:0:0:
220,40,219671,6,0,L|236:144,1,95,2|0,0:0|0:0,0:0:0:0:
368,264,220129,1,8,0:0:0:0:
204,224,220358,2,0,P|128:228|64:328,1,190,2|0,0:0|0:0,0:0:0:0:
256,292,221045,2,0,P|284:256|288:192,1,95,8|0,0:0|0:0,0:0:0:0:
136,68,221503,6,0,L|236:92,1,95,2|0,0:0|0:0,0:0:0:0:
440,120,221961,2,0,L|336:140,1,95,8|2,0:0|0:0,0:0:0:0:
76,156,222419,2,0,L|176:180,1,95
296,340,222877,1,8,0:0:0:0:
108,260,223106,1,0,0:0:0:0:
108,260,223221,1,0,0:0:0:0:
108,260,223335,6,0,P|100:196|156:76,1,190,4|8,0:0|0:0,0:0:0:0:
304,140,224022,2,0,L|420:132,1,95,2|0,0:0|0:0,0:0:0:0:
288,248,224480,2,0,L|188:240,1,95,2|8,0:0|0:0,0:0:0:0:
360,308,224938,1,2,0:0:0:0:
244,76,225167,6,0,P|220:124|224:176,1,95,2|0,0:0|0:0,0:0:0:0:
276,336,225625,1,10,0:0:0:0:
424,152,225854,1,0,0:0:0:0:
240,252,226083,1,2,0:0:0:0:
428,244,226313,1,0,0:0:0:0:
304,140,226542,1,10,0:0:0:0:
360,308,226771,1,0,0:0:0:0:
240,252,227000,6,0,P|156:248|88:328,1,190,4|8,0:0|0:0,0:0:0:0:
40,184,227687,1,2,0:0:0:0:
40,184,227801,1,0,0:0:0:0:
40,184,227916,2,0,L|52:84,1,95,0|8,0:0|0:0,0:0:0:0:
228,104,228374,1,0,0:0:0:0:
128,240,228603,1,8,0:0:0:0:
144,40,228832,5,2,0:0:0:0:
336,112,229061,2,0,L|376:104,4,23.75,0|0|0|0|8,0:0|0:0|0:0|0:0|0:0,0:0:0:0:
136,140,229519,1,2,0:0:0:0:
272,280,229748,2,0,L|280:336,1,47.5,8|0,0:0|0:0,0:0:0:0:
204,248,229977,2,0,L|196:192,1,47.5,12|0,0:0|0:0,0:0:0:0:
300,212,230206,2,0,L|316:320,1,95,8|12,0:0|0:0,0:0:0:0:
384,336,230549,5,0,0:0:0:0:
384,336,230664,2,0,P|428:308|452:260,1,95,4|0,0:0|0:0,0:0:0:0:
392,120,231122,1,8,0:0:0:0:
220,208,231351,2,0,L|116:192,1,95,2|0,0:0|0:0,0:0:0:0:
252,336,231809,2,0,L|148:320,2,95,0|8|0,0:0|0:0|0:0,0:0:0:0:
388,176,232496,5,2,0:0:0:0:
368,336,232725,1,0,0:0:0:0:
264,140,232954,1,8,0:0:0:0:
432,264,233183,2,0,P|480:208|448:96,1,190,2|0,0:0|0:0,0:0:0:0:
264,140,233870,2,0,P|200:144|164:128,1,95,8|0,0:0|0:0,0:0:0:0:
336,48,234328,5,2,0:0:0:0:
304,232,234557,1,0,0:0:0:0:
224,56,234786,1,8,0:0:0:0:
124,220,235015,2,0,P|216:252|304:232,1,190,4|0,0:0|0:0,0:0:0:0:
428,112,235702,1,8,0:0:0:0:
392,272,235931,1,0,0:0:0:0:
392,272,236045,1,0,0:0:0:0:
392,272,236160,6,0,L|412:368,1,95,2|0,0:0|0:0,0:0:0:0:
268,148,236618,2,0,L|288:40,1,95,8|2,0:0|0:0,0:0:0:0:
184,248,237076,2,0,L|204:352,1,95
324,216,237534,1,8,0:0:0:0:
176,160,237763,1,0,0:0:0:0:
176,160,237877,1,0,0:0:0:0:
176,160,237992,6,0,P|116:156|12:236,1,190,4|8,0:0|0:0,0:0:0:0:
264,284,238679,2,0,P|324:216|328:120,1,190,2|0,0:0|0:0,0:0:0:0:
176,160,239366,1,8,0:0:0:0:
224,12,239595,1,2,0:0:0:0:
400,76,239824,6,0,P|416:172|392:268,1,190,2|8,0:0|0:0,0:0:0:0:
132,280,240511,2,0,P|116:236|120:184,1,95,2|0,0:0|0:0,0:0:0:0:
280,104,240969,1,0,0:0:0:0:
336,296,241198,1,8,0:0:0:0:
208,224,241427,1,0,0:0:0:0:
404,172,241656,6,0,L|436:120,3,47.5,4|0|0|0,0:0|0:0|0:0|0:0,0:0:0:0:
356,108,242114,2,0,L|344:56,3,47.5,8|0|2|0,0:0|0:0|0:0|0:0,0:0:0:0:
280,104,242572,2,0,L|232:68,3,47.5,2|0|0|0,0:0|0:0|0:0|0:0,0:0:0:0:
220,148,243030,2,0,L|160:156,3,47.5,8|0|2|0,0:0|0:0|0:0|0:0,0:0:0:0:
208,224,243488,5,2,0:0:0:0:
220,256,243603,1,0,0:0:0:0:
244,280,243717,1,0,0:0:0:0:
276,296,243832,1,0,0:0:0:0:
308,304,243946,1,8,0:0:0:0:
340,304,244061,1,0,0:0:0:0:
372,296,244175,1,2,0:0:0:0:
400,276,244290,1,0,0:0:0:0:
420,248,244404,6,0,L|440:192,1,47.5,8|0,0:0|0:0,0:0:0:0:
328,120,244633,2,0,L|320:184,1,47.5,8|0,0:0|0:0,0:0:0:0:
208,224,244862,2,0,L|200:160,1,47.5,8|0,0:0|0:0,0:0:0:0:
100,80,245091,1,8,0:0:0:0:
100,80,245206,1,0,0:0:0:0:
100,80,245320,6,0,L|64:176,1,95,4|0,0:0|0:0,0:0:0:0:
182,359,245778,2,0,P|230:355|278:335,1,95,8|0,0:0|0:0,0:0:0:0:
427,254,246236,1,2,0:0:0:0:
228,141,246465,1,0,0:0:0:0:
228,141,246580,1,0,0:0:0:0:
228,141,246694,2,0,P|217:187|226:234,1,95,8|0,0:0|0:0,0:0:0:0:
340,340,247152,6,0,P|351:294|342:247,1,95,2|0,0:0|0:0,0:0:0:0:
126,165,247610,2,0,L|28:150,1,95,8|0,0:0|0:0,0:0:0:0:
201,305,248068,1,2,0:0:0:0:
376,264,248297,1,0,0:0:0:0:
252,136,248526,1,8,0:0:0:0:
436,188,248755,1,0,0:0:0:0:
436,188,248870,1,0,0:0:0:0:
436,189,248984,6,0,P|484:208|511:242,1,95,2|0,0:0|0:0,0:0:0:0:
331,335,249442,2,0,P|298:294|292:251,1,95,8|2,0:0|0:0,0:0:0:0:
337,150,249900,1,2,0:0:0:0:
512,105,250129,1,0,0:0:0:0:
386,298,250358,1,8,0:0:0:0:
221,233,250587,1,0,0:0:0:0:
221,233,250702,1,0,0:0:0:0:
221,233,250816,6,0,P|168:222|121:224,1,95,2|0,0:0|0:0,0:0:0:0:
231,344,251274,2,0,P|284:355|331:353,1,95,8|2,0:0|0:0,0:0:0:0:
452,268,251732,2,0,P|472:227|472:176,1,95,2|0,0:0|0:0,0:0:0:0:
460,160,252076,1,0,0:0:0:0:
444,144,252190,1,8,0:0:0:0:
260,56,252419,2,0,L|207:41,1,47.5
136,4,252648,6,0,P|105:43|108:100,1,95,4|0,0:0|0:0,0:0:0:0:
312,208,253106,2,0,P|293:161|242:135,1,95,8|0,0:0|0:0,0:0:0:0:
88,228,253564,1,0,0:0:0:0:
156,344,253793,1,2,0:0:0:0:
292,304,254022,2,0,P|340:320|380:356,1,95,10|0,0:0|0:0,0:0:0:0:
480,224,254480,6,0,P|492:176|480:132,1,95
284,56,254938,1,10,0:0:0:0:
56,51,255167,1,0,0:0:0:0:
224,140,255396,1,2,0:0:0:0:
63,176,255625,1,0,0:0:0:0:
192,251,255854,1,10,0:0:0:0:
82,302,256083,1,0,0:0:0:0:
348,296,256313,6,0,P|384:260|400:216,1,95,4|0,0:0|0:0,0:0:0:0:
290,80,256771,2,0,P|276:129|284:175,1,95,8|0,0:0|0:0,0:0:0:0:
488,276,257229,1,0,0:0:0:0:
388,132,257458,1,8,0:0:0:0:
204,224,257687,2,0,P|244:252|300:264,1,95,0|8,0:0|0:0,0:0:0:0:
488,160,258145,5,2,0:0:0:0:
328,48,258374,2,0,L|312:24,4,23.75,2|0|0|0|10,0:0|0:0|0:0|0:0|0:0,0:0:0:0:
376,244,258832,1,0,0:0:0:0:
244,336,259061,2,0,L|192:348,1,47.5,8|0,0:0|0:0,0:0:0:0:
56,264,259290,2,0,L|108:276,1,47.5,8|0,0:0|0:0,0:0:0:0:
208,232,259519,2,0,P|236:188|232:144,1,95,10|8,0:0|0:0,0:0:0:0:
184,76,259862,1,8,0:0:0:0:
184,76,259977,6,0,L|80:96,1,95,4|0,0:0|0:0,0:0:0:0:
312,136,260435,2,0,L|405:118,1,95,8|0,0:0|0:0,0:0:0:0:
476,20,260893,1,2,0:0:0:0:
240,88,261122,1,0,0:0:0:0:
240,88,261236,1,0,0:0:0:0:
240,88,261351,2,0,P|228:132|240:180,1,95,8|0,0:0|0:0,0:0:0:0:
196,324,261809,6,0,P|144:312|80:304,1,95,2|0,0:0|0:0,0:0:0:0:
0,196,262267,2,0,P|52:184|116:176,1,95,8|0,0:0|0:0,0:0:0:0:
212,112,262725,1,2,0:0:0:0:
280,248,262954,1,0,0:0:0:0:
280,248,263068,1,0,0:0:0:0:
280,248,263183,1,8,0:0:0:0:
380,152,263412,2,0,L|396:108,1,47.5
420,24,263641,6,0,P|468:32|504:68,1,95,2|0,0:0|0:0,0:0:0:0:
480,288,264099,1,8,0:0:0:0:
264,220,264328,2,0,P|176:200|72:220,1,190,4|0,0:0|0:0,0:0:0:0:
180,332,265015,1,8,0:0:0:0:
328,368,265244,1,0,0:0:0:0:
440,268,265473,6,0,P|464:232|460:176,1,95,2|0,0:0|0:0,0:0:0:0:
332,36,265931,2,0,P|308:72|312:128,1,95,8|0,0:0|0:0,0:0:0:0:
440,268,266389,1,2,0:0:0:0:
328,368,266618,1,0,0:0:0:0:
328,368,266732,1,0,0:0:0:0:
328,368,266847,2,0,P|280:352|232:348,1,95,8|0,0:0|0:0,0:0:0:0:
100,280,267305,6,0,P|61:252|44:208,1,95,4|0,0:0|0:0,0:0:0:0:
268,72,267763,1,8,0:0:0:0:
88,52,267992,1,0,0:0:0:0:
184,200,268221,2,0,P|232:208|280:200,1,95,2|0,0:0|0:0,0:0:0:0:
452,108,268679,2,0,P|405:100|358:108,1,95,8|0,0:0|0:0,0:0:0:0:
60,276,269137,6,0,P|107:284|154:276,1,95,2|0,0:0|0:0,0:0:0:0:
312,136,269595,1,10,0:0:0:0:
164,136,269824,1,0,0:0:0:0:
292,312,270053,1,2,0:0:0:0:
460,232,270282,1,0,0:0:0:0:
460,232,270396,1,0,0:0:0:0:
460,232,270511,2,0,P|476:188|464:140,1,95,8|0,0:0|0:0,0:0:0:0:
356,88,270969,6,0,P|336:64|312:52,3,47.5,8|0|0|0,0:0|0:0|0:0|0:0,0:0:0:0:
288,132,271427,2,0,P|268:156|244:168,3,47.5,8|0|0|0,0:0|0:0|0:0|0:0,0:0:0:0:
188,112,271885,2,0,L|132:100,3,47.5,8|0|0|0,0:0|0:0|0:0|0:0,0:0:0:0:
120,184,272343,2,0,L|65:201,3,47.5,8|0|0|0,0:0|0:0|0:0|0:0,0:0:0:0:
112,280,272801,5,8,0:0:0:0:
137,310,272916,1,0,0:0:0:0:
175,325,273030,1,0,0:0:0:0:
215,321,273145,1,0,0:0:0:0:
248,298,273259,1,8,0:0:0:0:
266,262,273374,1,0,0:0:0:0:
265,222,273488,1,0,0:0:0:0:
244,188,273603,1,0,0:0:0:0:
213,162,273717,6,0,L|164:150,1,47.5,8|0,0:0|0:0,0:0:0:0:
31,78,273946,2,0,L|80:66,1,47.5,8|0,0:0|0:0,0:0:0:0:
167,10,274175,2,0,L|179:59,1,47.5,8|0,0:0|0:0,0:0:0:0:
67,218,274404,6,0,L|79:169,2,47.5,8|0|4,0:0|0:0|0:0,0:0:0:0:
