osu file format v14

[General]
AudioFilename: Ending.mp3
AudioLeadIn: 0
PreviewTime: 58351
Countdown: 0
SampleSet: Soft
StackLeniency: 0.7
Mode: 0
LetterboxInBreaks: 0
WidescreenStoryboard: 0

[Editor]
DistanceSpacing: 1.3
BeatDivisor: 8
GridSize: 4
TimelineZoom: 1.9

[Metadata]
Title:Vidro Moyou
TitleUnicode:ビードロ模様
Artist:yanaginagi
ArtistUnicode:やなぎなぎ
Creator:AsakuraNe
Version:Hard
Source:Ano Natsu de Matteru
Tags:あの夏で待ってる Waiting in the summer Ending Tv_Size Frim4503
BeatmapID:717597
BeatmapSetID:322786

[Difficulty]
HPDrainRate:6
CircleSize:4
OverallDifficulty:6
ApproachRate:8
SliderMultiplier:1.5
SliderTickRate:1

[Events]
//Background and Video events
0,0,"Moe.jpg",0,0
Video,-584,"Ending_desu.avi"
//Break Periods
//Storyboard Layer 0 (Background)
//Storyboard Layer 1 (Fail)
//Storyboard Layer 2 (Pass)
//Storyboard Layer 3 (Foreground)
//Storyboard Sound Samples

[TimingPoints]
642,458.015267175573,4,2,2,100,1,0
15298,-100,4,2,1,100,0,0
29496,-100,4,2,1,20,0,0
29954,-100,4,2,1,80,0,0
42779,-100,4,2,1,60,0,0
44611,-100,4,2,1,80,0,0
44840,-100,4,2,1,50,0,0
55603,-100,4,2,1,70,0,0
57435,-133.333333333333,4,2,1,100,0,0
58122,-100,4,2,1,20,0,0
59267,-100,4,2,1,100,0,1
73466,-100,4,2,1,100,0,0
73924,-100,4,2,1,100,0,1
84916,-100,4,2,1,30,0,0
88580,-100,4,2,1,20,0,0
89725,-100,4,2,1,5,0,0

[Colours]
Combo1 : 255,166,255
Combo2 : 255,128,128
Combo3 : 128,128,255
Combo4 : 16,209,166

[HitObjects]
0,158,642,6,0,P|63:136|128:169,1,150,6|8,0:0|0:0,0:0:0:0:
208,236,1329,1,0,0:0:0:0:
288,180,1558,2,0,P|308:149|309:112,2,75,0|0|8,0:0|0:0|0:0,0:0:0:0:
248,42,2245,2,0,P|316:20|383:53,1,150
452,120,2932,1,8,0:0:0:0:
384,192,3162,1,0,0:0:0:0:
286,180,3390,2,0,P|294:145|332:108,1,75
384,192,3848,2,0,P|375:228|351:256,1,75,8|0,0:0|0:0,0:0:0:0:
344,104,4306,6,0,P|416:101|470:151,1,150,6|8,0:0|0:0,0:0:0:0:
508,244,4993,1,0,0:0:0:0:
436,308,5222,2,0,P|401:322|356:313,2,75,0|0|8,0:0|0:0|0:0,0:0:0:0:
470,151,5909,2,0,B|422:127|374:147|374:147|330:95,1,150
284,28,6596,2,0,P|317:12|355:12,1,75,8|0,0:0|0:0,0:0:0:0:
440,60,7054,1,0,0:0:0:0:
396,204,7283,2,0,P|336:252|264:256,1,150
148,164,7970,6,0,P|74:169|17:216,1,150,6|8,0:0|0:0,0:0:0:0:
32,312,8657,1,0,0:0:0:0:
124,340,8886,2,0,P|128:300|112:260,2,75,0|0|8,0:0|0:0|0:0,0:0:0:0:
36,220,9573,2,0,B|24:156|60:116|60:116|48:68,1,150
120,8,10260,1,8,0:0:0:0:
156,100,10489,1,0,0:0:0:0:
240,148,10718,2,0,P|256:108|296:84,1,75
360,148,11176,2,0,P|393:121|440:120,1,75,8|0,0:0|0:0,0:0:0:0:
504,244,11634,6,0,P|430:255|352:224,1,150,6|8,0:0|0:0,0:0:0:0:
272,188,12321,1,0,0:0:0:0:
360,148,12550,2,0,P|336:108|300:88,1,75
248,20,13008,1,8,0:0:0:0:
176,152,13237,2,0,B|132:136|116:104|116:104|100:72|56:64,1,150
12,56,13809,1,0,0:0:0:0:
12,56,13924,1,8,0:0:0:0:
44,148,14153,1,0,0:0:0:0:
141,167,14382,2,0,L|175:152,3,37.5
156,196,14840,2,0,L|121:209,3,37.5,8|0|0|0,0:0|0:0|0:0|0:0,0:0:0:0:
80,228,15298,6,0,P|20:276|4:352,1,150,4|2,0:0|0:0,0:0:0:0:
96,368,15985,1,0,0:0:0:0:
188,332,16214,2,0,P|204:298|236:278,1,75
328,312,16672,2,0,P|311:345|279:365,1,75,2|0,0:0|0:0,0:0:0:0:
308,216,17130,2,0,P|383:227|424:292,1,150,0|2,0:0|0:0,0:0:0:0:
468,372,17817,2,0,L|476:204,1,150
512,132,18504,1,2,0:0:0:0:
432,76,18733,1,0,0:0:0:0:
352,132,18962,6,0,L|360:300,1,150,0|2,0:0|0:0,0:0:0:0:
304,364,19649,2,0,P|260:368|216:352,1,75
180,276,20107,1,0,0:0:0:0:
96,228,20336,2,8,P|84:296|144:368,1,150,2|0,0:0|0:0,0:0:0:0:
224,364,21023,1,0,0:0:0:0:
180,276,21252,1,2,0:0:0:0:
127,359,21481,1,0,0:0:0:0:
224,364,21710,2,0,L|227:289,1,75
308,232,22168,2,0,L|304:152,1,75,2|0,0:0|0:0,0:0:0:0:
212,120,22626,6,0,P|139:118|79:46,1,150,0|2,0:0|0:0,0:0:0:0:
4,12,23313,2,0,L|4:184,1,150
16,260,24000,1,2,0:0:0:0:
4,162,24229,1,0,0:0:0:0:
16,260,24458,2,0,P|56:288|96:288,1,75
176,264,24916,2,0,P|212:270|241:294,1,75,2|0,0:0|0:0,0:0:0:0:
336,312,25374,2,0,P|308:364|284:380,2,75,0|0|2,0:0|0:0|0:0,0:0:0:0:
308,220,26061,1,0,0:0:0:0:
272,128,26290,6,0,P|344:129|404:201,1,150,0|2,0:0|0:0,0:0:0:0:
480,236,26977,2,0,L|480:64,1,150
412,16,27664,1,2,0:0:0:0:
412,16,28122,2,0,L|324:28,1,75,8|0,0:0|0:0,0:0:0:0:
260,120,28580,2,0,L|172:132,1,75,8|0,0:0|0:0,0:0:0:0:
84,192,29038,1,8,0:0:0:0:
188,252,29267,1,8,0:0:0:0:
84,312,29496,2,8,L|52:320,6,18.75,8|8|8|8|8|8|8,0:3|0:3|0:3|0:3|0:3|0:3|0:3,0:3:0:0:
36,300,29954,6,0,P|8:204|12:148,1,150,6|8,0:0|0:0,0:0:0:0:
44,64,30642,1,0,0:0:0:0:
136,32,30871,2,0,P|172:24|208:32,1,75
304,56,31329,2,0,P|340:64|376:56,1,75,8|0,0:0|0:0,0:0:0:0:
340,204,31787,2,0,L|340:356,1,150,0|8,0:0|0:0,0:0:0:0:
244,372,32474,2,0,P|192:320|112:324,1,150
24,348,33161,1,8,0:0:0:0:
48,252,33390,1,0,0:0:0:0:
24,156,33619,6,0,P|97:156|148:104,1,150,0|8,0:0|0:0,0:0:0:0:
176,8,34306,2,0,L|268:8,1,75
344,32,34764,1,0,0:0:0:0:
436,0,34993,2,0,B|452:60|416:96|416:96|440:144,1,150,8|0,0:0|0:0,0:0:0:0:
488,220,35680,1,0,0:0:0:0:
392,224,35909,1,8,0:0:0:0:
436,137,36138,1,0,0:0:0:0:
488,220,36367,2,0,L|488:304,1,75
392,299,36825,2,0,L|392:215,1,75,8|0,0:0|0:0,0:0:0:0:
340,144,37283,6,0,B|284:132|248:108|248:108|248:168,1,150,6|8,0:0|0:0,0:0:0:0:
224,252,37970,2,0,P|196:296|88:316,1,150
12,304,38657,1,8,0:0:0:0:
105,321,38886,1,0,0:0:0:0:
12,304,39115,2,0,P|12:240|16:224,1,75
100,184,39573,2,0,P|105:146|102:109,1,75,8|0,0:0|0:0,0:0:0:0:
72,16,40031,2,0,P|32:40|8:80,2,75,0|0|8,0:0|0:0|0:0,0:0:0:0:
168,32,40718,1,0,0:0:0:0:
264,48,40947,6,0,P|296:112|252:188,1,150,6|8,0:0|0:0,0:0:0:0:
172,204,41634,2,0,P|141:269|173:334,1,150,0|8,0:0|0:0,0:0:0:0:
264,372,42321,2,0,L|356:356,1,75,0|8,0:0|0:0,0:0:0:0:
436,248,42779,1,8,0:0:0:0:
436,248,43237,1,8,0:0:0:0:
436,248,43695,1,8,0:0:0:0:
444,100,43924,1,8,0:0:0:0:
352,220,44153,1,8,0:0:0:0:
496,176,44382,1,8,0:0:0:0:
356,128,44611,5,12,0:0:0:0:
288,60,44840,1,8,0:0:0:0:
140,68,45069,2,0,P|156:156|116:232,1,150,8|0,0:0|0:0,0:0:0:0:
48,256,45756,1,0,0:0:0:0:
4,344,45985,1,8,0:0:0:0:
96,372,46214,1,8,0:0:0:0:
152,292,46443,2,0,L|320:292,1,150,0|8,0:0|0:0,0:0:0:0:
400,280,47130,2,0,B|436:216|436:216|408:184|424:132,1,150,0|8,0:0|0:0,0:0:0:0:
480,68,47817,2,0,P|444:48|384:60,1,75,0|8,0:0|0:0,0:0:0:0:
324,88,48275,5,12,0:0:0:0:
240,40,48504,1,8,0:0:0:0:
240,188,48733,2,0,L|240:356,1,150,8|0,0:0|0:0,0:0:0:0:
148,372,49420,2,0,L|148:284,1,75,0|8,0:0|0:0,0:0:0:0:
108,208,49878,1,8,0:0:0:0:
32,148,50107,2,0,P|60:108|164:72,1,150,8|8,0:0|0:0,0:0:0:0:
176,164,50794,2,0,P|247:143|295:87,1,150,8|8,0:0|0:0,0:0:0:0:
356,8,51481,1,8,0:0:0:0:
356,8,51596,2,0,B|383:33|390:58|390:58|420:68|453:112,1,112.5,8|12,0:0|0:0,0:0:0:0:
512,144,52168,5,8,0:0:0:0:
452,220,52397,1,8,0:0:0:0:
316,288,52626,2,0,P|332:212|392:160,1,150,0|8,0:0|0:0,0:0:0:0:
436,84,53313,2,0,P|380:68|352:76,1,75,8|0,0:0|0:0,0:0:0:0:
292,136,53771,2,0,L|112:168,1,150,8|8,0:0|0:0,0:0:0:0:
48,164,54458,2,0,P|72:228|164:256,2,150,8|8|8,0:0|0:0|0:0,0:0:0:0:
196,172,55603,6,0,P|224:192|240:236,1,75,4|0,0:0|0:0,0:0:0:0:
186,315,56061,2,0,P|156:292|142:258,1,75,8|0,0:0|0:0,0:0:0:0:
124,108,56519,2,0,P|137:73|167:51,1,75
224,132,56977,2,0,P|210:166|180:188,1,75,8|0,0:0|0:0,0:0:0:0:
200,44,57435,2,0,P|244:44|316:148,1,168.750006437302
388,188,58351,2,8,L|412:164,14,18.75,8|8|8|8|8|8|8|8|8|8|8|8|8|8|8,0:3|0:3|0:3|0:3|0:3|0:3|0:3|0:3|0:3|0:3|0:3|0:3|0:3|0:3|0:3,0:3:0:0:
388,188,59267,6,0,P|412:224|412:268,2,75,4|0|8,0:0|0:0|0:0,0:0:0:0:
356,336,59954,2,0,P|440:352|504:300,2,150
284,268,61100,1,0,0:0:0:0:
376,240,61329,1,0,0:0:0:0:
356,336,61558,1,8,0:0:0:0:
208,332,61787,2,0,P|184:256|236:184,1,150
308,164,62474,2,0,P|343:152|366:123,1,75,8|0,0:0|0:0,0:0:0:0:
256,24,62932,5,0,0:0:0:0:
160,20,63161,1,0,0:0:0:0:
96,96,63390,1,8,0:0:0:0:
152,176,63619,2,0,P|220:172|284:108,2,150
8,140,64764,1,0,0:0:0:0:
8,140,65222,2,0,B|-4:164|4:216|4:216|16:268|4:292,2,150,8|0|8,0:0|0:0|0:0,0:0:0:0:
64,60,66367,1,0,0:0:0:0:
156,88,66596,6,0,P|232:128|308:120,1,150,4|8,0:0|0:0,0:0:0:0:
364,56,67283,1,0,0:0:0:0:
396,148,67512,2,0,L|396:236,1,75
368,316,67970,1,8,0:0:0:0:
292,252,68199,2,0,P|227:214|153:215,1,150
76,272,68886,1,8,0:0:0:0:
104,364,69115,1,0,0:0:0:0:
200,364,69344,1,0,0:0:0:0:
232,272,69573,1,0,0:0:0:0:
153,215,69802,1,8,0:0:0:0:
76,272,70031,1,0,0:0:0:0:
8,340,70260,6,0,P|-16:256|36:188,1,150,0|8,0:0|0:0,0:0:0:0:
88,144,70947,2,0,P|152:104|224:64,1,150
300,16,71634,1,8,0:0:0:0:
300,112,71863,2,0,P|300:208|304:288,1,150
352,348,72550,2,0,P|392:320|432:320,1,75,8|0,0:0|0:0,0:0:0:0:
484,248,73008,1,8,0:0:0:0:
352,176,73237,1,8,0:0:0:0:
484,104,73466,1,8,0:0:0:0:
352,32,73695,1,8,0:0:0:0:
288,108,73924,6,0,P|248:136|208:136,2,75,4|0|8,0:0|0:0|0:0,0:0:0:0:
140,100,74611,2,0,P|136:176|212:232,2,150
188,16,75756,1,0,0:0:0:0:
240,100,75985,1,0,0:0:0:0:
140,100,76214,1,8,0:0:0:0:
12,20,76443,2,0,P|-12:88|8:172,1,150
40,252,77130,2,0,P|56:280|84:320,1,75,8|0,0:0|0:0,0:0:0:0:
220,368,77588,5,0,0:0:0:0:
316,368,77817,1,0,0:0:0:0:
380,296,78046,1,8,0:0:0:0:
324,216,78275,2,0,P|256:220|192:284,2,150
468,256,79420,1,0,0:0:0:0:
468,256,79878,2,0,B|480:232|472:180|472:180|460:128|472:104,2,150,8|0|8,0:0|0:0|0:0,0:0:0:0:
412,336,81023,1,0,0:0:0:0:
316,356,81252,6,0,P|248:300|168:308,1,150,0|8,0:0|0:0,0:0:0:0:
104,344,81939,1,0,0:0:0:0:
56,260,82168,2,0,L|44:160,1,75
88,96,82626,1,8,0:0:0:0:
172,44,82855,2,0,B|180:100|180:100|236:104|256:164,1,150
324,216,83542,1,8,0:0:0:0:
396,280,83771,2,0,P|416:204|380:136,2,150
248,272,84916,6,8,L|200:248,7,37.5,8|8|8|8|8|8|8|8,0:3|0:3|0:3|0:3|0:3|0:3|0:3|0:3,0:3:0:0:
176,224,85832,2,8,L|146:179,7,37.5,8|8|8|8|8|8|8|8,0:3|0:3|0:3|0:3|0:3|0:3|0:3|0:3,0:3:0:0:
148,144,86748,2,8,L|144:90,7,37.5,8|8|8|8|8|8|8|8,0:3|0:3|0:3|0:3|0:3|0:3|0:3|0:3,0:3:0:0:
145,106,87664,1,8,0:3:0:0:
296,88,87893,2,0,L|299:13,2,75,8|8|8,0:0|0:0|0:0,0:0:0:0:
256,192,88580,12,0,89725,0:0:0:0:
