osu file format v12

[General]
AudioFilename: Black Bullet Ending HD.mp3
AudioLeadIn: 2000
PreviewTime: 63156
Countdown: 0
SampleSet: Soft
StackLeniency: 0.7
Mode: 0
LetterboxInBreaks: 0
WidescreenStoryboard: 0

[Editor]
DistanceSpacing: 0.5
BeatDivisor: 4
GridSize: 32
TimelineZoom: 2.799999

[Metadata]
Title:Tokohana (TV Size)
TitleUnicode:トコハナ (TV Size)
Artist:yanaginagi
ArtistUnicode:やなぎなぎ
Creator:xChippy
Version:Insane
Source:ブラック・ブレット
Tags:Kisara Tendou Satomi Rentarou Aihara Enju Black Bullet captin1 ending Kinema citrus Unsfamiliar Oyatsu alacat climbb65588 KanaRin
BeatmapID:404910
BeatmapSetID:166583

[Difficulty]
HPDrainRate:7
CircleSize:4
OverallDifficulty:8
ApproachRate:9
SliderMultiplier:1.8
SliderTickRate:1

[Events]
//Background and Video events
0,0,"BlackBullet.jpg.jpg",0,0
Video,0,"ending.avi"
//Break Periods
//Storyboard Layer 0 (Background)
//Storyboard Layer 1 (Fail)
//Storyboard Layer 2 (Pass)
//Storyboard Layer 3 (Foreground)
//Storyboard Sound Samples
//Background Colour Transformations
3,100,163,162,255

[TimingPoints]
195,400,4,2,2,20,1,0
795,-133.333333333333,4,2,2,30,0,0
5995,-133.333333333333,4,2,2,25,0,0
6595,-133.333333333333,4,2,2,30,0,0
12795,-133.333333333333,4,2,1,5,0,0
17795,-100,4,2,1,5,0,0
18867,355.029585798817,4,2,1,70,1,0
28807,-100,4,2,1,70,0,0
30227,-100,4,2,1,50,0,0
38393,-100,4,2,1,45,0,0
38748,-100,4,2,1,60,0,0
52949,-166.666666666667,4,2,2,40,0,0
61470,-133.333333333333,4,2,1,40,0,0
63245,-200,4,2,1,30,0,0
64310,-83.3333333333333,4,2,1,90,0,1
75582,-83.3333333333333,4,2,1,90,0,0
75671,-83.3333333333333,4,2,1,90,0,1
81707,-83.3333333333333,4,2,1,70,0,1
85612,-83.3333333333333,4,2,1,30,0,0
87032,-83.3333333333333,4,2,1,20,0,0

[Colours]
Combo1 : 73,73,73
Combo2 : 17,31,153
Combo3 : 247,80,0

[HitObjects]
176,80,195,5,0,1:0:0:0:
144,160,395,1,0,1:0:0:0:
208,224,595,1,0,0:0:0:0:
288,128,795,2,0,P|342:97|430:110,1,135.000005149842,2|0,0:0|0:0,0:0:0:0:
364,186,1395,1,0,0:0:0:0:
208,224,1595,6,0,P|147:207|94:136,1,135.000005149842,2|0,0:0|0:0,0:0:0:0:
197,128,2195,1,0,0:0:0:0:
320,256,2395,2,0,P|325:322|293:380,1,135.000005149842,2|0,0:0|0:0,0:0:0:0:
230,299,2995,1,0,0:0:0:0:
436,240,3195,1,2,0:0:0:0:
352,96,3595,6,0,L|364:176,1,67.5000025749208,0|0,0:0|0:0,0:0:0:0:
360,256,3995,2,0,P|291:267|195:273,1,135.000005149842,2|0,0:0|0:0,0:0:0:0:
80,268,4595,2,0,L|72:212,1,33.7500012874604
104,216,4795,6,0,L|120:72,1,135.000005149842,2|0,0:0|0:0,0:0:0:0:
80,12,5395,1,0,0:0:0:0:
40,80,5595,2,0,L|32:156,1,67.5000025749208,2|0,0:0|0:0,0:0:0:0:
4,256,5995,5,0,1:0:0:0:
96,344,6195,1,0,1:0:0:0:
240,308,6395,1,0,1:0:0:0:
152,143,6595,6,0,L|134:213,1,67.5000025749208,0|0,1:0|0:0,0:0:0:0:
81,269,6995,1,0,0:0:0:0:
239,307,7195,2,0,P|305:317|363:285,1,135.000005149842,2|0,0:0|0:0,0:0:0:0:
285,216,7795,1,0,0:0:0:0:
411,347,7995,6,0,B|456:309|433:248|433:248|432:222|441:200,1,135.000005149842,2|0,0:0|0:0,0:0:0:0:
482,150,8595,1,0,0:0:0:0:
349,224,8795,2,0,P|288:233|204:232,1,135.000005149842,2|0,0:0|0:0,0:0:0:0:
148,180,9395,1,0,0:0:0:0:
80,312,9595,1,2,0:0:0:0:
80,312,9995,6,0,L|72:232,1,67.5000025749208
148,180,10395,2,0,L|136:44,1,135.000005149842,2|0,0:0|0:0,0:0:0:0:
56,24,10995,1,0,0:0:0:0:
228,128,11195,1,2,0:0:0:0:
256,192,11395,12,0,12795,0:0:0:0:
256,192,12995,12,0,17795,0:0:0:0:
248,192,18867,6,0,B|214:185|214:185|185:168|185:168|160:162,1,90,4|0,0:0|0:0,0:0:0:0:
252,292,19222,2,0,P|312:272|340:240,1,90,8|0,0:0|0:0,0:0:0:0:
372,172,19577,1,2,0:0:0:0:
372,344,19754,1,0,0:0:0:0:
188,246,19932,2,0,P|143:239|99:248,1,90,8|0,0:0|0:0,0:0:0:0:
202,354,20287,5,2,0:0:0:0:
316,252,20464,1,0,0:0:0:0:
182,156,20642,2,0,L|188:246,1,90,8|0,0:0|0:0,0:0:0:0:
284,152,20997,1,2,0:0:0:0:
304,52,21174,1,0,0:0:0:0:
99,135,21352,2,0,P|138:156|183:156,1,90,8|0,0:0|0:0,0:0:0:0:
365,72,21707,6,0,B|305:52|305:52|253:60,1,90,2|0,0:0|0:0,0:0:0:0:
268,238,22062,2,0,B|288:178|288:178|284:152,1,90,8|0,0:0|0:0,0:0:0:0:
176,220,22417,1,2,0:0:0:0:
156,64,22594,1,0,0:0:0:0:
76,256,22772,2,0,B|71:282|71:282|91:342,1,90,8|0,0:0|0:0,0:0:0:0:
347,208,23127,6,0,P|303:210|268:238,1,90
340,304,23482,1,8,0:0:0:0:
376,116,23659,1,0,0:0:0:0:
200,88,23837,1,2,0:0:0:0:
172,280,24014,1,0,0:0:0:0:
176,60,24192,1,8,0:0:0:0:
408,96,24369,5,8,0:0:0:0:
408,96,24458,1,8,0:0:0:0:
408,96,24547,2,0,P|460:112|516:152,1,90,4|0,0:0|0:0,0:0:0:0:
340,304,24902,2,0,L|348:200,1,90,8|0,0:0|0:0,0:0:0:0:
248,292,25257,2,0,P|211:346|166:355,1,90,2|0,0:0|0:0,0:0:0:0:
88,224,25612,1,8,0:0:0:0:
101,195,25701,1,0,0:0:0:0:
115,166,25790,1,0,0:0:0:0:
130,138,25878,1,0,0:0:0:0:
143,109,25967,6,0,L|257:69,1,90,2|0,0:0|0:0,0:0:0:0:
348,208,26322,2,0,P|288:208|248:176,1,90,8|0,0:0|0:0,0:0:0:0:
160,80,26677,6,0,L|274:40,1,90,2|0,0:0|0:0,0:0:0:0:
320,240,27032,2,0,P|262:224|232:183,1,90,8|0,0:0|0:0,0:0:0:0:
436,104,27387,6,0,B|458:142|458:142|460:201,1,90,2|0,0:0|0:0,0:0:0:0:
436,304,27742,1,8,0:0:0:0:
341,176,27920,1,0,0:0:0:0:
341,176,28009,1,0,0:0:0:0:
341,176,28097,2,0,L|242:168,1,90,2|0,0:0|0:0,0:0:0:0:
104,328,28452,2,0,B|152:306|152:306|183:261,1,90,12|0,0:0|0:0,0:0:0:0:
80,56,28807,6,0,L|88:164,1,90,12|0,0:0|0:0,0:0:0:0:
180,300,29162,1,2,0:0:0:0:
188,164,29340,1,2,0:0:0:0:
304,348,29517,1,2,0:0:0:0:
120,224,29695,1,8,0:0:0:0:
330,119,29872,1,8,0:0:0:0:
256,240,30050,1,8,0:0:0:0:
256,240,30139,1,8,0:0:0:0:
256,240,30227,6,0,B|197:255|122:226|122:226|88:164,1,180,4|2,0:0|0:0,0:0:0:0:
84,92,30760,1,0,0:0:0:0:
188,164,30938,2,0,P|238:166|277:158,1,90,2|0,0:0|0:0,0:0:0:0:
228,80,31293,1,2,0:0:0:0:
176,256,31470,1,0,0:0:0:0:
351,182,31648,6,0,P|349:126|319:90,1,90,2|0,0:0|0:0,0:0:0:0:
388,271,32003,2,0,P|431:241|449:191,1,90,2|0,0:0|0:0,0:0:0:0:
355,356,32358,2,0,P|394:361|458:341,1,90,2|0,0:0|0:0,0:0:0:0:
300,280,32713,1,2,0:0:0:0:
240,352,32890,1,0,0:0:0:0:
240,352,32979,1,0,0:0:0:0:
240,352,33068,6,0,B|196:298|217:246|217:246|210:204|181:173,1,180,0|2,0:0|0:0,0:0:0:0:
120,132,33600,1,0,0:0:0:0:
47,263,33778,2,0,L|159:239,1,90,2|0,0:0|0:0,0:0:0:0:
232,108,34133,1,2,0:0:0:0:
120,132,34310,1,0,0:0:0:0:
190,299,34488,6,0,B|232:272|270:288|270:288|322:251|307:186,1,180,2|2,0:0|0:0,0:0:0:0:
296,112,35020,1,0,0:0:0:0:
380,56,35198,2,0,L|480:64,1,90,2|0,0:0|0:0,0:0:0:0:
280,120,35553,5,0,0:0:0:0:
260,130,35642,1,0,0:0:0:0:
240,141,35730,1,0,0:0:0:0:
219,150,35819,1,0,0:0:0:0:
198,159,35908,6,0,L|96:168,1,90,4|0,0:0|0:0,0:0:0:0:
4,176,36263,1,2,0:0:0:0:
48,92,36440,1,0,0:0:0:0:
128,248,36618,2,0,L|239:239,1,90,2|0,0:0|0:0,0:0:0:0:
308,284,36973,1,2,0:0:0:0:
360,168,37151,1,0,0:0:0:0:
440,316,37328,6,0,B|396:282|396:282|370:221,1,90,2|0,0:0|0:0,0:0:0:0:
512,140,37683,2,0,B|500:188|500:188|471:216,1,90,2|0,0:0|0:0,0:0:0:0:
308,284,38038,2,0,L|216:280,1,90,2|0,0:0|0:0,0:0:0:0:
32,328,38393,2,0,P|24:280|24:224,1,90,6|0,0:0|0:0,0:0:0:0:
56,104,38748,5,4,0:0:0:0:
104,216,38926,1,0,0:0:0:0:
172,36,39103,2,0,P|228:28|272:48,1,90,8|0,0:0|0:0,0:0:0:0:
324,184,39458,1,2,0:0:0:0:
284,60,39636,1,2,0:0:0:0:
304,216,39813,2,0,P|260:240|208:240,1,90,8|0,0:0|0:0,0:0:0:0:
448,104,40168,6,0,B|472:154|440:200|440:200|469:214|492:254,1,135,6|0,0:0|0:0,0:0:0:0:
485,254,40523,1,8,0:0:0:0:
375,146,40701,1,0,0:0:0:0:
298,285,40878,5,2,0:0:0:0:
279,297,40967,1,0,0:0:0:0:
259,307,41056,1,8,0:0:0:0:
240,319,41145,1,8,0:0:0:0:
220,330,41233,1,2,0:0:0:0:
244,168,41411,1,8,0:0:0:0:
255,148,41500,1,8,0:0:0:0:
266,129,41588,1,6,0:0:0:0:
266,129,41943,5,8,0:0:0:0:
204,208,42121,1,0,0:0:0:0:
300,92,42298,1,2,0:0:0:0:
180,216,42476,1,2,0:0:0:0:
320,80,42653,1,8,0:0:0:0:
136,76,42831,1,0,0:0:0:0:
280,268,43009,6,0,P|336:272|372:264,1,90,2|2,0:0|0:0,0:0:0:0:
399,131,43364,2,0,P|358:147|325:178,1,90,8|0,0:0|0:0,0:0:0:0:
452,353,43719,2,0,B|461:309|461:309|452:249,1,90,2|2,0:0|0:0,0:0:0:0:
326,178,44074,1,8,0:0:0:0:
352,292,44251,1,0,0:0:0:0:
170,234,44429,5,2,0:0:0:0:
196,120,44606,1,0,0:0:0:0:
248,308,44784,2,0,P|201:337|140:332,1,90,8|0,0:0|0:0,0:0:0:0:
0,220,45139,2,0,P|47:249|108:244,1,90,2|2,0:0|0:0,0:0:0:0:
170,234,45494,1,8,0:0:0:0:
196,120,45671,1,0,0:0:0:0:
272,256,45849,6,0,L|288:348,1,90,2|2,0:0|0:0,0:0:0:0:
360,180,46204,2,0,L|384:60,1,90,8|0,0:0|0:0,0:0:0:0:
272,256,46559,2,0,P|216:272|156:268,1,90,2|2,0:0|0:0,0:0:0:0:
212,152,46914,1,8,0:0:0:0:
344,308,47091,1,0,0:0:0:0:
344,308,47180,1,0,0:0:0:0:
344,308,47269,6,0,P|400:324|460:320,1,90,4|0,0:0|0:0,0:0:0:0:
404,232,47624,1,8,0:0:0:0:
424,148,47801,1,0,0:0:0:0:
322,233,47979,1,2,0:0:0:0:
320,120,48156,1,2,0:0:0:0:
248,272,48334,1,8,0:0:0:0:
216,96,48511,1,0,0:0:0:0:
160,200,48689,6,0,B|92:216|92:216|35:202,1,90,2|2,0:0|0:0,0:0:0:0:
38,50,49044,2,0,P|50:110|38:150,1,90,8|0,0:0|0:0,0:0:0:0:
8,344,49399,2,0,P|-4:284|8:244,1,90,2|2,0:0|0:0,0:0:0:0:
136,80,49754,1,12,0:0:0:0:
212,304,50109,6,0,P|272:312|320:304,1,90,6|0,0:0|0:0,0:0:0:0:
472,236,50464,2,0,P|412:228|364:236,1,90,8|0,0:0|0:0,0:0:0:0:
232,272,50819,1,2,0:0:0:0:
364,204,50997,1,2,0:0:0:0:
212,304,51174,2,0,B|168:311|168:311|121:299,1,90,8|0,0:0|0:0,0:0:0:0:
64,164,51529,5,2,0:0:0:0:
124,300,51707,1,2,0:0:0:0:
188,76,51884,2,0,B|247:62|247:62|325:69|368:120,1,180,12|2,0:0|0:0,0:0:0:0:
400,240,52417,1,8,0:0:0:0:
325,313,52594,1,2,0:0:0:0:
224,288,52772,1,2,0:0:0:0:
256,68,52949,5,4,0:0:0:0:
216,200,53482,2,0,B|161:217|96:168,1,107.999996704102,0|0,0:0|0:0,0:0:0:0:
0,252,54014,6,0,B|55:235|120:284,2,107.999996704102,0|2|0,0:0|0:0|0:0,0:0:0:0:
24,372,55080,1,2,0:0:0:0:
148,188,55435,1,0,0:0:0:0:
216,248,55612,6,0,L|252:232,2,26.9999991760254,0|0|4,0:0|0:0|0:0,0:0:0:0:
60,128,56322,2,0,P|100:91|164:85,1,107.999996704102
257,115,56855,6,0,B|318:120|318:120|361:159|425:155|463:120,1,215.999993408203,0|2,0:0|0:0,0:0:0:0:
392,28,57920,1,2,0:0:0:0:
340,224,58275,1,2,0:0:0:0:
228,128,58630,6,0,B|190:129|190:129|155:136|155:136|108:132,1,107.999996704102,2|0,0:0|0:0,0:0:0:0:
58,171,59162,2,0,L|68:240,2,53.9999983520508,0|2|0,0:0|0:0|0:0,0:0:0:0:
51,48,59695,6,0,B|98:33|98:33|137:36|137:36|183:7|237:9|256:32,1,215.999993408203
396,184,60760,2,0,L|404:124,1,53.9999983520508,2|2,0:0|0:0,0:0:0:0:
256,32,61115,2,0,L|272:128,1,80.9999975280763
278,143,61470,6,0,B|304:138|304:138|318:153|304:199|304:199|349:199|349:230|349:230|349:260|304:260|304:260|319:306|304:321|304:321|273:321|243:275|243:275|212:321|182:321|182:321|167:306|182:260|182:260|136:260|136:230|136:230|136:199|182:199|182:199|171:157|192:153|192:153|208:169,1,675.000025749208,4|0,0:0|0:0,0:0:0:0:
248,82,63600,6,0,B|212:108|199:134|189:153|189:153|197:166|228:211,1,157.5
292,252,64310,6,0,B|276:277|228:308|174:277|174:277|128:207,1,215.999993408203,4|8,0:0|0:0,0:0:0:0:
141,89,64843,1,0,0:0:0:0:
128,207,65020,2,0,P|68:227|14:219,1,107.999996704102,2|0,0:0|0:0,0:0:0:0:
64,136,65375,1,8,0:0:0:0:
180,304,65553,6,0,B|196:340|232:365|232:365|288:336,1,107.999996704102,0|2,0:0|0:0,0:0:0:0:
368,256,65908,1,0,0:0:0:0:
248,184,66085,1,8,0:0:0:0:
368,120,66263,1,0,0:0:0:0:
376,297,66440,5,2,0:0:0:0:
400,80,66617,1,0,0:0:0:0:
208,160,66795,1,8,0:0:0:0:
166,291,66973,6,0,B|216:299|216:299|272:291,1,107.999996704102,0|2,0:0|0:0,0:0:0:0:
356,190,67328,1,0,0:0:0:0:
283,367,67506,2,0,B|360:346|346:270|346:270|412:272|423:213|457:227,1,215.999993408203,8|2,0:0|0:0,0:0:0:0:
504,168,68038,1,0,0:0:0:0:
417,344,68216,2,0,P|372:319|345:256,1,107.999996704102,8|0,0:0|0:0,0:0:0:0:
409,70,68571,6,0,P|431:132|425:182,1,107.999996704102,2|0,0:0|0:0,0:0:0:0:
231,184,68926,2,0,B|287:144|287:144|343:136,2,107.999996704102,8|0|2,0:0|0:0|0:0,0:0:0:0:
400,224,69458,1,0,0:0:0:0:
304,40,69636,1,8,0:0:0:0:
231,184,69813,5,0,0:0:0:0:
231,184,69902,1,0,0:0:0:0:
231,184,69991,2,0,L|234:296,1,107.999996704102,4|0,0:0|0:0,0:0:0:0:
144,144,70346,1,10,0:0:0:0:
80,352,70523,2,0,B|32:328|32:328|-8:272,1,107.999996704102,0|2,0:0|0:0,0:0:0:0:
131,210,70878,1,0,0:0:0:0:
226,332,71056,2,0,B|266:300|266:300|290:236,1,107.999996704102,8|0,0:0|0:0,0:0:0:0:
131,210,71411,6,0,B|99:170|99:170|83:114,1,107.999996704102,2|0,0:0|0:0,0:0:0:0:
176,32,71766,1,8,0:0:0:0:
197,250,71943,2,0,P|157:283|80:269,1,107.999996704102,0|2,0:0|0:0,0:0:0:0:
131,210,72298,1,0,0:0:0:0:
304,344,72476,2,0,L|419:335,1,107.999996704102,12|0,0:0|0:0,0:0:0:0:
190,131,72831,5,12,0:0:0:0:
288,208,73009,1,2,0:0:0:0:
55,268,73186,1,2,0:0:0:0:
176,384,73364,5,12,0:0:0:0:
288,208,73541,1,2,0:0:0:0:
103,71,73719,2,0,L|127:193,1,107.999996704102,2|8,0:0|0:0,0:0:0:0:
255,316,74074,6,0,B|222:319|194:305|194:305|161:307|161:307|138:290|138:290|106:295|106:295|69:291|54:267,1,215.999993408203,4|8,0:0|3:0,0:0:0:0:
0,160,74606,1,8,0:0:0:0:
88,44,74784,1,8,0:0:0:0:
232,96,74961,1,4,0:0:0:0:
217,240,75139,2,0,L|209:300,2,53.9999983520508,2|8|2,0:0|3:0|0:0,0:0:0:0:
300,54,75494,2,0,L|313:136,1,53.9999983520508,0|0,0:0|0:0,0:0:0:0:
332,180,75671,6,0,B|364:164|376:138|376:138|426:184,1,107.999996704102,4|0,0:0|0:0,0:0:0:0:
476,347,76026,2,0,P|443:289|425:216,1,107.999996704102,12|0,0:0|0:0,0:0:0:0:
332,180,76381,2,0,P|286:172|221:183,1,107.999996704102,2|0,0:0|0:0,0:0:0:0:
92,206,76736,6,0,P|192:184|245:86,1,215.999993408203,8|2,0:0|0:0,0:0:0:0:
123,83,77269,1,0,0:0:0:0:
0,160,77446,2,0,P|2:215|12:276,1,107.999996704102,8|0,0:0|0:0,0:0:0:0:
167,362,77801,2,0,P|174:311|173:255,1,107.999996704102,2|0,0:0|0:0,0:0:0:0:
92,206,78156,1,8,0:0:0:0:
199,123,78334,6,0,B|240:117|267:97|267:97|304:119|298:160,1,107.999996704102,0|2,0:0|0:0,0:0:0:0:
336,212,78689,1,0,0:0:0:0:
276,311,78867,1,8,0:0:0:0:
199,123,79044,1,0,0:0:0:0:
276,312,79222,5,2,0:0:0:0:
336,212,79399,1,0,0:0:0:0:
392,116,79577,1,8,0:0:0:0:
460,256,79754,1,0,0:0:0:0:
216,336,79932,6,0,P|197:285|205:195,1,107.999996704102,2|0,0:0|0:0,0:0:0:0:
289,268,80287,1,8,0:0:0:0:
146,372,80464,2,0,P|114:260|138:147,1,215.999993408203
130,163,80908,1,8,0:0:0:0:
130,163,80997,1,2,0:0:0:0:
289,268,81174,5,8,0:0:0:0:
289,268,81263,1,8,0:0:0:0:
289,268,81352,2,0,L|417:252,1,107.999996704102,4|0,0:0|0:0,0:0:0:0:
311,116,81707,1,2,0:0:0:0:
305,154,81795,1,8,0:0:0:0:
300,192,81884,1,8,0:0:0:0:
296,230,81973,1,8,0:0:0:0:
289,268,82062,1,2,0:0:0:0:
281,305,82151,1,8,0:0:0:0:
273,341,82239,1,8,0:0:0:0:
263,377,82328,1,8,0:0:0:0:
247,342,82417,2,0,L|234:288,3,53.9999983520508,2|8|8|8,0:0|0:0|0:0|0:0,0:0:0:0:
187,274,82772,5,2,0:0:0:0:
160,247,82861,1,8,0:0:0:0:
149,210,82949,1,8,0:0:0:0:
140,172,83038,1,8,0:0:0:0:
149,135,83127,1,2,0:0:0:0:
175,108,83216,1,8,0:0:0:0:
210,97,83304,1,8,0:0:0:0:
244,113,83393,1,8,0:0:0:0:
256,148,83482,1,2,0:0:0:0:
275,115,83571,1,8,0:0:0:0:
302,97,83659,1,8,0:0:0:0:
337,108,83747,1,8,0:0:0:0:
363,135,83836,1,2,0:0:0:0:
372,172,83925,1,8,0:0:0:0:
363,210,84014,1,8,0:0:0:0:
352,247,84102,1,8,0:0:0:0:
325,274,84192,6,0,P|280:304|216:298,1,107.999996704102,4|8,0:0|0:0,0:0:0:0:
186,308,84458,1,8,0:0:0:0:
186,308,84547,2,0,L|96:328,1,53.9999983520508,2|0,0:0|0:0,0:0:0:0:
118,237,84724,2,0,L|51:251,1,53.9999983520508,8|0,0:0|0:0,0:0:0:0:
94,158,84902,2,0,L|166:138,1,53.9999983520508,2|0,0:0|0:0,0:0:0:0:
100,66,85080,2,0,L|164:44,1,53.9999983520508,2|0,0:0|0:0,0:0:0:0:
188,40,85257,1,0,0:0:0:0:
223,54,85346,1,0,0:0:0:0:
258,65,85435,1,0,0:0:0:0:
292,51,85523,1,0,0:0:0:0:
327,36,85612,5,4,0:0:0:0:
256,336,85967,1,0,0:0:0:0:
112,192,86322,1,0,0:0:0:0:
384,192,86677,6,0,B|464:128|400:48|336:94|336:94|272:48|216:128|284:192|284:192|326:222|324:252,1,431.999986816407
