osu file format v12

[General]
AudioFilename: Tokohana.mp3
AudioLeadIn: 0
PreviewTime: 63068
Countdown: 0
SampleSet: Soft
StackLeniency: 0.7
Mode: 3
LetterboxInBreaks: 0
SpecialStyle: 0
WidescreenStoryboard: 1

[Editor]
DistanceSpacing: 0.5
BeatDivisor: 4
GridSize: 4
TimelineZoom: 1

[Metadata]
Title:Tokohana (TV Size)
TitleUnicode:トコハナ (TV Size)
Artist:yanaginagi
ArtistUnicode:やなぎなぎ
Creator:asd123iii
Version:4K EZ
Source:ブラック・ブレット
Tags:Black Bullet ending rumia-
BeatmapID:408461
BeatmapSetID:168111

[Difficulty]
HPDrainRate:6
CircleSize:4
OverallDifficulty:7
ApproachRate:5
SliderMultiplier:1.4
SliderTickRate:1

[Events]
//Background and Video events
0,0,"BG.jpg",0,0
//Break Periods
//Storyboard Layer 0 (Background)
//Storyboard Layer 1 (Fail)
//Storyboard Layer 2 (Pass)
//Storyboard Layer 3 (Foreground)
//Storyboard Sound Samples
//Background Colour Transformations
3,100,163,162,255

[TimingPoints]
195,400,4,2,1,20,1,0
196,-89.2857142857143,4,2,1,20,0,0
12995,-89.2857142857143,4,2,1,20,0,0
14595,-89.2857142857143,4,2,1,20,0,0
16195,-89.2857142857143,4,2,1,20,0,0
17795,-89.2857142857143,4,2,1,20,0,0
18867,355.029585798817,4,2,1,30,1,0
52949,-100,4,2,1,20,0,0
64310,-100,4,2,1,30,0,1
85612,-100,4,2,1,20,0,0

[HitObjects]
192,192,395,5,0,0:0:0:0:
448,192,595,1,0,0:0:0:0:
320,192,795,1,0,0:0:0:0:
192,192,1195,1,0,0:0:0:0:
448,192,1395,1,0,0:0:0:0:
192,192,1595,1,0,0:0:0:0:
64,192,1995,1,0,0:0:0:0:
320,192,2195,1,0,0:0:0:0:
64,192,2395,1,0,0:0:0:0:
192,192,2795,1,0,0:0:0:0:
320,192,2995,1,0,0:0:0:0:
448,192,3195,1,0,0:0:0:0:
320,192,3595,1,0,0:0:0:0:
192,192,3795,1,0,0:0:0:0:
64,192,3995,1,0,0:0:0:0:
448,192,4395,1,0,0:0:0:0:
192,192,4595,1,0,0:0:0:0:
320,192,4795,1,0,0:0:0:0:
448,192,5195,1,0,0:0:0:0:
192,192,5395,1,0,0:0:0:0:
64,192,5595,128,0,6595:0:0:0:0:
448,192,6795,1,0,0:0:0:0:
192,192,6995,1,0,0:0:0:0:
320,192,7195,1,0,0:0:0:0:
64,192,7595,1,0,0:0:0:0:
320,192,7795,1,0,0:0:0:0:
192,192,7995,1,0,0:0:0:0:
64,192,8395,1,0,0:0:0:0:
320,192,8595,1,0,0:0:0:0:
64,192,8795,1,0,0:0:0:0:
192,192,9195,1,0,0:0:0:0:
320,192,9395,1,0,0:0:0:0:
448,192,9595,1,0,0:0:0:0:
320,192,9995,1,0,0:0:0:0:
192,192,10195,1,0,0:0:0:0:
64,192,10395,1,0,0:0:0:0:
320,192,10795,1,0,0:0:0:0:
192,192,10995,1,0,0:0:0:0:
448,192,11195,128,0,12595:0:0:0:0:
64,192,12995,128,0,17795:0:0:0:0:
192,192,14595,128,0,17795:0:0:0:0:
320,192,16195,128,0,17795:0:0:0:0:
192,192,18867,1,0,0:0:0:0:
448,192,19222,1,8,0:0:0:0:
64,192,19222,1,0,0:0:0:0:
320,192,19577,1,0,0:0:0:0:
64,192,19932,1,0,0:0:0:0:
320,192,19932,1,8,0:0:0:0:
192,192,20287,1,0,0:0:0:0:
448,192,20642,1,0,0:0:0:0:
320,192,20642,1,8,0:0:0:0:
64,192,20997,1,0,0:0:0:0:
192,192,21352,1,8,0:0:0:0:
448,192,21352,1,0,0:0:0:0:
320,192,21707,1,0,0:0:0:0:
64,192,22062,1,0,0:0:0:0:
320,192,22062,1,8,0:0:0:0:
448,192,22417,1,0,0:0:0:0:
448,192,22772,1,0,0:0:0:0:
192,192,22772,1,8,0:0:0:0:
320,192,23127,1,0,0:0:0:0:
192,192,23482,1,0,0:0:0:0:
64,192,23482,1,8,0:0:0:0:
64,192,23837,1,0,0:0:0:0:
448,192,24192,1,8,0:0:0:0:
320,192,24369,1,0,0:0:0:0:
192,192,24547,1,0,0:0:0:0:
192,192,24902,1,8,0:0:0:0:
448,192,24902,1,0,0:0:0:0:
320,192,25257,1,0,0:0:0:0:
192,192,25612,1,8,0:0:0:0:
320,192,25612,1,0,0:0:0:0:
448,192,25967,1,0,0:0:0:0:
64,192,26322,1,0,0:0:0:0:
320,192,26322,1,8,0:0:0:0:
192,192,26677,1,0,0:0:0:0:
448,192,27032,1,0,0:0:0:0:
64,192,27032,1,8,0:0:0:0:
320,192,27387,1,0,0:0:0:0:
64,192,27742,1,0,0:0:0:0:
192,192,27742,1,8,0:0:0:0:
320,192,28097,1,0,0:0:0:0:
192,192,28452,1,8,0:0:0:0:
448,192,28452,1,0,0:0:0:0:
64,192,28807,1,8,0:0:0:0:
448,192,28807,1,0,0:0:0:0:
192,192,28985,1,0,0:0:0:0:
320,192,29162,1,0,0:0:0:0:
448,192,29340,1,0,0:0:0:0:
64,192,29517,1,0,0:0:0:0:
192,192,29695,1,0,0:0:0:0:
320,192,29872,1,0,0:0:0:0:
192,192,30050,1,0,0:0:0:0:
64,192,30227,1,0,0:0:0:0:
448,192,30227,1,0,0:0:0:0:
448,192,30582,1,0,0:0:0:0:
448,192,30938,1,0,0:0:0:0:
448,192,31293,1,0,0:0:0:0:
64,192,31648,1,0,0:0:0:0:
64,192,32003,1,0,0:0:0:0:
64,192,32358,1,0,0:0:0:0:
64,192,32713,1,0,0:0:0:0:
192,192,33068,1,0,0:0:0:0:
192,192,33423,1,0,0:0:0:0:
192,192,33778,1,0,0:0:0:0:
192,192,34133,1,0,0:0:0:0:
448,192,34488,128,0,34843:0:0:0:0:
320,192,34843,128,0,35198:0:0:0:0:
192,192,35198,128,0,35553:0:0:0:0:
64,192,35553,128,0,35908:0:0:0:0:
320,192,35908,1,0,0:0:0:0:
320,192,36263,1,0,0:0:0:0:
320,192,36618,1,0,0:0:0:0:
320,192,36973,1,0,0:0:0:0:
64,192,37328,128,0,37683:0:0:0:0:
192,192,37683,128,0,38038:0:0:0:0:
320,192,38038,128,0,38393:0:0:0:0:
448,192,38393,128,0,38748:0:0:0:0:
64,192,38748,1,0,0:0:0:0:
448,192,39103,1,0,0:0:0:0:
192,192,39103,1,8,0:0:0:0:
320,192,39458,1,0,0:0:0:0:
192,192,39636,1,0,0:0:0:0:
64,192,39813,1,0,0:0:0:0:
320,192,39813,1,8,0:0:0:0:
192,192,40168,1,0,0:0:0:0:
448,192,40523,1,8,0:0:0:0:
64,192,40523,1,0,0:0:0:0:
320,192,40878,1,0,0:0:0:0:
192,192,41056,1,0,0:0:0:0:
320,192,41233,1,0,0:0:0:0:
192,192,41411,1,0,0:0:0:0:
320,192,41588,1,0,0:0:0:0:
64,192,41588,1,0,0:0:0:0:
192,192,41943,1,8,0:0:0:0:
448,192,42298,1,0,0:0:0:0:
320,192,42476,1,0,0:0:0:0:
192,192,42653,1,8,0:0:0:0:
64,192,43009,1,0,0:0:0:0:
320,192,43186,1,0,0:0:0:0:
448,192,43364,1,8,0:0:0:0:
64,192,43719,1,0,0:0:0:0:
192,192,43896,1,0,0:0:0:0:
320,192,44074,1,8,0:0:0:0:
192,192,44429,1,0,0:0:0:0:
448,192,44784,1,8,0:0:0:0:
64,192,45139,1,0,0:0:0:0:
320,192,45316,1,0,0:0:0:0:
448,192,45494,1,8,0:0:0:0:
192,192,45849,1,0,0:0:0:0:
320,192,46026,1,0,0:0:0:0:
64,192,46204,1,8,0:0:0:0:
448,192,46559,1,0,0:0:0:0:
320,192,46736,1,0,0:0:0:0:
64,192,46914,1,8,0:0:0:0:
192,192,47269,1,0,0:0:0:0:
448,192,47624,1,8,0:0:0:0:
64,192,47979,1,0,0:0:0:0:
320,192,48156,1,0,0:0:0:0:
192,192,48334,1,8,0:0:0:0:
320,192,48689,1,0,0:0:0:0:
192,192,48867,1,0,0:0:0:0:
64,192,49044,1,8,0:0:0:0:
192,192,49399,1,0,0:0:0:0:
448,192,49577,1,0,0:0:0:0:
320,192,49754,1,8,0:0:0:0:
192,192,49754,1,0,0:0:0:0:
64,192,50109,1,0,0:0:0:0:
448,192,50287,1,0,0:0:0:0:
64,192,50464,1,0,0:0:0:0:
448,192,50642,1,0,0:0:0:0:
192,192,50819,1,0,0:0:0:0:
320,192,50997,1,0,0:0:0:0:
192,192,51174,1,0,0:0:0:0:
320,192,51352,1,0,0:0:0:0:
448,192,51529,1,0,0:0:0:0:
320,192,51707,1,0,0:0:0:0:
192,192,51884,1,12,0:0:0:0:
64,192,52062,1,0,0:0:0:0:
192,192,52239,1,0,0:0:0:0:
320,192,52417,1,8,0:0:0:0:
448,192,52594,1,0,0:0:0:0:
320,192,52772,1,0,0:0:0:0:
192,192,52949,1,0,0:0:0:0:
64,192,53659,1,0,0:0:0:0:
64,192,54369,1,0,0:0:0:0:
192,192,55080,1,0,0:0:0:0:
448,192,55435,1,0,0:0:0:0:
320,192,55790,1,0,0:0:0:0:
320,192,56500,1,0,0:0:0:0:
320,192,57210,1,0,0:0:0:0:
192,192,57920,1,0,0:0:0:0:
64,192,58275,1,0,0:0:0:0:
448,192,58630,1,0,0:0:0:0:
448,192,59340,1,0,0:0:0:0:
448,192,60050,1,0,0:0:0:0:
64,192,60760,1,0,0:0:0:0:
192,192,61115,1,0,0:0:0:0:
448,192,61470,128,0,62713:0:0:0:0:
64,192,61470,1,0,0:0:0:0:
64,192,64310,1,0,0:0:0:0:
192,192,64665,1,8,0:0:0:0:
448,192,64665,1,0,0:0:0:0:
320,192,65020,1,0,0:0:0:0:
64,192,65198,1,0,0:0:0:0:
192,192,65375,1,8,0:0:0:0:
448,192,65375,1,0,0:0:0:0:
320,192,65730,1,0,0:0:0:0:
64,192,66085,1,0,0:0:0:0:
192,192,66085,1,8,0:0:0:0:
320,192,66440,1,0,0:0:0:0:
448,192,66618,1,0,0:0:0:0:
64,192,66795,1,0,0:0:0:0:
192,192,66795,1,8,0:0:0:0:
192,192,67151,1,0,0:0:0:0:
320,192,67506,1,8,0:0:0:0:
448,192,67506,1,0,0:0:0:0:
192,192,67861,1,0,0:0:0:0:
64,192,68038,1,0,0:0:0:0:
320,192,68216,1,8,0:0:0:0:
448,192,68216,1,0,0:0:0:0:
192,192,68571,1,0,0:0:0:0:
320,192,68926,1,8,0:0:0:0:
64,192,68926,1,0,0:0:0:0:
448,192,69281,1,0,0:0:0:0:
192,192,69458,1,0,0:0:0:0:
64,192,69636,1,0,0:0:0:0:
320,192,69636,1,8,0:0:0:0:
192,192,69991,1,0,0:0:0:0:
320,192,70346,1,0,0:0:0:0:
192,192,70346,1,8,0:0:0:0:
64,192,70701,1,0,0:0:0:0:
448,192,70878,1,0,0:0:0:0:
192,192,71056,1,8,0:0:0:0:
320,192,71056,1,0,0:0:0:0:
448,192,71411,1,0,0:0:0:0:
64,192,71766,1,8,0:0:0:0:
448,192,71766,1,0,0:0:0:0:
320,192,72121,1,0,0:0:0:0:
192,192,72298,1,0,0:0:0:0:
448,192,72476,1,8,0:0:0:0:
64,192,72476,1,0,0:0:0:0:
192,192,72831,1,0,0:0:0:0:
64,192,73009,1,0,0:0:0:0:
448,192,73186,1,0,0:0:0:0:
64,192,73364,1,0,0:0:0:0:
320,192,73541,1,0,0:0:0:0:
192,192,73719,1,0,0:0:0:0:
448,192,73896,1,0,0:0:0:0:
64,192,74074,128,0,74606:0:0:0:0:
192,192,74606,128,0,74961:0:0:0:0:
320,192,74961,128,0,75316:0:0:0:0:
448,192,75316,128,0,75671:0:0:0:0:
192,192,75671,1,0,0:0:0:0:
64,192,76026,1,0,0:0:0:0:
320,192,76026,1,8,0:0:0:0:
192,192,76381,1,0,0:0:0:0:
320,192,76559,1,0,0:0:0:0:
448,192,76736,1,0,0:0:0:0:
64,192,76736,1,8,0:0:0:0:
320,192,77091,1,0,0:0:0:0:
448,192,77446,1,8,0:0:0:0:
192,192,77446,1,0,0:0:0:0:
320,192,77801,1,0,0:0:0:0:
192,192,77979,1,0,0:0:0:0:
448,192,78156,1,8,0:0:0:0:
64,192,78334,128,0,78689:0:0:0:0:
320,192,78689,1,0,0:0:0:0:
448,192,78867,1,0,0:0:0:0:
320,192,79044,1,0,0:0:0:0:
192,192,79222,1,0,0:0:0:0:
320,192,79399,1,0,0:0:0:0:
192,192,79577,1,0,0:0:0:0:
64,192,79754,1,0,0:0:0:0:
448,192,79932,1,0,0:0:0:0:
320,192,80109,1,0,0:0:0:0:
192,192,80287,1,0,0:0:0:0:
64,192,80464,128,0,80819:0:0:0:0:
192,192,80819,128,0,81174:0:0:0:0:
448,192,81174,128,0,82772:0:0:0:0:
448,192,83659,1,0,0:0:0:0:
320,192,83837,1,0,0:0:0:0:
64,192,84014,1,0,0:0:0:0:
192,192,84192,128,0,84547:0:0:0:0:
320,192,84547,1,0,0:0:0:0:
448,192,84724,1,0,0:0:0:0:
64,192,85257,128,0,85612:0:0:0:0:
448,192,85612,128,0,85967:0:0:0:0:
320,192,85967,128,0,86322:0:0:0:0:
192,192,86322,128,0,86677:0:0:0:0:
448,192,86677,128,0,87387:0:0:0:0:
