osu file format v12

[General]
AudioFilename: Black Bullet Ending HD.mp3
AudioLeadIn: 0
PreviewTime: 63245
Countdown: 0
SampleSet: Normal
StackLeniency: 0.7
Mode: 0
LetterboxInBreaks: 0
WidescreenStoryboard: 0

[Editor]
DistanceSpacing: 0.5
BeatDivisor: 4
GridSize: 4
TimelineZoom: 1

[Metadata]
Title:Tokohana (TV Size)
TitleUnicode:トコハナ (TV Size)
Artist:yanaginagi
ArtistUnicode:やなぎなぎ
Creator:Kawaiwkyik
Version:Hard
Source:ブラック・ブレット
Tags:ending Black Bullet
BeatmapID:418577
BeatmapSetID:173214

[Difficulty]
HPDrainRate:6
CircleSize:4
OverallDifficulty:7
ApproachRate:8
SliderMultiplier:1.6
SliderTickRate:1

[Events]
//Background and Video events
0,0,"fripside - black bullet.jpg",0,0
//Break Periods
//Storyboard Layer 0 (Background)
//Storyboard Layer 1 (Fail)
//Storyboard Layer 2 (Pass)
//Storyboard Layer 3 (Foreground)
//Storyboard Sound Samples
//Background Colour Transformations
3,100,163,162,255

[TimingPoints]
18867,355.029585798817,4,1,1,80,1,0
28807,-100,4,1,1,60,0,0
29162,-100,4,1,1,65,0,0
29517,-100,4,1,1,70,0,0
29872,-100,4,1,1,75,0,0
30227,-133.333333333333,4,1,1,60,0,0
38748,-100,4,1,1,70,0,0
52949,-166.666666666667,4,1,1,70,0,0
53304,-166.666666666667,4,1,1,30,0,0
55435,-166.666666666667,4,2,1,30,0,0
62801,-166.666666666667,4,1,1,5,0,0
64310,-83.3333333333333,4,1,1,80,0,1
72831,-83.3333333333333,4,2,1,80,0,1
72920,-83.3333333333333,4,1,1,80,0,1
73364,-83.3333333333333,4,2,1,80,0,1
73452,-83.3333333333333,4,1,1,80,0,1
73896,-83.3333333333333,4,2,1,80,0,1
73985,-83.3333333333333,4,1,1,80,0,1
74429,-83.3333333333333,4,2,1,50,0,1
74606,-83.3333333333333,4,2,1,70,0,1
75316,-83.3333333333333,4,1,1,70,0,1
75582,-83.3333333333333,4,1,1,80,0,0
75671,-83.3333333333333,4,1,1,80,0,1
85612,-83.3333333333333,4,1,1,80,0,0
87387,-83.3333333333333,4,1,1,20,0,0

[Colours]
Combo1 : 255,255,255
Combo2 : 255,0,0
Combo3 : 255,128,0
Combo4 : 0,0,255
Combo5 : 255,255,0
Combo6 : 128,128,128

[HitObjects]
144,208,18867,6,0,P|184:200|212:96,2,160,4|8|0,0:0|0:0|0:0,0:0:0:0:
144,128,19754,1,0,0:0:0:0:
196,280,19932,2,0,P|160:292|104:288,1,80,8|0,0:0|0:0,0:0:0:0:
264,236,20287,6,0,P|292:261|316:311,1,80,0|0,0:0|0:0,0:0:0:0:
192,196,20642,2,0,P|199:158|231:112,1,80,8|0,0:0|0:0,0:0:0:0:
288,56,20997,1,0,0:0:0:0:
376,96,21174,1,0,0:0:0:0:
384,192,21352,2,0,P|376:229|344:275,1,80,8|0,0:0|0:0,0:0:0:0:
380,340,21707,6,0,P|340:304|240:312,2,160,0|8|0,0:0|0:0|0:0,0:0:0:0:
380,340,22594,1,0,0:0:0:0:
460,288,22772,2,0,P|464:228|464:192,1,80,8|0,0:0|0:0,0:0:0:0:
360,148,23127,6,0,P|356:208|356:244,1,80,0|0,0:0|0:0,0:0:0:0:
248,280,23482,2,0,P|252:220|252:184,1,80,8|0,0:0|0:0,0:0:0:0:
156,128,23837,2,0,P|96:124|60:124,1,80,0|0,0:0|0:0,0:0:0:0:
92,304,24192,2,0,P|152:308|188:308,1,80,8|8,0:0|0:0,0:0:0:0:
328,252,24547,38,0,P|372:280|368:380,1,160,4|8,0:0|0:0,0:0:0:0:
308,328,25080,1,0,0:0:0:0:
392,196,25257,2,0,P|360:176|308:168,1,80,0|0,0:0|0:0,0:0:0:0:
224,208,25612,1,8,0:0:0:0:
224,208,25701,1,0,0:0:0:0:
224,208,25790,1,0,0:0:0:0:
224,208,25878,1,0,0:0:0:0:
224,208,25967,6,0,P|200:236|192:288,1,80,0|0,0:0|0:0,0:0:0:0:
196,364,26322,1,8,0:0:0:0:
200,372,26500,1,0,0:0:0:0:
268,276,26677,1,0,0:0:0:0:
116,328,26855,1,0,0:0:0:0:
296,376,27032,2,0,P|344:372|384:368,1,80,8|0,0:0|0:0,0:0:0:0:
468,348,27387,6,0,P|448:304|336:280,1,160,0|8,0:0|0:0,0:0:0:0:
268,296,27920,1,0,0:0:0:0:
212,352,28097,2,0,P|134:343|91:279,1,160,0|12,0:0|0:0,0:0:0:0:
48,124,28807,5,4,0:0:0:0:
84,52,28985,1,0,0:0:0:0:
160,32,29162,1,0,0:0:0:0:
232,68,29340,1,0,0:0:0:0:
256,144,29517,2,0,P|256:184|240:240,1,80,0|0,0:0|0:0,0:0:0:0:
128,188,29872,2,0,P|128:148|144:92,1,80,0|0,0:0|0:0,0:0:0:0:
344,128,30227,38,0,P|344:200|332:264,1,120.000004577637,4|0,0:0|0:0,0:0:0:0:
276,308,30760,1,0,0:0:0:0:
248,228,30938,2,0,P|208:256|200:336,2,120.000004577637,0|0|0,0:0|0:0|0:0,0:0:0:0:
412,192,32003,5,0,0:0:0:0:
244,192,32358,1,0,0:0:0:0:
380,92,32713,1,0,0:0:0:0:
308,136,32890,1,0,0:0:0:0:
308,136,32979,1,0,0:0:0:0:
308,136,33068,1,4,0:0:0:0:
308,136,33423,6,0,P|276:116|240:108,1,60.0000022888184
144,176,33778,2,0,L|208:172,1,60.0000022888184,0|0,0:0|0:0,0:0:0:0:
128,96,34133,2,0,L|64:100,1,60.0000022888184,0|0,0:0|0:0,0:0:0:0:
120,256,34488,6,0,L|242:248,1,120.000004577637,0|0,0:0|0:0,0:0:0:0:
388,172,35198,2,0,L|265:164,1,120.000004577637,0|0,0:0|0:0,0:0:0:0:
184,148,35730,1,0,0:0:0:0:
240,88,35908,1,4,0:0:0:0:
240,88,36263,38,0,L|232:176,1,60.0000022888184,0|0,0:0|0:0,0:0:0:0:
152,152,36618,2,0,L|189:232,1,60.0000022888184,0|0,0:0|0:0,0:0:0:0:
108,252,36973,2,0,L|180:302,1,60.0000022888184,0|0,0:0|0:0,0:0:0:0:
124,364,37328,6,0,L|255:355,1,120.000004577637,0|0,0:0|0:0,0:0:0:0:
392,280,38038,2,0,L|396:364,2,60.0000022888184,0|0|4,0:0|0:0|0:0,0:0:0:0:
252,204,38748,6,0,P|232:160|300:68,1,160,4|8,0:0|0:0,0:0:0:0:
448,112,39281,1,0,0:0:0:0:
448,112,39369,1,0,0:0:0:0:
448,112,39458,2,0,P|419:151|306:138,1,160,0|8,0:0|0:0,0:0:0:0:
180,68,40168,6,0,P|160:108|156:144,1,80,4|0,0:0|0:0,0:0:0:0:
220,232,40523,2,0,P|183:246|143:248,1,80,8|0,0:0|0:0,0:0:0:0:
256,132,40878,2,0,P|287:156|308:190,1,80,0|0,0:0|0:0,0:0:0:0:
308,190,41145,1,0,0:0:0:0:
308,190,41233,1,8,0:0:0:0:
300,276,41411,2,0,L|288:348,2,40,0|8|4,0:0|0:0|0:0,0:0:0:0:
300,276,41943,38,0,L|384:272,1,80,8|0,0:0|0:0,0:0:0:0:
228,332,42298,2,0,L|148:335,1,80,0|0,0:0|0:0,0:0:0:0:
72,288,42653,2,0,P|60:236|72:184,1,80,8|0,0:0|0:0,0:0:0:0:
257,167,43009,6,0,P|224:236|148:240,2,160,0|8|0,0:0|0:0|0:0,0:0:0:0:
180,172,43896,1,0,0:0:0:0:
284,248,44074,1,8,0:0:0:0:
296,120,44251,1,0,0:0:0:0:
180,172,44429,6,0,P|108:176|76:264,2,160,4|8|0,0:0|0:0|0:0,0:0:0:0:
372,272,45494,2,0,L|360:352,1,80,8|0,0:0|0:0,0:0:0:0:
460,256,45849,6,0,P|440:212|312:208,1,160,0|8,0:0|0:0,0:0:0:0:
284,260,46381,1,0,0:0:0:0:
372,272,46559,2,0,L|444:124,1,160,0|8,0:0|0:0,0:0:0:0:
376,68,47091,1,0,0:0:0:0:
376,68,47180,1,0,0:0:0:0:
376,68,47269,38,0,P|316:80|208:40,1,160,4|8,0:0|0:0,0:0:0:0:
152,20,47801,1,0,0:0:0:0:
80,124,47979,2,0,P|119:118|153:99,1,80,0|0,0:0|0:0,0:0:0:0:
16,176,48334,2,0,P|0:212|0:252,1,80,8|0,0:0|0:0,0:0:0:0:
30,356,48689,6,0,P|89:305|100:228,1,160,0|8,0:0|0:0,0:0:0:0:
16,176,49222,1,0,0:0:0:0:
152,140,49399,2,0,L|144:248,1,80,0|0,0:0|0:0,0:0:0:0:
244,336,49754,2,0,L|232:208,1,120,12|0,0:0|0:0,0:0:0:0:
232,216,50109,6,0,P|280:220|320:216,1,80,4|0,0:0|0:0,0:0:0:0:
428,148,50464,1,8,0:0:0:0:
348,140,50642,1,0,0:0:0:0:
380,212,50819,5,0,0:0:0:0:
476,84,50997,1,0,0:0:0:0:
320,44,51174,1,8,0:0:0:0:
296,204,51352,1,0,0:0:0:0:
456,224,51529,38,0,P|456:268|440:328,1,80,0|0,0:0|0:0,0:0:0:0:
408,372,51884,2,0,P|360:328|264:344,1,160,12|0,0:0|0:0,0:0:0:0:
192,340,52417,2,0,L|186:170,1,160,8|0,0:0|0:0,0:0:0:0:
264,178,52949,54,0,P|308:168|336:32,2,191.999994140625,4|0|2,0:0|0:0|2:0,0:0:0:0:
64,92,55435,1,0,0:0:0:0:
28,180,55790,6,0,B|12:276|68:348|68:348|132:304|192:320,1,287.999991210938,4|0,0:0|0:0,0:0:0:0:
236,352,57032,2,0,L|304:348,1,47.9999985351563,0|2,3:0|2:0,0:0:0:0:
236,352,58275,1,0,0:0:0:0:
132,292,58630,70,0,P|120:244|112:132,2,143.999995605469,4|0|0,0:0|0:0|0:0,0:0:0:0:
188,352,59872,2,0,L|252:340,1,47.9999985351563,2|2,3:0|2:0,0:0:0:0:
188,352,61115,5,0,0:0:0:0:
188,352,61470,1,4,0:0:0:0:
256,192,61648,12,0,62801,0:0:0:0:
128,184,64310,6,0,P|176:192|264:88,1,191.999994140625,4|8,0:0|0:0,0:0:0:0:
204,20,64843,1,0,0:0:0:0:
360,120,65020,2,0,P|408:120|468:88,1,95.9999970703126,0|0,0:0|0:0,0:0:0:0:
388,32,65375,1,8,0:0:0:0:
496,176,65553,6,0,P|500:236|392:312,1,191.999994140625,0|0,0:0|0:0,0:0:0:0:
320,268,66085,2,0,L|224:276,1,95.9999970703126,8|0,0:0|0:0,0:0:0:0:
92,216,66440,2,0,L|188:196,1,95.9999970703126,0|0,0:0|0:0,0:0:0:0:
336,136,66795,2,0,L|240:116,1,95.9999970703126,8|0,0:0|0:0,0:0:0:0:
148,88,67151,5,4,0:0:0:0:
80,228,67328,2,0,P|68:276|76:328,2,95.9999970703126,0|8|0,0:0|0:0|0:0,0:0:0:0:
180,328,67861,2,0,P|228:340|280:332,1,95.9999970703126,0|0,0:0|0:0,0:0:0:0:
284,192,68216,2,0,P|236:180|184:188,1,95.9999970703126,8|0,0:0|0:0,0:0:0:0:
336,276,68571,6,0,P|376:232|344:112,2,191.999994140625,2|8|0,0:0|0:0|0:0,0:0:0:0:
232,284,69458,1,0,0:0:0:0:
284,192,69636,1,8,0:0:0:0:
284,192,69724,1,0,0:0:0:0:
284,192,69813,1,0,0:0:0:0:
284,192,69902,1,0,0:0:0:0:
284,192,69991,38,0,P|340:184|400:64,1,191.999994140625,6|8,0:0|0:0,0:0:0:0:
208,128,70523,2,0,P|186:180|260:292,1,191.999994140625,0|0,0:0|0:0,0:0:0:0:
296,80,71056,2,0,P|260:44|192:28,1,95.9999970703126,8|0,0:0|0:0,0:0:0:0:
88,68,71411,6,0,B|76:140|76:140|92:176|92:176|72:272,1,191.999994140625,2|8,0:0|0:0,0:0:0:0:
224,356,71943,2,0,B|207:278|207:278|223:242|223:242|211:170,1,191.999994140625,2|0,0:0|0:0,0:0:0:0:
240,80,72476,1,4,0:0:0:0:
336,64,72653,1,0,0:0:0:0:
396,140,72831,6,0,L|388:236,2,95.9999970703126,12|0|0,0:0|0:0|0:0,0:0:0:0:
300,152,73364,2,0,L|292:248,2,95.9999970703126,12|0|0,0:0|0:0|0:0,0:0:0:0:
204,160,73896,1,12,0:0:0:0:
192,256,74074,6,0,P|152:312|16:280,1,191.999994140625,0|8,0:0|0:0,0:0:0:0:
98,138,74606,2,0,P|108:184|100:232,1,95.9999970703126,8|8,0:0|0:0,0:0:0:0:
8,88,74961,2,0,P|43:56|88:39,1,95.9999970703126,8|0,0:0|0:0,0:0:0:0:
88,39,75227,1,0,0:0:0:0:
88,39,75316,1,8,0:0:0:0:
184,80,75494,1,8,0:0:0:0:
184,80,75582,1,0,0:0:0:0:
184,80,75671,38,0,P|240:92|340:8,1,191.999994140625,4|12,0:0|0:0,0:0:0:0:
392,204,76204,2,0,P|374:149|251:104,1,191.999994140625,0|0,0:0|0:0,0:0:0:0:
226,269,76736,2,0,P|267:244|292:204,1,95.9999970703126,8|0,0:0|0:0,0:0:0:0:
140,248,77091,6,0,P|140:295|163:337,1,95.9999970703126,2|0,0:0|0:0,0:0:0:0:
204,180,77446,2,0,P|162:157|114:156,1,95.9999970703126,8|0,0:0|0:0,0:0:0:0:
28,96,77801,2,0,P|84:104|184:24,1,191.999994140625,0|8,0:0|0:0,0:0:0:0:
280,64,78334,6,0,B|328:48|376:56|376:56|400:112|456:136,1,191.999994140625,0|0,0:0|0:0,0:0:0:0:
460,220,78867,2,0,P|408:216|356:184,1,95.9999970703126,8|0,0:0|0:0,0:0:0:0:
208,288,79222,2,0,P|260:284|312:252,1,95.9999970703126,0|0,0:0|0:0,0:0:0:0:
388,112,79577,2,0,P|336:116|284:148,1,95.9999970703126,8|2,0:0|0:0,0:0:0:0:
268,228,79932,1,0,0:0:0:0:
332,300,80109,1,0,0:0:0:0:
428,284,80287,1,8,0:0:0:0:
460,192,80464,6,0,P|428:152|464:24,2,191.999994140625,2|0|0,0:0|0:0|0:0,0:0:0:0:
460,192,81352,38,0,L|452:248,7,47.9999985351563,4|0|0|0|0|0|0|0,0:0|0:0|0:0|0:0|0:0|0:0|0:0|0:0,0:0:0:0:
364,232,82062,2,0,L|372:288,7,47.9999985351563,0|0|0|0|0|0|0|0,0:0|0:0|0:0|0:0|0:0|0:0|0:0|0:0,0:0:0:0:
288,168,82772,6,0,L|232:160,3,47.9999985351563,0|0|0|0,0:0|0:0|0:0|0:0,0:0:0:0:
360,124,83127,2,0,L|368:68,3,47.9999985351563,0|0|0|0,0:0|0:0|0:0|0:0,0:0:0:0:
408,196,83482,2,0,L|464:204,3,47.9999985351563,0|0|0|0,0:0|0:0|0:0|0:0,0:0:0:0:
332,244,83837,2,0,L|324:300,3,47.9999985351563
320,320,84192,5,4,0:0:0:0:
196,316,84369,1,0,0:0:0:0:
196,316,84458,1,0,0:0:0:0:
196,316,84547,2,0,L|184:200,1,95.9999970703126,0|0,0:0|0:0,0:0:0:0:
178,79,84902,2,0,L|285:126,1,95.9999970703126,0|0,0:0|0:0,0:0:0:0:
393,182,85257,2,0,L|298:251,1,95.9999970703126,0|0,0:0|0:0,0:0:0:0:
196,316,85612,1,4,0:0:0:0:
256,192,85701,12,0,87387,0:0:0:0:
