osu file format v12

[General]
AudioFilename: Black Bullet Ending HD.mp3
AudioLeadIn: 0
PreviewTime: 63245
Countdown: 0
SampleSet: Normal
StackLeniency: 0.7
Mode: 0
LetterboxInBreaks: 0
WidescreenStoryboard: 0

[Editor]
DistanceSpacing: 1
BeatDivisor: 4
GridSize: 4
TimelineZoom: 1

[Metadata]
Title:Tokohana (TV Size)
TitleUnicode:トコハナ (TV Size)
Artist:yanaginagi
ArtistUnicode:やなぎなぎ
Creator:Kawaiwkyik
Version:Easy
Source:ブラック・ブレット
Tags:ending Black Bullet
BeatmapID:418576
BeatmapSetID:173214

[Difficulty]
HPDrainRate:2
CircleSize:3
OverallDifficulty:2
ApproachRate:3
SliderMultiplier:1.1
SliderTickRate:1

[Events]
//Background and Video events
0,0,"fripside - black bullet.jpg",0,0
//Break Periods
//Storyboard Layer 0 (Background)
//Storyboard Layer 1 (Fail)
//Storyboard Layer 2 (Pass)
//Storyboard Layer 3 (Foreground)
//Storyboard Sound Samples
//Background Colour Transformations
3,100,163,162,255

[TimingPoints]
18867,355.029585798817,4,1,1,80,1,0
28807,-100,4,1,1,60,0,0
29162,-100,4,1,1,65,0,0
29517,-100,4,1,1,70,0,0
29872,-100,4,1,1,75,0,0
30227,-100,4,1,1,60,0,0
38748,-100,4,1,1,70,0,0
53304,-100,4,1,1,30,0,0
55435,-100,4,2,1,30,0,0
62801,-100,4,1,1,5,0,0
64310,-100,4,1,1,80,0,1
72831,-100,4,2,1,80,0,1
72920,-100,4,1,1,80,0,1
73364,-100,4,2,1,80,0,1
73452,-100,4,1,1,80,0,1
73896,-100,4,2,1,80,0,1
73985,-100,4,1,1,80,0,1
74429,-100,4,2,1,50,0,1
74606,-100,4,2,1,70,0,1
75582,-100,4,1,1,80,0,0
75671,-100,4,1,1,80,0,1
85612,-100,4,1,1,80,0,0
87387,-100,4,1,1,20,0,0

[Colours]
Combo1 : 255,255,255
Combo2 : 255,0,0
Combo3 : 255,128,0
Combo4 : 0,0,255
Combo5 : 255,255,0
Combo6 : 128,128,128

[HitObjects]
232,128,18867,6,0,P|172:156|60:160,2,165,0|0|8,0:0|0:0|0:0,0:0:0:0:
248,236,20287,2,0,P|308:208|420:204,2,165,0|0|8,0:0|0:0|0:0,0:0:0:0:
172,316,21707,6,0,P|116:320|88:112,1,330,0|8,0:0|0:0,0:0:0:0:
196,120,23127,2,0,B|252:152|332:148|416:128|416:128|360:80|300:72,1,330,0|8,0:0|0:0,0:0:0:0:
224,32,24547,6,0,P|152:40|104:120,2,165,4|0|8,0:0|0:0|0:0,0:0:0:0:
208,140,25967,2,0,P|250:198|344:199,2,165,0|0|8,0:0|0:0|0:0,0:0:0:0:
128,64,27387,2,0,P|76:88|100:320,1,330,0|12,0:0|0:0,0:0:0:0:
200,336,28807,2,0,P|252:312|228:80,1,330,4|0,0:0|0:0,0:0:0:0:
140,32,30227,5,4,0:0:0:0:
140,140,30582,2,0,L|144:272,2,110
234,83,31648,2,0,P|256:120|384:136,2,165
336,40,33068,1,4,0:0:0:0:
444,68,33423,38,0,P|476:144|464:192,2,110
336,40,34488,2,0,P|296:64|160:64,2,165
376,144,35908,6,0,P|376:198|404:245,2,110,4|0|0,0:0|0:0|0:0,0:0:0:0:
268,172,36973,1,0,0:0:0:0:
184,244,37328,2,0,P|156:168|244:64,1,220
340,92,38393,2,0,P|396:96|464:76,1,110,4|4,0:0|0:0,0:0:0:0:
508,176,39103,6,0,P|448:196|288:188,2,220,8|8|8,0:0|0:0|0:0,0:0:0:0:
448,84,40878,2,0,P|392:80|324:100,1,110,0|8,0:0|0:0,0:0:0:0:
232,116,41588,5,4,0:0:0:0:
220,224,41943,2,0,P|192:272|44:268,1,220,8|8,0:0|0:0,0:0:0:0:
116,184,43009,2,0,P|124:148|104:80,1,110,0|8,0:0|0:0,0:0:0:0:
12,140,43719,2,0,P|4:176|24:244,1,110,0|8,0:0|0:0,0:0:0:0:
124,292,44429,37,4,0:0:0:0:
216,232,44784,2,0,L|448:216,1,220,8|8,0:0|0:0,0:0:0:0:
256,88,46204,2,0,L|24:72,1,220,8|8,0:0|0:0,0:0:0:0:
68,180,47269,5,4,0:0:0:0:
176,176,47624,2,0,P|156:244|16:276,1,220,8|8,0:0|0:0,0:0:0:0:
84,372,48689,2,0,P|140:360|196:360,1,110,0|8,0:0|0:0,0:0:0:0:
300,372,49399,2,0,P|354:371|408:359,1,110,0|12,0:0|0:0,0:0:0:0:
476,272,50109,6,0,P|484:224|400:128,2,165,4|0|8,0:0|0:0|0:0,0:0:0:0:
400,348,51529,1,0,0:0:0:0:
320,272,51884,2,0,P|264:256|188:268,1,110,4|0,0:0|0:0,0:0:0:0:
156,260,52417,2,0,L|160:144,1,110,8|0,0:0|0:0,0:0:0:0:
164,96,52949,1,4,0:0:0:0:
256,192,53304,12,0,55080,2:0:0:0:
268,172,55790,22,0,P|216:208|116:188,2,165,4|0|0,0:0|0:0|0:0,0:0:0:0:
284,64,57210,1,2,2:0:0:0:
328,284,58275,5,0,0:0:0:0:
244,212,58630,2,0,P|296:176|396:196,2,165,4|0|0,0:0|0:0|0:0,0:0:0:0:
228,320,60050,1,2,2:0:0:0:
228,320,61115,69,0,0:0:0:0:
256,192,61470,12,0,62801,0:0:0:0:
96,136,64310,21,4,0:0:0:0:
60,240,64665,2,0,B|128:252|180:208|180:208|200:272|252:296,1,220,8|8,0:0|0:0,0:0:0:0:
340,288,65730,1,0,0:0:0:0:
388,188,66085,2,0,P|340:176|268:204,1,110,8|0,0:0|0:0,0:0:0:0:
340,288,66795,2,0,P|388:300|460:272,1,110,8|0,0:0|0:0,0:0:0:0:
500,188,67506,6,0,P|480:124|340:88,1,220,8|8,0:0|0:0,0:0:0:0:
264,160,68571,2,0,P|220:172|156:156,1,110,0|8,0:0|0:0,0:0:0:0:
216,64,69281,2,0,P|260:52|324:68,1,110,0|8,0:0|0:0,0:0:0:0:
360,168,69991,6,0,P|386:189|414:326,2,165,4|0|8,0:0|0:0|0:0,0:0:0:0:
252,184,71411,2,0,P|264:116|361:57,2,165,0|0|8,0:0|0:0|0:0,0:0:0:0:
240,292,72831,6,0,P|220:320|96:328,2,165,12|12|12,0:0|0:0|0:0,0:0:0:0:
252,120,74429,2,0,L|320:108,1,55,8|8,0:0|0:0,0:0:0:0:
392,176,74961,1,0,0:0:0:0:
340,272,75316,1,8,1:0:0:0:
443,271,75671,37,4,0:0:0:0:
392,176,76026,2,0,P|336:164|232:288,1,220,12|8,0:0|0:0,0:0:0:0:
140,328,77091,2,0,L|8:320,1,110,0|8,0:0|0:0,0:0:0:0:
44,212,77801,2,0,L|176:220,1,110,0|8,0:0|0:0,0:0:0:0:
264,224,78511,6,0,P|328:200|344:96,2,165,0|0|8,0:0|0:0|0:0,0:0:0:0:
156,208,79932,2,0,P|92:232|60:328,2,165,0|0|8,0:0|0:0|0:0,0:0:0:0:
248,268,81352,6,0,P|304:248|144:132,2,440,4|0|0,0:0|0:0|0:0,0:0:0:0:
176,352,84547,2,0,P|108:328|48:328,1,110
88,216,85257,1,0,0:0:0:0:
256,192,85612,12,0,87387,0:0:0:0:
