osu file format v13

[General]
AudioFilename: Tokohana.mp3
AudioLeadIn: 2000
PreviewTime: 63245
Countdown: 0
SampleSet: Soft
StackLeniency: 0.7
Mode: 0
LetterboxInBreaks: 0
WidescreenStoryboard: 0

[Editor]
Bookmarks: 625,7025,18982,24977,30801,36515,41693,45086,47906,55539,63349,69740,75598,81456
DistanceSpacing: 1
BeatDivisor: 1
GridSize: 4
TimelineZoom: 1

[Metadata]
Title:Tokohana
TitleUnicode:トコハナ
Artist:yanaginagi
ArtistUnicode:やなぎなぎ
Creator:Rtyzen
Version:Normal
Source:ブラック・ブレット
Tags:Black Bullet Kisara Tendou Satomi Rentarou Aihara Enju Kuro no Juudan ending Everflower TV Size
BeatmapID:431971
BeatmapSetID:177981

[Difficulty]
HPDrainRate:3
CircleSize:3
OverallDifficulty:3
ApproachRate:4
SliderMultiplier:1.12
SliderTickRate:1

[Events]
//Background and Video events
Video,0,"Tokohana.avi"
0,0,"BG.jpg",0,0
//Break Periods
2,53149,54115
//Storyboard Layer 0 (Background)
//Storyboard Layer 1 (Fail)
//Storyboard Layer 2 (Pass)
//Storyboard Layer 3 (Foreground)
//Storyboard Sound Samples
//Background Colour Transformations
3,100,163,162,255

[TimingPoints]
195,400,4,2,2,30,1,0
6595,-100,4,2,2,50,0,0
6795,-100,4,2,2,30,0,0
12595,-100,4,2,2,10,0,0
12995,-100,4,2,2,5,0,0
14595,-100,4,2,2,25,0,0
16195,-100,4,2,2,55,0,0
17795,-100,4,2,2,5,0,0
18867,355.029585798817,4,2,1,65,1,0
28807,-100,4,2,1,85,0,0
30582,-100,4,2,1,50,0,0
38571,-100,4,2,1,70,0,0
41233,-100,4,2,1,50,0,0
49754,-100,4,2,1,70,0,0
55435,-100,4,2,2,40,0,0
61293,-100,4,2,3,70,0,0
63245,-100,4,2,1,30,0,0
64310,-100,4,2,1,100,0,1
64665,-100,4,2,1,70,0,1
81352,-100,4,1,1,50,0,1
84192,-100,4,1,1,70,0,1
85612,-100,4,2,1,60,0,0
86677,-100,4,2,2,30,0,0
87387,-100,4,2,1,20,0,0

[Colours]
Combo1 : 255,192,0
Combo2 : 0,255,255
Combo3 : 18,124,255
Combo4 : 191,0,0
Combo5 : 255,224,130
Combo6 : 176,255,255
Combo7 : 128,128,255
Combo8 : 255,94,94

[HitObjects]
156,56,395,70,0,P|228:80|276:64,1,112,0|2,0:0|0:0,0:0:0:0:
372,76,1195,2,0,P|384:156|364:216,1,112,0|2,0:0|0:0,0:0:0:0:
264,184,1995,2,0,P|184:193|140:231,1,112,0|2,2:0|2:0,2:0:0:0:
132,320,2795,6,0,P|211:310|255:272,1,112,0|2,0:0|0:0,0:0:0:0:
264,184,3595,2,0,P|224:140|212:84,1,112,0|2,0:0|0:0,0:0:0:0:
324,88,4395,2,0,L|400:64,1,56
392,124,4795,86,0,P|473:120|494:91,2,112,2|0|2,0:0|0:0|2:0,0:0:0:0:
308,48,5995,1,2,0:0:0:0:
200,80,6395,1,2,0:0:0:0:
160,120,6595,6,0,L|88:128,2,56,6|0|0,0:0|0:0|0:0,0:0:0:0:
188,168,7195,2,0,L|312:156,1,112,2|0,0:0|0:0,0:0:0:0:
408,136,7995,1,2,0:0:0:0:
334,51,8395,2,0,P|280:38|228:56,1,112,0|2,0:0|0:0,0:0:0:0:
178,148,9195,6,0,P|230:164|285:153,1,112,0|2,0:0|0:0,0:0:0:0:
360,236,9995,2,0,P|313:264|289:314,1,112,0|2,0:0|0:0,0:0:0:0:
176,316,10795,2,0,L|124:260,1,56,0|0,0:0|0:0,0:0:0:0:
96,240,11195,86,0,B|164:87|329:210|436:61,1,392,2|0,0:0|0:0,0:0:0:0:
256,192,12995,12,0,17795,0:0:0:0:
100,80,18867,102,0,P|155:75|207:94,1,112,4|8,0:0|1:0,0:0:0:0:
152,192,19577,2,0,P|220:212|292:192,1,112,0|8,0:0|1:0,0:0:0:0:
368,164,20287,1,0,0:0:0:0:
432,72,20642,2,0,P|379:53|324:60,1,112,8|0,1:0|0:0,0:0:0:0:
232,124,21352,69,8,1:0:0:0:
289,212,21707,2,0,P|328:250|382:258,2,112,0|8|0,0:0|1:0|0:0,0:0:0:0:
312,108,22772,1,8,1:0:0:0:
200,120,23127,2,0,P|216:48|260:8,1,112,0|8,0:0|1:0,0:0:0:0:
352,16,23837,2,0,P|400:41|455:35,1,112,0|4,0:0|0:0,0:0:0:0:
404,132,24547,21,4,0:0:0:0:
296,160,24902,2,0,P|232:197|212:244,1,112,8|0,1:0|0:0,0:0:0:0:
320,268,25612,1,8,1:0:0:0:
400,192,25967,2,0,P|399:118|369:77,2,112,0|8|0,0:0|1:0|0:0,0:0:0:0:
296,160,27032,1,8,1:0:0:0:
236,64,27387,6,0,P|196:104|184:164,1,112,0|8,0:0|1:0,0:0:0:0:
256,240,28097,1,0,0:0:0:0:
367,245,28452,2,0,P|351:298|310:336,1,112,4|8,0:0|3:0,0:0:0:0:
200,336,29162,2,0,P|160:298|144:245,1,112,8|8,3:0|3:0,0:0:0:0:
256,240,29872,2,0,L|256:128,1,112,8|4,1:0|1:0,0:0:0:0:
320,36,30582,6,0,P|416:68|432:116,1,112,0|2,0:0|0:0,0:0:0:0:
452,180,31293,1,2,0:0:0:0:
388,276,31648,2,0,B|399:329|399:329|365:375,1,112,2|2,0:0|0:0,0:0:0:0:
288,292,32358,2,0,B|276:238|276:238|310:192,1,112,2|2,0:0|0:0,0:0:0:0:
292,80,33068,1,6,0:0:0:0:
184,56,33423,6,0,L|112:44,2,56,2|0|2,0:0|0:0|0:0,0:0:0:0:
244,152,34133,1,2,0:0:0:0:
316,240,34488,2,0,P|248:268|180:228,1,112,2|2,0:0|0:0,0:0:0:0:
142,170,35198,2,0,P|190:143|245:152,1,112,2|2,0:0|0:0,0:0:0:0:
316,240,35908,1,6,0:0:0:0:
392,324,36263,6,0,B|424:276|424:276|424:196,1,112,2|2,0:0|0:0,0:0:0:0:
348,135,36973,2,0,B|316:199|316:199|316:240,1,112,2|2,0:0|0:0,0:0:0:0:
240,324,37683,2,0,B|212:284|212:284|208:196,1,112,2|2,0:0|0:0,0:0:0:0:
212,108,38393,1,6,0:0:0:0:
112,160,38748,1,6,0:0:0:0:
20,224,39103,86,0,P|72:260|164:256,1,112,2|2,0:0|0:0,3:0:0:0:
208,196,39813,1,0,3:0:0:0:
312,236,40168,2,0,B|264:124|368:108|292:0,1,224,4|8,0:0|3:0,3:0:0:0:
220,76,41233,1,8,3:0:0:0:
112,96,41588,6,0,P|136:148|196:184,1,112,4|0,0:0|1:0,0:0:0:0:
288,192,42298,2,0,P|260:256|224:284,1,112,2|0,0:0|1:0,0:0:0:0:
120,316,43009,1,2,0:0:0:0:
164,212,43364,1,0,1:0:0:0:
108,116,43719,2,0,P|164:100|232:120,1,112,2|0,0:0|1:0,0:0:0:0:
320,68,44429,1,6,0:0:0:0:
395,151,44784,6,0,P|343:179|279:171,1,112,0|2,1:0|0:0,0:0:0:0:
232,84,45494,2,0,L|240:24,2,56,0|0|2,1:0|0:0|0:0,0:0:0:0:
124,104,46204,2,0,P|68:112|20:172,2,112,0|2|4,1:0|0:0|0:0,0:0:0:0:
116,212,47269,1,4,0:0:0:0:
36,288,47624,86,0,P|80:321|134:328,1,112,0|2,1:0|0:0,0:0:0:0:
224,260,48334,1,0,1:0:0:0:
336,268,48689,2,0,P|384:248|420:192,1,112,2|0,0:0|1:0,0:0:0:0:
492,116,49399,2,0,P|432:88|372:100,1,112,2|0,0:0|1:0,0:0:0:0:
288,148,50109,5,4,0:0:0:0:
176,152,50464,1,0,1:0:0:0:
96,228,50819,1,2,0:0:0:0:
108,340,51174,1,0,1:0:0:0:
220,320,51529,2,0,P|288:316|348:272,1,112,0|4,0:0|0:0,0:0:0:0:
356,188,52239,2,0,P|288:192|228:236,1,112,0|8,0:0|3:0,0:0:0:0:
220,320,52949,5,4,0:0:0:0:
112,80,55435,101,2,0:0:0:0:
220,60,55790,2,0,P|316:60|376:136,1,168,2|0,0:0|0:0,0:0:0:0:
432,256,56855,2,0,B|356:320|204:216|92:320,1,336,2|2,0:0|0:0,0:0:0:0:
48,216,58275,5,0,0:0:0:0:
40,104,58630,2,0,P|124:40|180:116,1,168,2|0,0:0|0:0,0:0:0:0:
172,232,59695,2,0,B|284:264|248:172|360:140|444:184|480:244,1,336,2|0,0:0|0:0,0:0:0:0:
469,346,61115,1,2,0:0:0:0:
360,320,61470,5,6,0:0:0:0:
256,192,61648,12,0,62890,0:0:0:0:
248,32,64310,6,0,P|296:44|344:96,1,112,4|8,0:0|1:0,0:0:0:0:
356,196,65020,1,0,0:0:0:0:
256,252,65375,2,0,L|256:364,2,112,8|0|8,1:0|0:0|1:0,0:0:0:0:
184,168,66440,2,0,B|172:120|172:120|200:40,1,112,0|8,0:0|1:0,0:0:0:0:
304,36,67151,38,0,B|316:84|316:84|288:164,1,112,0|8,0:0|1:0,0:0:0:0:
184,168,67861,1,0,0:0:0:0:
128,264,68216,1,8,1:0:0:0:
200,340,68571,2,0,P|280:356|312:340,2,112,0|8|0,0:0|1:0|0:0,0:0:0:0:
216,228,69636,70,0,P|212:168|238:120,1,112,8|4,1:0|0:0,0:0:0:0:
288,24,70346,1,8,1:0:0:0:
332,140,70701,2,0,P|380:172|440:180,1,112,0|8,0:0|1:0,0:0:0:0:
472,76,71411,2,0,P|424:44|364:36,1,112,0|8,0:0|1:0,0:0:0:0:
260,44,72121,2,0,P|248:132|264:172,1,112,0|12,0:0|1:0,0:0:0:0:
224,268,72831,38,4,L|176:316,2,56,4|4|4,0:0|0:0|0:0,0:0:0:0:
268,304,73364,2,4,P|332:304|380:240,1,112
468,320,74074,2,4,P|480:256|420:172,1,168,4|12,0:0|1:0,0:0:0:0:
340,104,74961,1,0,0:0:0:0:
228,104,75316,1,8,1:0:0:0:
128,152,75671,86,0,P|184:208|248:212,1,112,4|8,0:0|1:0,0:0:0:0:
304,156,76381,2,0,P|400:108|432:124,1,112,0|8,0:0|1:0,0:0:0:0:
404,220,77091,2,0,P|432:254|448:324,2,112,0|8|0,0:0|1:0|0:0,0:0:0:0:
292,244,78156,1,8,1:0:0:0:
180,264,78511,54,0,L|116:280,2,56,0|0|8,0:0|0:0|1:0,0:0:0:0:
120,176,79222,2,0,P|104:96|168:64,1,112,0|8,0:0|1:0,0:0:0:0:
224,56,79932,2,0,B|288:49|288:49|356:114,1,112,0|8,0:0|1:0,0:0:0:0:
268,180,80642,2,0,B|203:186|203:186|169:152,1,112,0|8,0:0|1:0,0:0:0:0:
92,72,81352,54,0,L|-4:56,2,56,4|4|0,2:0|2:0|0:0,0:0:0:0:
170,153,82062,2,0,L|221:132,2,56,0|0|0,1:0|1:0|1:0,1:0:0:0:
144,264,82772,2,0,P|204:312|252:308,1,112,0|0,1:0|1:0,1:0:0:0:
348,308,83482,2,0,P|402:299|440:259,1,112,0|0,1:0|1:0,1:0:0:0:
376,172,84192,54,0,P|292:188|176:148,1,168,4|0,2:0|0:0,0:0:0:0:
152,328,85257,2,0,P|108:304|76:248,2,112,0|4|0,0:0|0:0|0:0,0:0:0:0:
184,220,86322,1,0,0:0:0:0:
268,148,86677,2,0,B|356:120|408:196|492:168,1,224,2|0,2:0|0:0,0:0:0:0:
