osu file format v13

[General]
AudioFilename: Tokohana.mp3
AudioLeadIn: 2000
PreviewTime: 63245
Countdown: 0
SampleSet: Soft
StackLeniency: 0.7
Mode: 0
LetterboxInBreaks: 0
WidescreenStoryboard: 0

[Editor]
Bookmarks: 625,7025,18982,24977,30801,36515,41693,45086,47906,55539,63349,69740,75598,81456
DistanceSpacing: 1.2
BeatDivisor: 2
GridSize: 4
TimelineZoom: 1.4

[Metadata]
Title:Tokohana
TitleUnicode:トコハナ
Artist:yanaginagi
ArtistUnicode:やなぎなぎ
Creator:Rtyzen
Version:Hard
Source:ブラック・ブレット
Tags:Black Bullet Kisara Tendou Satomi Rentarou Aihara Enju Kuro no Juudan ending Everflower TV Size
BeatmapID:428196
BeatmapSetID:177981

[Difficulty]
HPDrainRate:6
CircleSize:4
OverallDifficulty:6
ApproachRate:7
SliderMultiplier:1.4
SliderTickRate:1

[Events]
//Background and Video events
Video,0,"Tokohana.avi"
0,0,"BG.jpg",0,0
//Break Periods
//Storyboard Layer 0 (Background)
//Storyboard Layer 1 (Fail)
//Storyboard Layer 2 (Pass)
//Storyboard Layer 3 (Foreground)
//Storyboard Sound Samples
//Background Colour Transformations
3,100,163,162,255

[TimingPoints]
195,400,4,2,2,30,1,0
6195,-100,4,2,2,40,0,0
6795,-100,4,2,2,30,0,0
11195,-133.333333333333,4,2,2,30,0,0
12995,-100,4,2,2,5,0,0
14595,-100,4,2,2,15,0,0
16195,-100,4,2,2,25,0,0
17795,-100,4,2,2,5,0,0
18867,355.029585798817,4,2,1,65,1,0
28807,-100,4,2,1,80,0,0
29517,-100,4,2,1,85,0,0
30405,-100,4,2,1,50,0,0
38571,-100,4,2,1,70,0,0
40878,-100,4,3,1,35,0,0
41588,-100,4,2,1,60,0,0
41766,-100,4,2,1,50,0,0
54369,-100,4,2,2,40,0,0
55790,-166.666666666667,4,2,2,40,0,0
60938,-100,4,2,2,30,0,0
61293,-100,4,2,3,50,0,0
63245,-100,4,2,1,30,0,0
64310,-100,4,2,1,100,0,1
64488,-100,4,2,1,70,0,1
74606,-100,4,2,1,100,0,1
75316,-100,4,2,1,70,0,1
81174,-100,4,2,1,50,0,1
81352,-100,4,1,1,50,0,1
84192,-100,4,1,1,70,0,1
85612,-100,4,2,1,70,0,0
85967,-100,4,2,1,40,0,0
86677,-133.333333333333,4,2,2,30,0,0
87387,-133.333333333333,4,2,1,20,0,0

[Colours]
Combo1 : 255,192,0
Combo2 : 0,255,255
Combo3 : 18,124,255
Combo4 : 191,0,0
Combo5 : 255,224,130
Combo6 : 176,255,255
Combo7 : 128,128,255
Combo8 : 255,94,94

[HitObjects]
200,80,195,69,0,0:0:0:0:
200,80,395,2,0,P|167:67|132:68,1,70
68,140,795,2,0,P|100:236|164:236,1,140,2|0,0:0|0:0,0:0:0:0:
212,248,1395,1,0,0:0:0:0:
296,244,1595,6,0,L|296:84,1,140,2|0,0:0|0:0,0:0:0:0:
296,20,2195,1,0,0:0:0:0:
360,103,2395,86,0,P|295:127|231:103,1,140,2|0,0:0|0:0,0:0:0:0:
180,36,2995,1,0,0:0:0:0:
112,84,3195,6,0,P|92:136|128:212,1,140,2|0,0:0|0:0,0:0:0:0:
152,288,3795,2,0,L|104:352,1,70,0|2,0:0|0:0,0:0:0:0:
308,300,4395,6,0,P|338:317|372:321,1,70
360,240,4795,2,0,P|284:224|232:284,1,140,2|0,0:0|0:0,0:0:0:0:
180,324,5395,1,0,0:0:0:0:
104,284,5595,2,0,P|73:224|89:140,1,140,2|0,0:0|0:0,1:0:0:0:
164,140,6195,1,4,0:0:0:0:
108,76,6395,1,4,0:0:0:0:
28,88,6595,1,4,0:0:0:0:
28,88,6795,86,0,P|40:39|60:16,1,70
108,76,7195,2,0,P|180:96|256:72,1,140,2|0,0:0|0:0,0:0:0:0:
324,100,7795,1,0,0:0:0:0:
384,164,7995,6,0,P|284:180|244:128,1,140,2|0,0:0|0:0,0:0:0:0:
216,72,8595,1,0,0:0:0:0:
132,92,8795,2,0,P|86:147|99:221,1,140,2|0,0:0|0:0,0:0:0:0:
172,172,9395,1,0,0:0:0:0:
250,131,9595,2,0,P|255:199|211:251,1,140,2|0,0:0|0:0,0:0:0:0:
172,172,10195,5,0,0:0:0:0:
250,132,10395,2,0,P|316:108|392:152,1,140,2|0,0:0|0:0,0:0:0:0:
396,216,10995,1,0,0:0:0:0:
408,296,11195,86,0,B|272:345|208:208|48:296,1,367.500014019013,2|0,0:0|0:0,0:0:0:0:
256,192,12995,12,0,14595,0:0:0:0:
256,192,14795,12,0,16195,0:0:0:0:
256,192,16395,12,0,17795,0:0:0:0:
304,112,18867,102,0,P|384:96|400:64,2,70,12|0|0,1:0|0:0|0:0,0:0:0:0:
224,64,19399,2,0,P|172:88|128:176,1,140,0|0,0:0|0:0,0:0:0:0:
108,236,19932,1,8,1:0:0:0:
184,272,20109,1,0,0:0:0:0:
184,272,20287,70,0,L|160:352,2,70,0|0|8,0:0|0:0|1:0,0:0:0:0:
272,256,20819,2,0,P|340:255|408:220,1,140,0|0,0:0|0:0,0:0:0:0:
472,176,21352,1,8,1:0:0:0:
404,128,21529,1,0,0:0:0:0:
404,128,21707,22,0,L|324:96,1,70,0|0,0:0|0:0,0:0:0:0:
416,48,22062,2,0,L|344:20,1,70,8|0,1:0|0:0,0:0:0:0:
268,32,22417,2,0,L|268:132,1,70,0|0,0:0|0:0,0:0:0:0:
268,180,22772,1,8,1:0:0:0:
268,256,22949,1,0,0:0:0:0:
188,304,23127,6,0,P|124:336|92:304,2,70,0|0|8,0:0|0:0|1:0,0:0:0:0:
268,256,23659,1,0,0:0:0:0:
348,304,23837,2,0,P|412:336|444:304,2,70,0|0|4,0:0|0:0|0:0,0:0:0:0:
268,256,24369,1,0,0:0:0:0:
352,176,24547,70,0,P|432:128|432:96,2,70,4|0|8,0:0|0:0|1:0,0:0:0:0:
256,176,25080,2,0,P|214:123|144:124,1,140,0|0,0:0|0:0,0:0:0:0:
64,144,25612,1,8,1:0:0:0:
60,228,25790,1,0,0:0:0:0:
60,228,25967,22,0,P|128:288|192:280,1,140,0|8,0:0|1:0,0:0:0:0:
256,256,26500,1,0,0:0:0:0:
320,200,26677,2,0,P|384:180|448:216,1,140,0|8,0:0|1:0,0:0:0:0:
376,268,27210,1,0,0:0:0:0:
376,268,27387,6,0,L|436:332,2,70,0|0|8,0:0|0:0|1:0,0:0:0:0:
308,320,27920,2,0,P|220:308|172:272,1,140
120,224,28452,1,4,0:0:0:0:
104,144,28630,1,0,0:0:0:0:
104,144,28807,70,8,P|129:92|163:54,1,70,8|0,3:0|0:0,2:0:0:0:
192,144,29162,2,8,P|240:112|288:96,1,70,8|0,3:0|0:0,2:0:0:0:
276,184,29517,2,0,P|333:180|383:190,1,70,8|8,3:0|3:0,0:0:0:0:
316,256,29872,2,4,P|367:281|405:315,1,70,12|12,3:0|3:0,0:0:0:0:
312,352,30227,1,4,0:1:0:0:
208,304,30582,86,0,L|128:304,2,70,0|0|2,0:0|0:0|0:0,0:0:0:0:
296,304,31115,1,0,0:0:0:0:
380,288,31293,2,0,P|395:232|348:176,1,70,2|0,0:0|0:0,0:0:0:0:
348,148,31648,1,2,0:0:0:0:
200,68,32003,1,2,0:0:0:0:
328,228,32358,2,0,P|395:215|428:144,2,140,2|2|6,0:0|0:0|0:0,0:0:0:0:
144,296,33423,86,0,P|78:284|50:223,1,140,2|2,0:0|0:0,0:0:0:0:
124,180,33955,1,0,0:0:0:0:
210,174,34133,2,0,L|258:258,1,70,2|0,0:0|0:0,0:0:0:0:
338,237,34488,2,0,L|260:104,1,140,2|2,0:0|0:0,0:0:0:0:
412,248,35198,2,0,P|396:288|348:304,1,70,2|0,0:0|0:0,0:0:0:0:
284,296,35553,1,2,0:0:0:0:
220,244,35730,1,0,0:0:0:0:
292,200,35908,1,6,0:0:0:0:
460,200,36263,6,0,P|482:173|493:140,2,70,2|0|2,0:0|0:0|0:0,0:0:0:0:
412,132,36795,2,0,P|375:108|356:80,2,70,0|2|0,0:0|0:0|0:0,0:0:0:0:
344,192,37328,2,0,P|288:173|216:257,1,140,2|2,0:0|0:0,0:0:0:0:
186,290,37861,1,0,0:0:0:0:
170,374,38038,2,0,L|266:374,1,70,2|0,0:0|0:0,0:0:0:0:
314,314,38393,2,0,L|282:218,1,70,6|0,0:0|0:0,0:0:0:0:
272,164,38748,101,4,0:0:0:0:
488,108,39103,1,4,3:0:0:0:
388,272,39458,1,4,3:0:0:0:
360,28,39813,1,4,3:0:0:0:
464,120,40168,6,0,L|356:136,1,70,4|0,0:0|0:0,3:0:0:0:
344,200,40523,2,0,L|272:212,1,70,0|0,3:0|0:0,3:0:0:0:
224,144,40878,2,8,L|228:104,3,35,8|8|8|8,3:0|3:0|0:0|0:0,3:0:0:0:
192,172,41233,2,8,L|158:149,3,35,8|8|8|8,3:0|0:0|0:0|0:0,3:0:0:0:
184,216,41588,1,4,0:0:0:0:
52,76,41943,6,0,P|4:44|4:-4,2,70,0|0|2,1:0|0:0|0:0,0:0:0:0:
160,72,42476,1,2,0:0:0:0:
160,72,42653,2,0,P|212:68|248:76,1,70,0|0,1:0|0:0,0:0:0:0:
306,112,43009,2,0,L|376:112,1,70,2|2,0:0|0:0,0:0:0:0:
322,196,43364,2,0,L|252:196,1,70,0|0,1:0|0:0,0:0:0:0:
186,288,43719,2,0,L|256:288,1,70,2|2,0:0|0:0,0:0:0:0:
252,196,44074,1,4,0:0:0:0:
184,144,44251,1,0,3:0:0:0:
128,208,44429,1,2,0:0:0:0:
280,280,44784,86,0,P|328:231|329:163,1,140,0|2,1:0|0:0,0:0:0:0:
340,80,45316,1,2,0:0:0:0:
252,60,45494,1,0,1:0:0:0:
252,60,45671,2,0,L|296:-4,2,70,0|2|2,0:0|0:0|0:0,0:0:0:0:
208,132,46204,1,0,1:0:0:0:
232,276,46559,1,2,0:0:0:0:
96,300,46914,1,0,1:0:0:0:
72,156,47269,1,4,0:0:0:0:
72,156,47624,6,0,P|96:116|160:88,1,70,0|0,1:0|0:0,0:0:0:0:
192,60,47979,1,2,0:0:0:0:
256,116,48156,2,0,L|316:48,2,70,2|0|0,0:0|1:0|0:0,0:0:0:0:
320,172,48689,2,0,P|336:242|296:297,1,140,2|0,0:0|1:0,0:0:0:0:
212,152,49399,2,0,P|240:92|344:80,1,140,0|4,3:0|0:0,3:0:0:0:
427,161,50109,2,0,P|394:220|328:236,2,140,4|0|2,0:0|1:0|0:0,0:0:0:0:
304,48,51174,5,0,1:0:0:0:
348,164,51529,2,0,L|428:324,1,140,0|4,3:0|0:0,3:0:0:0:
224,272,52239,2,0,L|128:272,1,70,0|8,0:0|1:0,0:0:0:0:
160,192,52594,2,0,L|64:192,1,70,4|0,3:0|3:0,0:0:0:0:
16,192,52949,53,4,0:0:0:0:
256,192,53038,12,0,54369,0:0:0:0:
384,144,55435,53,2,0:0:0:0:
315,79,55790,2,0,P|242:55|184:72,1,125.999996154785,2|0,0:0|0:0,0:0:0:0:
124,200,56855,2,0,B|216:232|236:124|328:152|364:184,1,251.999992309571,2|0,0:0|0:0,0:0:0:0:
296,256,58275,5,2,0:0:0:0:
396,276,58630,2,0,P|335:357|284:356,1,125.999996154785,2|0,0:0|0:0,0:0:0:0:
176,308,59695,2,0,B|184:217|264:206|264:206|286:134|264:96,1,251.999992309571,2|0,0:0|0:0,0:0:0:0:
136,136,61115,1,2,0:0:0:0:
136,136,61470,53,6,0:0:0:0:
256,192,61559,12,0,62890,0:0:0:0:
398,246,63245,102,0,P|377:310|312:324,2,140,0|0|0,0:0|0:0|0:0,0:0:0:0:
228,64,64310,86,0,P|162:77|141:141,1,140,4|8,0:0|1:0,0:0:0:0:
192,208,64843,2,0,L|136:276,2,70,0|0|0,0:0|0:0|0:0,0:0:0:0:
268,244,65375,1,8,1:0:0:0:
312,324,65553,38,0,P|377:309|398:246,1,140,0|0,0:0|0:0,0:0:0:0:
320,212,66085,1,8,1:0:0:0:
360,140,66263,1,0,0:0:0:0:
288,100,66440,2,0,P|224:52|192:52,2,70,0|0|8,0:0|0:0|1:0,0:0:0:0:
248,180,66973,2,0,P|272:276|328:292,1,140
384,280,67506,2,0,P|391:245|389:211,1,70,8|0,1:0|0:0,0:0:0:0:
340,140,67861,69,4,0:0:0:0:
284,76,68038,2,4,L|220:12,1,70,0|8,0:0|1:0,0:0:0:0:
188,96,68393,2,0,L|237:145,1,70,0|4,0:0|0:0,0:0:0:0:
296,204,68748,2,0,P|362:214|412:168,1,140,0|0,0:0|0:0,0:0:0:0:
340,140,69281,1,4,0:0:0:0:
296,204,69458,38,0,P|312:268|344:284,2,70,0|8|0,0:0|1:0|0:0,0:0:0:0:
364,152,69991,2,0,P|296:120|216:164,1,140,4|8,0:0|1:0,0:0:0:0:
204,64,70523,2,0,P|156:128|176:192,1,140
236,241,71056,70,0,L|296:204,1,70,8|0,1:0|0:0,0:0:0:0:
380,184,71411,2,0,P|368:251|310:287,1,140,4|8,0:0|1:0,0:0:0:0:
236,240,71943,1,0,0:0:0:0:
384,264,72298,38,0,L|448:328,2,70,0|12|0,0:0|1:0|0:0,0:0:0:0:
392,180,72831,2,4,L|328:116,1,70,4|0,0:0|0:0,0:0:0:0:
284,68,73186,1,0,1:0:0:0:
200,72,73364,2,4,L|136:8,1,70,4|0,0:0|0:0,0:0:0:0:
68,24,73719,1,0,0:0:0:0:
24,144,74074,70,0,P|-4:224|48:272,1,140,4|8,0:0|0:3,0:0:0:0:
80,324,74606,1,8,0:3:0:0:
140,264,74784,1,8,0:3:0:0:
200,324,74961,1,8,0:3:0:0:
360,212,75316,5,8,1:0:0:0:
360,212,75671,2,0,P|356:136|416:96,1,140,4|8,0:0|1:0,0:0:0:0:
328,44,76204,2,0,P|275:86|210:68,1,140
132,36,76736,1,8,1:0:0:0:
136,204,77091,2,0,P|116:240|76:264,1,70
132,332,77446,2,0,P|166:330|199:342,1,70,8|0,1:0|0:0,0:0:0:0:
268,268,77801,2,0,P|241:245|225:214,1,70
216,132,78156,53,8,1:0:0:0:
287,176,78334,2,0,P|230:212|164:195,1,140
96,140,78867,1,8,1:0:0:0:
164,196,79044,54,0,L|164:276,1,70
236,288,79399,2,0,P|270:281|302:292,1,70,0|8,0:0|1:0,0:0:0:0:
372,324,79754,2,0,P|404:335|438:329,1,70
464,248,80109,2,0,L|464:168,1,70,0|8,0:0|1:0,0:0:0:0:
452,100,80464,2,0,B|404:108|388:152|388:152|288:152,1,140,0|0,0:0|0:0,0:0:0:0:
248,148,80997,1,8,1:0:0:0:
248,68,81174,53,0,0:0:0:0:
164,68,81352,1,4,2:0:0:0:
164,68,81440,1,0,0:0:0:0:
164,68,81529,1,0,2:0:0:0:
80,92,81707,2,0,P|41:142|41:174,1,70
48,224,82062,53,0,0:0:0:0:
48,224,82151,1,0,0:0:0:0:
48,224,82239,1,0,0:0:0:0:
96,288,82417,2,0,L|160:352,1,70,0|0,0:0|0:0,0:0:0:0:
208,272,82772,54,0,L|208:192,2,70
304,256,83304,1,0,0:0:0:0:
304,336,83482,2,0,L|384:336,1,70,8|0,1:0|0:0,0:0:0:0:
384,256,83837,2,0,L|464:256,1,70,8|0,1:0|0:0,0:0:0:0:
448,176,84192,2,0,B|384:156|352:96|352:96|256:96,1,210,4|0,2:0|0:0,0:0:0:0:
200,144,84902,1,0,0:0:0:0:
136,196,85080,1,0,0:0:0:0:
72,248,85257,54,0,P|138:260|172:319,1,140,0|6,0:0|0:0,2:0:0:0:
128,156,85967,2,0,P|184:117|193:50,1,140,0|0,0:0|0:0,2:0:0:0:
192,212,86677,2,0,B|264:184|312:264|416:216,1,210.000008010865,2|0,0:0|0:0,0:0:0:0:
