osu file format v13

[General]
AudioFilename: 01 - Tokohana.mp3
AudioLeadIn: 1500
PreviewTime: 63496
Countdown: 0
SampleSet: Soft
StackLeniency: 0.7
Mode: 0
LetterboxInBreaks: 1
EpilepsyWarning: 1
WidescreenStoryboard: 1

[Editor]
DistanceSpacing: 1
BeatDivisor: 4
GridSize: 4
TimelineZoom: 1.899999

[Metadata]
Title:Tokohana
TitleUnicode:トコハナ
Artist:yanaginagi
ArtistUnicode:やなぎなぎ
Creator:P A N
Version:Normal
Source:ブラック・ブレット
Tags:ending black_bullet sharlo p_a_n
BeatmapID:437690
BeatmapSetID:181310

[Difficulty]
HPDrainRate:3
CircleSize:3
OverallDifficulty:3
ApproachRate:4
SliderMultiplier:1
SliderTickRate:1

[Events]
//Background and Video events
0,0,"bgg.jpg",0,0
//Break Periods
2,53489,54810
2,169939,179425
//Storyboard Layer 0 (Background)
//Storyboard Layer 1 (Fail)
//Storyboard Layer 2 (Pass)
//Storyboard Layer 3 (Foreground)
//Storyboard Sound Samples
//Background Colour Transformations
3,100,163,162,255

[TimingPoints]
344,400,4,2,2,50,1,0
744,-100,4,2,2,50,0,0
12944,-100,4,2,1,30,0,0
14944,-100,4,2,1,40,0,0
16544,-100,4,2,1,50,0,0
19207,355.029585798817,4,1,0,100,1,0
19207,-100,4,2,1,70,0,1
24532,-100,4,2,1,50,0,0
24887,-100,4,2,1,70,0,1
28792,-100,4,2,1,40,0,1
29147,-100,4,2,1,50,0,1
29325,-100,4,2,1,55,0,1
29502,-100,4,2,1,60,0,1
29680,-100,4,2,1,65,0,1
29857,-100,4,2,1,70,0,1
30212,-100,4,2,2,70,0,1
30567,-100,4,2,2,50,0,0
39088,-100,4,2,1,70,0,0
39798,-100,4,2,1,70,0,0
41218,-100,4,2,1,50,0,0
51869,-100,4,2,2,70,0,0
53289,-100,4,2,2,70,0,0
56130,-100,4,2,2,50,0,0
64650,-100,4,2,1,80,0,1
75656,-100,4,2,1,50,0,0
76011,-100,4,2,1,80,0,1
81337,-100,4,2,2,80,0,1
81692,-100,4,2,2,50,0,1
84532,-100,4,2,1,80,0,1
85597,-100,4,2,1,70,0,1
85952,-100,4,2,1,60,0,0
87372,-100,4,2,1,70,0,0
89857,-100,4,2,1,50,0,0
90212,-100,4,2,1,70,0,0
90390,-100,4,2,1,40,0,0
90567,-100,4,2,1,70,0,1
95183,-100,4,2,1,70,0,0
95893,-100,4,2,1,70,0,1
101573,-100,4,2,1,70,0,0
107520,-100,4,2,1,5,0,0
107609,-100,4,2,3,53,0,0
110094,-100,4,2,3,55,0,0
111514,-100,4,2,1,70,0,0
113289,-100,4,2,3,53,0,0
115420,-100,4,2,3,53,0,0
115597,-100,4,2,2,70,0,0
115775,-100,4,2,3,53,0,0
117195,-100,4,2,1,70,0,0
118970,-100,4,2,3,53,0,0
124295,-100,4,2,1,70,0,0
132816,-100,4,2,1,70,0,0
134414,-100,4,2,1,50,0,0
135656,-100,4,2,1,70,0,1
145775,-100,4,2,1,50,0,1
146662,-100,4,2,1,50,0,0
147017,-100,4,2,1,70,0,1
156958,-100,4,2,1,70,0,0
157313,-100,4,2,1,50,0,0
158378,-100,4,2,1,70,0,0
181100,-100,4,2,1,60,0,0
186780,-100,4,2,1,60,0,0
193171,-100,4,2,2,60,0,0
193881,-100,4,2,1,60,0,1
204887,-100,4,2,1,60,0,0
205242,-100,4,2,1,70,0,1
216248,-100,4,2,1,70,0,1
216514,-100,4,2,1,5,0,0
216603,-100,4,2,1,70,0,1
221573,-100,4,2,1,50,0,0
222283,-100,4,2,1,70,0,1
227609,-100,4,2,1,70,0,0
227964,-100,4,2,1,70,0,1
233644,-100,4,2,2,70,0,1
236485,-100,4,2,1,70,0,1
237905,-100,4,2,1,70,0,0
239059,-100,4,2,1,20,0,0
240035,-100,4,2,1,70,0,0
242520,-100,4,2,1,70,0,1
246070,-100,4,2,1,40,0,1
246248,-100,4,2,1,70,0,1
253349,-100,4,2,1,70,0,0

[Colours]
Combo1 : 128,64,64
Combo2 : 255,87,45
Combo3 : 0,0,64
Combo4 : 255,255,128
SliderBorder : 255,240,138

[HitObjects]
47,73,744,5,2,0:0:0:0:
116,144,1144,2,0,P|208:178|313:136,1,200,2|2,0:0|0:0,0:0:0:0:
372,76,2344,1,2,0:0:0:0:
440,148,2744,2,0,P|472:216|416:336,1,200,2|2,0:0|0:0,0:0:0:0:
256,224,4344,6,0,L|47:236,2,200,2|2|2,0:0|0:0|0:0,0:0:0:0:
324,151,6344,2,0,P|335:112|312:50,1,100,4|4,0:3|0:3,0:0:0:0:
277,26,6944,2,0,P|203:55|136:32,1,150,4|2,0:3|0:0,0:0:0:0:
31,202,8344,6,0,P|39:289|143:336,1,200,2|2,0:0|0:0,0:0:0:0:
315,258,9944,2,0,P|414:240|486:316,1,200,2|2,0:0|0:0,0:0:0:0:
256,192,11544,12,0,12944,0:0:0:0:
256,192,13344,12,0,14744,0:0:0:0:
256,192,14944,12,0,16344,0:0:0:0:
256,192,16544,12,0,18144,0:0:0:0:
257,291,19207,6,0,P|212:313|158:303,1,100,4|8,0:1|0:0,0:0:0:0:
122,278,19739,2,0,L|128:173,2,100,2|2|2,0:0|0:0|0:0,0:0:0:0:
24,257,20804,2,0,L|29:151,1,100,2|2,0:0|0:0,0:0:0:0:
96,83,21514,2,0,L|99:34,2,50,2|8|2,0:0|0:0|0:0,0:0:0:0:
127,177,22224,6,0,P|177:190|223:169,1,100,2|2,0:0|0:0,0:0:0:0:
282,93,22934,2,0,P|327:74|374:87,1,100,2|2,0:0|0:0,0:0:0:0:
452,149,23644,2,0,L|505:133,2,50,2|2|2,0:0|0:0|0:0,0:0:0:0:
447,248,24354,1,2,0:0:0:0:
397,256,24532,2,0,P|356:229|335:168,1,100,2|4,0:1|0:0,0:0:0:0:
283,93,25242,6,0,P|232:77|186:94,1,100,8|2,0:0|0:1,0:0:0:0:
115,158,25952,2,0,P|84:164|64:158,1,50,8|2,0:0|0:0,0:0:0:0:
41,256,26485,2,0,P|85:268|140:253,1,100,2|2,0:0|0:0,0:0:0:0:
215,193,27195,2,0,P|261:176|309:188,1,100,2|2,0:0|0:0,0:0:0:0:
378,259,27905,2,0,L|383:316,2,50,2|8|2,0:0|0:0|0:0,0:0:0:0:
442,182,28615,2,0,L|437:125,1,50,2|4,0:0|0:0,0:0:0:0:
256,192,29147,12,4,30567,0:0:0:0:
334,139,30922,6,0,P|346:91|334:43,1,100,2|2,0:0|0:0,0:0:0:0:
246,91,31633,1,2,0:0:0:0:
246,190,31988,2,0,P|270:223|331:238,2,100,2|2|2,0:0|0:0|0:0,0:0:0:0:
156,142,33053,2,0,L|103:146,2,50,2|8|2,0:1|0:3|0:0,0:0:0:0:
246,91,33763,6,0,L|353:95,1,100,2|2,0:0|0:0,0:0:0:0:
429,148,34473,1,2,0:0:0:0:
452,245,34828,2,0,P|436:277|371:300,1,100,2|2,0:0|0:0,0:0:0:0:
300,239,35538,1,2,0:0:0:0:
223,303,35893,2,0,L|228:355,2,50,2|8|2,0:3|0:3|0:0,0:0:0:0:
153,231,36603,6,0,L|156:132,2,100,2|2|2,0:0|0:0|0:0,0:0:0:0:
103,317,37668,2,0,B|54:276|54:276|59:138,1,200,2|2,0:0|0:0,0:0:0:0:
102,50,38733,1,4,0:0:0:0:
199,29,39088,6,0,L|256:35,2,50,4|2|8,0:0|0:1|0:0,0:0:0:0:
216,127,39798,2,0,L|166:121,2,50,2|2|8,0:1|0:1|0:0,0:0:0:0:
315,137,40508,2,0,P|360:113|378:50,1,100,4|8,0:0|0:0,0:0:0:0:
467,24,41218,2,0,L|464:229,1,200,2|4,0:1|0:0,0:0:0:0:
412,309,42283,5,8,0:0:0:0:
313,293,42638,2,0,P|273:266|258:212,1,100,2|8,0:1|0:0,0:0:0:0:
316,137,43349,2,0,P|273:114|219:124,1,100,2|8,0:1|0:0,0:0:0:0:
150,189,44059,2,0,L|156:243,2,50,2|2|8,0:1|0:1|0:0,0:0:0:0:
82,115,44769,5,2,0:1:0:0:
19,193,45124,2,0,P|32:286|138:325,1,200,8|8,0:0|0:0,0:0:0:0:
213,290,46189,2,0,P|259:277|312:298,1,100,2|8,0:1|0:0,0:0:0:0:
389,349,46899,2,0,P|406:309|406:286,1,50,2|2,0:1|0:1,0:0:0:0:
396,253,47254,2,0,P|385:198|400:154,1,100,8|2,0:0|0:0,0:0:0:0:
444,68,47964,6,0,L|388:71,1,50,8|0,0:0|0:0,0:0:0:0:
346,55,48319,2,0,L|240:60,1,100,2|8,0:1|0:0,0:0:0:0:
150,87,49029,1,2,0:1:0:0:
147,186,49384,1,8,0:0:0:0:
239,222,49739,1,2,0:1:0:0:
302,144,50094,1,12,0:0:0:0:
401,151,50449,6,0,L|453:137,2,50,4|2|4,0:0|0:1|0:0,0:0:0:0:
436,244,51159,2,0,L|493:253,2,50,4|2|12,0:0|0:1|0:0,0:0:0:0:
375,323,51869,2,0,L|271:319,1,100,4|4,0:0|0:0,0:0:0:0:
181,353,52579,2,0,P|176:303|197:257,2,100,2|8|4,0:1|0:0|0:0,0:0:0:0:
461,147,56130,6,0,L|468:310,2,150,4|2|0,0:0|0:0|0:0,0:0:0:0:
405,63,57550,1,2,0:0:0:0:
255,195,58260,1,2,0:0:0:0:
51,147,58970,6,0,L|44:310,2,150,2|2|0,0:0|0:0|0:0,0:0:0:0:
107,63,60390,1,2,0:0:0:0:
255,195,61100,1,2,0:0:0:0:
340,246,61455,1,0,0:0:0:0:
425,194,61810,2,0,P|403:93|312:41,2,200,4|0|0,0:0|0:0|0:0,0:0:0:0:
50,341,64650,6,0,P|47:249|153:201,1,200,4|2,0:0|0:1,0:0:0:0:
220,242,65715,1,8,0:0:0:0:
268,253,65893,2,0,P|336:253|388:189,1,150,2|8,0:0|0:0,0:0:0:0:
386,94,66780,1,2,0:1:0:0:
302,39,67135,1,8,0:0:0:0:
256,60,67313,2,0,P|206:75|146:53,1,100,2|2,0:0|0:0,0:0:0:0:
124,29,67846,6,0,L|119:140,1,100,8|2,0:0|0:1,0:0:0:0:
62,211,68556,2,0,L|70:322,1,100,8|2,0:0|0:1,0:0:0:0:
168,321,69266,2,0,L|160:221,1,100,8|2,0:0|0:1,0:0:0:0:
240,162,69976,2,0,P|266:166|294:159,1,50,8|2,0:0|0:0,0:0:0:0:
337,149,70331,6,0,P|381:170|412:264,1,150,4|2,0:0|0:0,0:0:0:0:
268,340,71396,1,8,0:0:0:0:
169,321,71751,2,0,L|13:325,1,150,2|2,0:1|0:0,0:0:0:0:
57,232,72638,2,0,P|72:183|50:129,1,100,2|2,0:0|0:0,0:0:0:0:
21,103,73171,6,0,P|90:117|154:60,1,150,4|12,0:0|0:0,0:0:0:0:
239,27,74059,2,0,L|302:30,2,50,2|2|4,0:0|0:1|0:0,0:0:0:0:
269,122,74769,2,0,L|426:131,1,150,2|2,0:0|0:0,0:0:0:0:
505,181,75656,1,0,0:0:0:0:
418,231,76011,6,0,L|307:224,1,100,4|8,0:1|0:0,0:0:0:0:
220,244,76721,2,0,L|103:250,1,100,2|8,0:1|0:0,0:0:0:0:
28,208,77431,2,0,P|19:256|39:309,1,100,2|8,0:1|0:0,0:0:0:0:
124,349,78141,2,0,P|170:336|221:345,1,100,2|8,0:1|0:0,0:0:0:0:
269,353,78674,6,0,P|323:313|339:233,1,150,2|8,0:0|0:0,0:0:0:0:
278,155,79562,2,0,L|178:160,1,100,2|8,0:1|0:0,0:0:0:0:
94,105,80272,2,0,P|77:172|122:242,2,150,2|2|4,0:1|0:0|0:0,0:0:0:0:
166,36,81692,6,0,L|277:40,1,100,4|8,0:0|0:0,0:0:0:0:
329,119,82402,2,0,P|343:169|326:222,1,100,8|8,0:0|0:0,0:0:0:0:
275,297,83112,2,0,P|317:316|370:303,1,100,8|8,0:0|0:0,0:0:0:0:
445,240,83822,2,0,L|440:137,1,100,8|8,0:0|0:0,0:0:0:0:
406,45,84532,6,0,P|313:16|229:82,1,200,8|2,0:0|0:0,0:0:0:0:
211,168,85597,1,0,0:0:0:0:
285,234,85952,2,0,P|220:267|127:109,1,300,4|0,0:1|0:0,0:0:0:0:
194,41,87372,5,4,0:0:0:0:
244,43,87550,2,0,L|302:46,1,50,4|0,0:0|0:0,0:0:0:0:
386,83,88082,2,0,L|444:80,1,50,4|4,0:0|0:0,0:0:0:0:
468,175,88615,2,0,L|410:178,1,50,4|4,0:0|0:0,0:0:0:0:
355,255,89147,2,0,L|305:257,1,50,4|4,0:0|0:0,0:0:0:0:
225,317,89680,1,4,0:0:0:0:
201,272,89857,2,0,P|201:222|234:176,1,100,4|4,0:0|0:0,0:0:0:0:
316,135,90567,6,0,P|289:98|235:87,1,100,4|0,0:0|0:0,0:0:0:0:
189,96,91100,2,0,P|136:100|91:69,1,100,2|2,0:0|0:0,0:0:0:0:
8,30,91810,2,0,L|0:132,1,100,2|2,0:0|0:0,0:0:0:0:
67,203,92520,2,0,L|72:306,1,100,2|2,0:0|0:0,0:0:0:0:
167,270,93230,6,0,L|164:209,2,50,2|8|2,0:0|0:0|0:0,0:0:0:0:
250,324,93940,2,0,L|253:385,2,50,2|8|2,0:0|0:0|0:0,0:0:0:0:
328,262,94650,2,0,L|325:201,2,50,2|12|2,0:0|0:0|0:0,0:0:0:0:
348,307,95183,2,0,P|415:333|492:290,1,150,8|8,0:0|0:0,0:0:0:0:
498,254,95893,5,4,0:0:0:0:
510,154,96248,1,8,0:0:0:0:
473,120,96425,2,0,L|359:122,1,100,2|2,0:0|0:0,0:0:0:0:
287,172,97135,2,0,P|270:122|291:76,2,100,2|2|2,0:0|0:0|0:0,0:0:0:0:
375,219,98201,1,2,0:0:0:0:
343,257,98378,6,0,P|294:275|245:260,1,100,8|2,0:0|0:1,0:0:0:0:
194,179,99088,1,2,0:1:0:0:
115,241,99443,1,2,0:1:0:0:
71,151,99798,1,2,0:1:0:0:
151,91,100153,2,0,L|148:32,2,50,2|8|8,0:1|0:0|0:0,0:0:0:0:
194,179,100863,2,0,P|239:193|296:173,1,100,2|2,0:1|0:1,0:0:0:0:
357,105,101573,6,0,P|404:90|451:104,1,100,4|2,0:0|0:1,0:0:0:0:
492,133,102106,1,2,0:1:0:0:
504,232,102461,2,0,L|510:287,2,50,2|2|2,0:1|0:1|0:1,0:0:0:0:
405,249,103171,2,0,L|411:304,2,50,2|2|2,0:1|0:1|0:1,0:0:0:0:
306,267,103881,1,2,0:1:0:0:
274,305,104059,2,0,P|223:318|168:295,1,100,2|4,0:1|0:0,0:0:0:0:
136,277,104591,6,0,L|139:213,2,50,2|8|2,0:1|0:0|0:1,0:0:0:0:
42,240,105301,2,0,L|44:190,2,50,2|8|2,0:1|0:0|0:1,0:0:0:0:
50,333,106011,1,2,0:1:0:0:
91,360,106189,2,0,P|142:369|204:343,1,100,2|2,0:1|0:1,0:0:0:0:
227,326,106721,2,0,L|294:330,1,50,12|12,0:0|0:0,0:0:0:0:
376,337,107254,6,0,P|430:336|465:299,1,100,4|12,0:0|0:0,0:0:0:0:
477,207,107964,2,0,L|483:154,2,50,4|0|12,0:0|0:0|0:0,0:0:0:0:
377,220,108674,2,0,L|390:106,1,100,4|12,0:0|0:0,0:0:0:0:
369,22,109384,2,0,P|404:18|429:33,2,50,4|0|12,0:0|0:0|0:0,0:0:0:0:
293,87,110094,6,0,P|244:101|197:80,1,100,4|12,0:0|0:0,0:0:0:0:
125,16,110804,2,0,P|99:58|102:110,1,100,4|12,0:0|0:0,0:0:0:0:
163,185,111514,2,0,L|219:181,2,50,8|2|2,0:0|0:1|0:1,0:0:0:0:
75,234,112224,2,0,L|19:238,2,50,2|2|4,0:1|0:1|0:0,0:0:0:0:
160,286,112934,6,0,L|266:277,1,100,4|12,0:0|0:0,0:0:0:0:
352,241,113644,2,0,P|359:275|357:301,2,50,4|0|12,0:0|0:0|0:0,0:0:0:0:
275,176,114354,2,0,P|258:131|274:80,1,100,4|12,0:0|0:0,0:0:0:0:
359,34,115064,1,4,0:0:0:0:
445,84,115420,2,0,P|473:89|498:82,2,50,12|2|4,0:0|0:0|0:0,0:0:0:0:
359,34,116130,1,12,0:0:0:0:
272,82,116485,2,0,P|229:96|170:81,1,100,4|12,0:0|0:0,0:0:0:0:
80,54,117195,5,4,0:0:0:0:
9,121,117550,2,0,P|4:148|14:178,2,50,4|2|4,0:0|0:1|0:0,0:0:0:0:
106,144,118260,1,4,0:0:0:0:
88,242,118615,2,0,P|48:271|-9:269,2,100,4|12|4,0:0|0:0|0:0,0:0:0:0:
106,144,119680,1,12,0:0:0:0:
126,46,120035,2,0,P|174:31|230:53,1,100,4|12,0:0|0:0,0:0:0:0:
305,96,120745,2,0,P|353:111|409:89,1,100,4|12,0:0|0:0,0:0:0:0:
485,47,121455,6,0,L|484:152,1,100,4|12,0:0|0:0,0:0:0:0:
430,231,122165,2,0,L|441:331,1,100,4|12,0:0|0:0,0:0:0:0:
341,337,122875,2,0,B|328:195|328:195|371:140,2,200,2|2|4,0:1|0:1|0:0,0:0:0:0:
241,337,124650,5,8,0:0:0:0:
103,191,125360,1,8,0:0:0:0:
243,49,126070,1,8,0:0:0:0:
194,242,126780,1,8,0:0:0:0:
107,291,127135,2,0,P|57:288|19:253,1,100,2|8,0:1|0:0,0:0:0:0:
3,209,127668,2,0,L|10:100,1,100
14,59,128201,5,8,0:0:0:0:
195,143,128911,1,8,0:0:0:0:
365,37,129621,1,8,0:0:0:0:
463,52,129976,6,0,P|448:103|400:130,1,100,4|4,0:0|0:0,0:0:0:0:
310,123,130686,2,0,P|296:172|316:229,1,100,4|4,0:0|0:0,0:0:0:0:
371,295,131396,2,0,P|327:317|264:302,1,100,4|4,0:0|0:0,0:0:0:0:
194,256,132106,2,0,P|145:246|98:262,1,100,4|4,0:0|0:0,0:0:0:0:
154,344,132816,6,0,B|138:175|138:175|178:112|161:51|99:7,1,350,8|4,0:0|0:0,0:0:0:0:
33,144,134591,2,0,L|57:351,1,200,2|4,0:1|0:0,0:0:0:0:
155,344,135656,6,0,P|228:286|337:298,1,200,4|2,0:0|0:1,0:0:0:0:
413,352,136721,1,8,0:0:0:0:
456,328,136899,2,0,P|477:258|445:178,1,150,2|8,0:0|0:0,0:0:0:0:
359,154,137786,2,0,L|245:160,1,100,2|8,0:1|0:0,0:0:0:0:
209,162,138319,1,2,0:0:0:0:
193,260,138674,6,0,L|183:316,2,50,2|8|2,0:0|0:0|0:0,0:0:0:0:
115,196,139384,2,0,L|73:224,2,50,2|8|2,0:0|0:0|0:0,0:0:0:0:
115,96,140094,2,0,L|67:76,2,50,2|8|2,0:0|0:0|0:0,0:0:0:0:
208,61,140804,2,0,L|196:3,2,50,2|8|2,0:0|0:0|0:0,0:0:0:0:
252,84,141337,6,0,P|301:98|361:73,1,100,4|8,0:0|0:0,0:0:0:0:
380,47,141869,1,2,0:0:0:0:
474,79,142224,2,0,P|481:47|477:25,2,50,2|8|2,0:0|0:0|0:0,0:0:0:0:
448,121,142757,2,0,P|437:172|455:222,1,100,2|8,0:1|0:0,0:0:0:0:
487,251,143289,1,2,0:0:0:0:
428,331,143644,2,0,P|403:336|366:327,1,50,2|4,0:0|0:0,0:0:0:0:
300,269,144177,6,0,L|302:105,1,150,4|4,0:0|0:0,0:0:0:0:
246,35,145064,1,2,0:1:0:0:
146,26,145420,2,0,P|74:32|27:98,1,150,4|2,0:0|0:1,0:0:0:0:
122,119,146307,2,0,L|186:209,1,100,2|0,0:1|0:0,0:0:0:0:
200,298,147017,6,0,P|246:283|274:240,1,100,4|4,0:1|0:0,0:0:0:0:
262,142,147727,1,2,0:1:0:0:
318,59,148082,2,0,P|362:48|419:71,1,100,8|2,0:0|0:1,0:0:0:0:
477,140,148792,2,0,L|472:241,1,100,8|2,0:0|0:1,0:0:0:0:
408,316,149502,1,8,0:0:0:0:
364,290,149680,6,0,P|298:273|232:317,1,150,0|8,0:0|0:0,0:0:0:0:
137,347,150567,1,2,0:1:0:0:
59,284,150922,1,8,0:0:0:0:
65,183,151278,2,0,P|74:132|58:78,1,100,2|8,0:1|0:0,0:0:0:0:
23,54,151810,2,0,P|66:83|157:52,1,150,0|4,0:0|0:0,0:0:0:0:
251,31,152698,6,0,L|353:36,1,100,4|4,0:0|0:0,0:0:0:0:
379,131,153408,2,0,L|277:126,1,100,4|4,0:0|0:0,0:0:0:0:
240,218,154118,2,0,L|339:222,1,100,4|4,0:0|0:0,0:0:0:0:
364,319,154828,2,0,L|264:314,1,100,4|4,0:0|0:0,0:0:0:0:
167,287,155538,6,0,P|140:245|141:195,1,100,4|4,0:0|0:0,0:0:0:0:
161,151,156070,2,0,P|184:131|214:127,1,50,0|4,0:1|0:0,0:0:0:0:
302,126,156603,1,12,0:0:0:0:
355,210,156958,2,0,P|397:177|406:129,1,100,2|2,0:1|0:1,0:0:0:0:
362,43,157668,2,0,P|307:19|265:32,1,100,2|2,0:1|0:1,0:0:0:0:
200,99,158378,1,2,0:1:0:0:
155,122,158556,6,0,P|89:139|13:93,2,150,4|4|4,0:0|0:0|0:0,0:0:0:0:
272,28,160153,2,0,P|338:11|414:57,1,150,4|4,0:0|0:0,0:0:0:0:
434,89,160863,2,0,L|432:149,1,50,2|2,0:0|0:0,0:0:0:0:
355,203,161396,6,0,L|374:361,2,150,4|4|4,0:0|0:0|0:0,0:0:0:0:
208,176,162993,2,0,L|222:24,1,150,4|8,0:0|3:0,0:0:0:0:
122,15,163881,1,2,0:1:0:0:
52,87,164236,6,0,P|30:153|68:228,1,150,4|4,0:0|0:0,0:0:0:0:
190,300,165301,2,0,L|340:295,1,150,4|4,0:0|0:0,0:0:0:0:
438,182,166366,2,0,P|464:198|476:227,2,50,4|0|4,0:0|0:0|0:0,0:0:0:0:
389,167,166899,2,0,L|239:172,1,150,4|4,0:0|0:0,0:0:0:0:
256,192,167964,12,4,169739,0:0:0:0:
424,316,180745,6,0,L|320:320,1,100,0|4,3:0|0:0,0:0:0:0:
224,309,181455,1,2,0:1:0:0:
160,231,181810,1,2,0:1:0:0:
155,131,182165,1,2,0:1:0:0:
219,54,182520,2,0,P|263:29|328:38,1,100,2|2,0:1|0:1,0:0:0:0:
358,47,183053,2,0,L|355:149,1,100,8|8,3:0|3:0,0:0:0:0:
353,196,183585,1,2,0:1:0:0:
410,277,183940,5,4,0:0:0:0:
337,346,184295,2,0,P|286:339|250:304,1,100,2|2,0:1|0:1,0:0:0:0:
241,257,184828,2,0,L|242:155,1,100
241,107,185360,1,4,0:0:0:0:
167,38,185715,1,8,0:0:0:0:
68,56,186070,1,8,0:0:0:0:
37,151,186425,1,2,0:1:0:0:
87,237,186780,6,0,P|39:252|-16:234,1,100,4|4,0:0|0:0,0:0:0:0:
37,151,187491,2,0,P|90:135|138:155,1,100,4|4,0:0|0:0,0:0:0:0:
189,231,188201,2,0,L|183:334,1,100,4|4,0:0|0:0,0:0:0:0:
282,321,188911,2,0,L|287:221,1,100,4|4,0:0|0:0,0:0:0:0:
366,158,189621,6,0,P|414:148|470:181,1,100,4|4,0:0|0:0,0:0:0:0:
402,251,190331,2,0,L|397:313,2,50,4|0|4,0:0|0:0|0:0,0:0:0:0:
366,157,191041,2,0,L|376:58,1,100,2|2,0:1|0:1,0:0:0:0:
276,68,191751,2,0,P|224:79|176:58,1,100,2|2,0:1|0:1,0:0:0:0:
143,30,192283,2,0,P|177:61|166:170,1,150,4|0,0:0|0:0,0:0:0:0:
86,111,193171,1,2,0:0:0:0:
87,210,193526,1,0,0:0:0:0:
172,261,193881,6,0,L|276:256,1,100,4|12,0:1|0:0,0:0:0:0:
358,206,194591,2,0,P|376:251|365:300,1,100,2|8,0:1|0:0,0:0:0:0:
349,347,195124,2,0,L|199:353,1,150,2|8,0:0|0:0,0:0:0:0:
101,330,196011,2,0,P|72:285|74:232,1,100,2|8,0:1|0:0,0:0:0:0:
86,192,196544,1,2,0:0:0:0:
166,132,196899,6,0,L|212:107,2,50,2|8|2,0:0|0:0|0:0,0:0:0:0:
198,226,197609,2,0,L|154:249,2,50,2|8|2,0:0|0:0|0:0,0:0:0:0:
284,175,198319,2,0,L|327:151,2,50,2|8|2,0:0|0:0|0:0,0:0:0:0:
290,274,199029,2,0,L|246:297,2,50,2|8|2,0:0|0:0|0:0,0:0:0:0:
335,253,199562,6,0,P|383:239|438:263,1,100,4|8,0:0|0:0,0:0:0:0:
469,283,200094,1,2,0:0:0:0:
503,189,200449,2,0,L|496:89,1,100,2|2,0:0|0:0,0:0:0:0:
470,45,200982,2,0,P|423:27|372:47,1,100,2|8,0:1|0:0,0:0:0:0:
341,76,201514,1,2,0:0:0:0:
259,133,201869,1,2,0:0:0:0:
212,151,202047,6,0,P|159:162|112:137,1,100,4|4,0:0|0:0,0:0:0:0:
24,27,202934,2,0,L|39:231,1,200,4|4,0:0|0:0,0:0:0:0:
65,322,203999,2,0,P|33:330|7:317,2,50,8|8|8,0:0|0:0|0:0,0:0:0:0:
110,299,204532,2,0,P|159:288|208:304,1,100,2|2,0:1|0:1,0:0:0:0:
295,346,205242,6,0,L|303:240,1,100,4|4,0:1|0:0,0:0:0:0:
271,206,205775,2,0,L|265:43,1,150,0|8,0:0|0:0,0:0:0:0:
353,103,206662,2,0,P|396:114|454:87,1,100,2|8,0:1|0:0,0:0:0:0:
485,186,207372,2,0,P|497:233|482:294,1,100,2|8,0:1|0:0,0:0:0:0:
472,330,207905,5,2,0:0:0:0:
382,286,208260,1,2,0:0:0:0:
332,278,208437,2,0,P|298:272|237:311,1,100,8|2,0:0|0:1,0:0:0:0:
161,358,209147,1,8,0:0:0:0:
82,295,209502,2,0,P|63:248|76:189,1,100,2|8,0:1|0:0,0:0:0:0:
101,160,210035,2,0,L|261:165,1,150,2|4,0:0|0:0,0:0:0:0:
332,107,210922,5,4,0:0:0:0:
418,157,211278,1,4,0:0:0:0:
392,253,211633,1,4,0:0:0:0:
292,257,211988,1,4,0:0:0:0:
251,165,212343,2,0,P|210:192|191:243,1,100,4|4,0:0|0:0,0:0:0:0:
221,328,213053,2,0,P|264:355|321:351,1,100,4|4,0:0|0:0,0:0:0:0:
393,296,213763,6,0,L|390:187,1,100,4|4,0:0|0:0,0:0:0:0:
387,146,214295,1,0,0:0:0:0:
383,95,214473,2,0,P|342:106|284:81,1,100,4|4,0:0|0:0,0:0:0:0:
204,37,215183,2,0,P|154:25|103:51,1,100
65,132,215893,2,0,L|72:234,1,100
109,324,216603,6,0,P|156:338|203:314,1,100,4|0,0:0|0:0,0:0:0:0:
232,279,217135,2,0,L|227:166,2,100,2|2|2,0:3|0:3|0:3,0:0:0:0:
330,299,218201,2,0,L|325:186,1,100,2|2,0:3|0:3,0:0:0:0:
422,225,218911,2,0,L|425:279,2,50,2|0|2,0:3|0:0|0:3,0:0:0:0:
450,184,219443,6,0,L|445:79,1,100,4|0,0:0|0:0,0:0:0:0:
418,41,219976,2,0,P|366:28|321:48,1,100,2|2,0:3|0:3,0:0:0:0:
246,106,220686,2,0,P|193:106|155:75,1,100,0|2,0:3|0:3,0:0:0:0:
130,36,221218,2,0,L|127:154,1,100,4|8,0:0|0:0,0:0:0:0:
173,224,221928,2,0,L|179:282,1,50
159,320,222283,6,0,P|108:336|55:316,1,100,4|0,0:0|0:0,0:0:0:0:
30,286,222816,2,0,L|20:177,1,100,2|2,0:3|0:3,0:0:0:0:
35,87,223526,2,0,L|30:30,1,50,2|0,0:3|0:0,0:0:0:0:
130,35,224059,2,0,L|134:92,1,50,0|2,0:0|0:3,0:0:0:0:
187,169,224591,2,0,P|228:186|287:165,1,100,0|0,0:0|0:0,0:0:0:0:
317,138,225124,5,4,0:0:0:0:
436,47,225656,2,0,P|478:131|436:237,1,200,4|4,0:0|0:0,0:0:0:0:
371,292,226721,2,0,P|387:312|413:321,2,50,2|2|2,0:1|0:1|0:1,0:0:0:0:
340,252,227254,2,0,L|232:256,1,100,0|0,0:0|0:0,0:0:0:0:
153,306,227964,6,0,P|137:258|151:210,1,100,4|8,0:1|0:0,0:0:0:0:
177,170,228496,2,0,P|201:99|163:27,1,150,0|8,0:0|0:0,0:0:0:0:
71,26,229384,2,0,L|64:133,1,100,2|8,0:1|0:0,0:0:0:0:
26,218,230094,2,0,L|35:335,1,100,2|8,0:1|0:0,0:0:0:0:
71,350,230627,6,0,P|119:363|168:343,1,100,2|2,0:0|0:0,0:0:0:0:
203,314,231159,1,8,0:0:0:0:
283,254,231514,2,0,P|332:239|387:265,1,100,2|8,0:1|0:0,0:0:0:0:
455,316,232224,2,0,B|476:269|476:269|462:202,1,100,2|4,0:1|0:0,0:0:0:0:
440,178,232757,2,0,L|443:75,2,100,2|2|2,0:1|0:1|0:1,0:0:0:0:
256,192,233644,12,4,236485,0:0:0:0:
285,64,237195,5,0,0:0:0:0:
371,114,237550,1,0,0:0:0:0:
394,211,237905,6,0,P|250:318|301:68,1,600,4|0,0:1|0:0,0:0:0:0:
90,19,240745,2,0,P|16:153|105:373,1,400,4|4,0:0|0:0,0:0:0:0:
185,316,242520,6,0,P|232:305|280:322,1,100,4|0,0:0|0:0,0:0:0:0:
323,345,243053,2,0,L|320:237,1,100,2|2,0:0|0:0,0:0:0:0:
323,145,243763,2,0,L|418:196,1,100,2|2,0:0|0:0,0:0:0:0:
495,245,244473,2,0,L|402:301,1,100,2|2,0:0|0:0,0:0:0:0:
323,345,245183,6,0,P|272:358|217:338,1,100,2|2,0:0|0:0,0:0:0:0:
156,275,245893,2,0,P|128:270|97:280,2,50,6|12|6,0:0|0:0|0:0,0:0:0:0:
243,227,246603,2,0,P|255:174|237:122,1,100,4|4,0:0|0:0,0:0:0:0:
289,42,247313,2,0,P|328:78|430:69,1,150,4|4,0:0|0:0,0:0:0:0:
458,43,248023,6,0,L|463:149,1,100,2|2,0:0|0:0,0:0:0:0:
406,225,248733,2,0,L|410:333,1,100,2|2,0:0|0:0,0:0:0:0:
309,317,249443,2,0,L|305:217,1,100,2|2,0:0|0:0,0:0:0:0:
232,148,250153,2,0,L|230:94,2,50,2|12|2,0:0|0:0|0:0,0:0:0:0:
199,242,250863,6,0,L|204:351,1,100,4|4,0:0|0:0,0:0:0:0:
106,316,251573,2,0,L|103:261,1,50,4|4,0:0|0:0,0:0:0:0:
106,165,252106,2,0,P|145:69|355:108,1,350,2|2,0:1|0:1,0:0:0:0:
388,195,253704,6,0,L|385:262,1,50,4|4,0:0|0:0,0:0:0:0:
340,334,254236,2,0,P|311:338|285:333,1,50,4|4,0:0|0:0,0:0:0:0:
241,247,254769,2,0,L|243:186,1,50,4|4,0:0|0:0,0:0:0:0:
188,112,255301,2,0,P|160:108|134:114,1,50,4|4,0:0|0:0,0:0:0:0:
81,193,255834,2,0,L|85:258,1,50,4|4,0:0|0:0,0:0:0:0:
