osu file format v13

[General]
AudioFilename: 01 - Tokohana.mp3
AudioLeadIn: 1500
PreviewTime: 63496
Countdown: 0
SampleSet: Soft
StackLeniency: 0.7
Mode: 0
LetterboxInBreaks: 1
EpilepsyWarning: 1
WidescreenStoryboard: 1

[Editor]
DistanceSpacing: 1.5
BeatDivisor: 8
GridSize: 4
TimelineZoom: 3.599999

[Metadata]
Title:Tokohana
TitleUnicode:トコハナ
Artist:yanaginagi
ArtistUnicode:やなぎなぎ
Creator:P A N
Version:Insane
Source:ブラック・ブレット
Tags:ending black_bullet sharlo p_a_n
BeatmapID:435273
BeatmapSetID:181310

[Difficulty]
HPDrainRate:7
CircleSize:4
OverallDifficulty:7
ApproachRate:9
SliderMultiplier:2.1
SliderTickRate:1

[Events]
//Background and Video events
0,0,"bgg.jpg",0,0
//Break Periods
2,169939,180145
//Storyboard Layer 0 (Background)
//Storyboard Layer 1 (Fail)
//Storyboard Layer 2 (Pass)
//Storyboard Layer 3 (Foreground)
//Storyboard Sound Samples
//Background Colour Transformations
3,100,163,162,255

[TimingPoints]
344,400,4,2,2,50,1,0
744,-133.333333333333,4,2,2,50,0,0
12944,-133.333333333333,4,2,1,30,0,0
14944,-133.333333333333,4,2,1,40,0,0
16544,-133.333333333333,4,2,1,50,0,0
18144,-133.333333333333,4,2,1,20,0,0
19207,355.029585798817,4,1,0,100,1,0
19207,-100,4,2,1,70,0,1
24532,-100,4,2,1,50,0,0
24887,-100,4,2,1,70,0,1
28792,-100,4,2,1,40,0,1
28970,-100,4,2,1,45,0,1
29147,-100,4,2,1,50,0,1
29325,-100,4,2,1,55,0,1
29502,-100,4,2,1,60,0,1
29680,-100,4,2,1,65,0,1
29857,-100,4,2,1,70,0,1
30212,-133.333333333333,4,2,2,60,0,1
30567,-133.333333333333,4,2,2,60,0,0
31988,-133.333333333333,4,2,2,60,0,0
32254,-100,4,2,2,5,0,0
32343,-100,4,2,2,60,0,0
32609,-100,4,2,2,5,0,0
32698,-100,4,2,2,60,0,0
33053,-133.333333333333,4,2,2,60,0,0
34473,-100,4,2,2,60,0,0
34828,-100,4,2,2,60,0,0
35094,-133.333333333333,4,2,2,5,0,0
35183,-133.333333333333,4,2,2,60,0,0
35449,-200,4,2,2,5,0,0
35538,-200,4,2,2,60,0,0
35804,-200,4,2,2,5,0,0
35893,-100,4,2,2,60,0,0
37313,-200,4,2,2,60,0,0
37579,-200,4,2,2,5,0,0
37668,-200,4,2,2,60,0,0
37934,-133.333333333333,4,2,2,5,0,0
38023,-133.333333333333,4,2,2,60,0,0
38289,-100,4,2,2,5,0,0
38378,-100,4,2,2,60,0,0
38644,-80,4,2,2,5,0,0
38733,-80,4,2,2,70,0,0
38999,-80,4,2,2,5,0,0
39088,-80,4,2,1,70,0,0
39798,-100,4,2,1,70,0,0
41218,-100,4,2,1,50,0,0
42994,-133.333333333333,4,2,1,70,0,0
43349,-133.333333333333,4,2,1,70,0,0
43615,-100,4,2,1,5,0,0
43704,-100,4,2,1,70,0,0
43970,-100,4,2,1,5,0,0
44059,-100,4,2,1,70,0,0
45124,-100,4,2,1,70,0,0
45390,-133.333333333333,4,2,1,5,0,0
45479,-133.333333333333,4,2,1,70,0,0
45745,-133.333333333333,4,2,1,5,0,0
45834,-133.333333333333,4,2,1,70,0,0
46189,-100,4,2,1,70,0,0
46455,-133.333333333333,4,2,1,5,0,0
46544,-133.333333333333,4,2,1,70,0,0
46810,-133.333333333333,4,2,1,5,0,0
46899,-100,4,2,1,70,0,0
48674,-200,4,2,1,70,0,0
49029,-200,4,2,1,70,0,0
49295,-133.333333333333,4,2,1,5,0,0
49384,-133.333333333333,4,2,1,70,0,0
49650,-133.333333333333,4,2,1,5,0,0
49739,-100,4,2,1,70,0,0
50094,-80,4,2,1,70,0,0
50360,-80,4,2,1,5,0,0
50449,-80,4,2,1,70,0,0
51159,-100,4,2,1,70,0,0
51425,-100,4,2,1,5,0,0
51514,-100,4,2,1,70,0,0
51780,-100,4,2,1,5,0,0
51869,-100,4,2,1,70,0,0
52934,-200,4,2,1,60,0,0
53644,-200,4,2,2,60,0,0
63230,-200,4,2,1,60,0,0
63585,-200,4,2,1,60,0,0
63852,-133.333333333333,4,2,1,5,0,0
63940,-133.333333333333,4,2,2,60,0,0
64207,-200,4,2,1,5,0,0
64295,-200,4,2,1,80,0,0
64562,-200,4,2,1,5,0,0
64650,-100,4,2,1,80,0,1
74946,-100,4,2,1,80,0,1
75301,-100,4,2,1,50,0,1
75656,-100,4,2,1,80,0,0
76011,-100,4,2,1,80,0,1
76278,-100,4,2,1,5,0,1
76366,-100,4,2,1,80,0,1
81337,-100,4,2,2,80,0,1
85597,-100,4,2,1,70,0,1
85952,-100,4,2,1,60,0,0
86218,-133.333333333333,4,2,1,5,0,0
86307,-133.333333333333,4,2,2,50,0,0
86573,-200,4,2,1,5,0,0
86662,-200,4,2,2,60,0,0
86928,-200,4,2,1,5,0,0
87017,-133.333333333333,4,2,2,50,0,0
87283,-133.333333333333,4,2,1,5,0,0
87372,-100,4,2,1,70,0,0
89857,-100,4,2,1,50,0,0
90212,-133.333333333333,4,2,1,70,0,0
90390,-100,4,2,1,40,0,0
90567,-100,4,2,1,70,0,1
95183,-100,4,2,1,70,0,0
95360,-100,4,2,1,5,0,0
95449,-100,4,2,1,70,0,0
95627,-100,4,2,1,5,0,0
95715,-100,4,2,1,70,0,0
95893,-100,4,2,1,70,0,1
101573,-100,4,2,1,70,0,0
107254,-100,4,2,1,80,0,0
107520,-100,4,2,1,5,0,0
107609,-100,4,2,3,53,0,0
108674,-200,4,2,3,53,0,0
108940,-200,4,2,3,5,0,0
109029,-133.333333333333,4,2,3,53,0,0
109295,-133.333333333333,4,2,3,5,0,0
109384,-100,4,2,3,53,0,0
109650,-100,4,2,3,5,0,0
109739,-80,4,2,3,53,0,0
110005,-80,4,2,3,5,0,0
110094,-100,4,2,3,53,0,0
111514,-100,4,2,1,70,0,0
113289,-100,4,2,3,53,0,0
114354,-200,4,2,3,53,0,0
114621,-200,4,2,3,5,0,0
114709,-133.333333333333,4,2,3,53,0,0
114976,-133.333333333333,4,2,3,5,0,0
115064,-100,4,2,3,53,0,0
115331,-100,4,2,3,5,0,0
115420,-100,4,2,3,53,0,0
115597,-100,4,2,2,70,0,0
115775,-100,4,2,3,53,0,0
117372,-100,4,2,1,53,0,0
117905,-100,4,2,1,70,0,0
118615,-100,4,2,1,70,0,0
118970,-100,4,2,3,53,0,0
120035,-200,4,2,3,53,0,0
120390,-133.333333333333,4,2,3,55,0,0
120745,-100,4,2,3,57,0,0
121100,-80,4,2,3,59,0,0
121455,-100,4,2,3,53,0,0
121633,-100,4,2,2,70,0,0
121810,-100,4,2,3,53,0,0
121988,-100,4,2,2,70,0,0
122165,-100,4,2,2,53,0,0
122343,-100,4,2,2,70,0,0
122520,-100,4,2,3,53,0,0
122698,-100,4,2,2,70,0,0
122875,-100,4,2,1,53,0,0
123585,-100,4,2,1,40,0,0
123940,-100,4,2,1,30,0,0
124295,-133.333333333333,4,2,2,70,0,0
131396,-133.333333333333,4,2,1,80,0,0
132816,-100,4,2,1,50,0,0
133171,-100,4,2,1,70,0,0
133349,-100,4,2,1,50,0,0
133704,-100,4,2,1,70,0,0
134414,-100,4,2,1,50,0,0
135301,-200,4,2,1,70,0,0
135567,-200,4,2,1,5,0,0
135656,-100,4,2,1,70,0,1
145775,-100,4,2,1,50,0,1
146662,-200,4,2,1,70,0,0
146928,-200,4,2,1,5,0,0
147017,-100,4,2,1,70,0,1
156958,-100,4,2,1,70,0,0
157313,-100,4,2,1,50,0,0
157668,-100,4,2,1,40,0,0
158023,-100,4,2,1,30,0,0
158556,-100,4,2,1,70,0,0
160863,-100,4,2,2,50,0,0
161396,-100,4,2,1,80,0,0
162638,-100,4,2,2,50,0,0
162993,-100,4,2,1,80,0,0
163349,-100,4,2,1,50,0,0
164236,-100,4,2,1,70,0,0
166544,-100,4,2,2,70,0,0
180745,-200,4,2,1,70,0,0
181011,-200,4,2,1,5,0,0
181100,-200,4,2,1,60,0,0
186780,-100,4,2,1,80,0,0
192283,-133.333333333333,4,2,1,60,0,0
192727,-133.333333333333,4,2,1,5,0,0
192816,-200,4,2,2,60,0,0
193082,-200,4,2,1,5,0,0
193171,-100,4,2,1,20,0,0
193526,-66.6666666666667,4,2,1,20,0,0
193881,-100,4,2,1,80,0,1
204532,-133.333333333333,4,2,1,60,0,1
204887,-133.333333333333,4,2,1,60,0,0
205242,-100,4,2,1,70,0,1
215360,-100,4,2,1,40,0,1
215538,-100,4,2,1,60,0,1
216514,-100,4,2,1,60,0,0
216603,-100,4,2,1,70,0,1
221573,-100,4,2,1,50,0,0
222283,-100,4,2,1,70,0,1
223704,-100,4,2,2,70,0,1
223792,-100,4,2,1,5,0,1
223881,-100,4,2,2,70,0,1
223970,-100,4,2,1,5,0,1
224059,-100,4,2,2,70,0,1
224147,-100,4,2,1,5,0,1
224236,-100,4,2,2,80,0,1
224414,-100,4,2,1,80,0,1
226721,-100,4,2,1,60,0,1
227609,-100,4,2,1,60,0,0
227964,-100,4,2,1,70,0,1
233644,-100,4,2,2,70,0,1
236485,-100,4,2,1,70,0,1
237550,-133.333333333333,4,2,1,70,0,1
237905,-100,4,2,1,70,0,0
238171,-100,4,2,1,5,0,0
238260,-133.333333333333,4,2,1,60,0,0
238526,-133.333333333333,4,2,1,5,0,0
238615,-200,4,2,1,50,0,0
238881,-200,4,2,1,5,0,0
238970,-133.333333333333,4,2,1,40,0,0
239059,-133.333333333333,4,2,1,20,0,0
240035,-133.333333333333,4,2,1,70,0,0
242520,-100,4,2,1,70,0,1
253349,-100,4,2,1,70,0,0
256366,-100,4,2,1,50,0,0

[Colours]
Combo1 : 128,64,64
Combo2 : 255,87,45
Combo3 : 0,0,64
Combo4 : 255,255,128
SliderBorder : 255,240,138

[HitObjects]
400,276,744,5,2,2:0:0:0:
352,208,944,1,0,2:0:0:0:
328,304,1144,6,0,P|360:344|460:328,1,157.500006008148,2|2,0:0|0:0,0:0:0:0:
480,256,1744,1,0,0:0:0:0:
352,208,1944,2,0,L|192:216,1,157.500006008148,2|2,0:0|0:0,0:0:0:0:
152,280,2544,1,0,0:0:0:0:
80,204,2744,6,0,P|96:140|180:108,1,157.500006008148,2|2,0:0|0:0,0:0:0:0:
248,136,3344,1,0,0:0:0:0:
352,208,3544,2,0,P|412:224|484:164,1,157.500006008148,2|2,0:0|0:0,0:0:0:0:
404,148,4144,1,0,0:0:0:0:
280,200,4344,6,0,P|252:264|292:348,1,157.500006008148,2|2,0:0|0:0,0:0:0:0:
356,308,4944,1,0,0:0:0:0:
280,200,5144,2,0,L|116:204,1,157.500006008148,2|2,0:0|0:0,0:0:0:0:
88,276,5744,1,0,0:0:0:0:
12,200,5944,6,0,P|4:160|12:116,1,78.7500030040742,2|0,0:0|0:0,0:0:0:0:
152,64,6344,2,0,L|232:68,1,78.7500030040742,4|0,0:3|0:0,0:0:0:0:
380,24,6744,1,4,0:3:0:0:
348,160,6944,1,4,0:3:0:0:
324,84,7144,1,2,0:0:0:0:
400,100,7344,1,0,0:0:0:0:
412,208,7544,6,0,P|344:240|276:196,1,157.500006008148,2|2,0:0|0:0,0:0:0:0:
248,128,8144,1,0,0:0:0:0:
132,76,8344,2,0,P|88:64|0:124,1,157.500006008148,2|2,0:0|0:0,0:0:0:0:
12,200,8944,1,0,0:0:0:0:
116,232,9144,6,0,L|132:76,1,157.500006008148,2|2,0:0|0:0,0:0:0:0:
196,32,9744,1,0,0:0:0:0:
248,128,9944,2,0,P|308:148|376:92,1,157.500006008148,2|2,0:0|0:0,0:0:0:0:
300,68,10544,1,0,0:0:0:0:
232,156,10744,6,0,L|244:320,1,157.500006008148,2|2,0:0|0:0,0:0:0:0:
308,360,11344,1,0,0:0:0:0:
256,192,11544,12,0,12944,0:0:0:0:
256,192,13344,12,0,14944,0:0:0:0:
256,192,15044,12,0,16544,0:0:0:0:
256,192,16644,12,0,18144,0:0:0:0:
416,268,19207,5,4,0:1:0:0:
300,188,19384,1,2,0:0:0:0:
436,184,19562,1,8,0:0:0:0:
332,268,19739,6,0,P|276:272|228:232,1,105,2|2,0:0|0:1,0:0:0:0:
272,95,20094,2,0,P|302:136|300:188,1,105,2|8,0:0|0:0,0:0:0:0:
152,231,20449,2,0,P|173:183|218:159,1,105,2|2,0:0|0:1,0:0:0:0:
400,180,20804,6,0,L|508:188,1,105,2|8,0:0|0:0,0:0:0:0:
332,268,21159,2,0,L|430:312,1,105,2|2,0:0|0:1,0:0:0:0:
208,296,21514,2,0,L|285:371,1,105,2|8,0:0|0:0,0:0:0:0:
76,284,21869,2,0,L|123:381,1,105,2|2,0:0|0:1,0:0:0:0:
152,232,22224,6,0,P|168:180|148:128,1,105,2|8,0:0|0:0,0:0:0:0:
108,28,22579,2,0,P|160:44|212:24,1,105,2|2,0:0|0:1,0:0:0:0:
320,8,22934,2,0,P|304:60|324:112,1,105,2|8,0:0|0:0,0:0:0:0:
356,212,23289,2,0,P|304:196|252:216,1,105,2|2,0:0|0:1,0:0:0:0:
256,324,23644,1,2,0:0:0:0:
196,164,23822,1,8,0:0:0:0:
100,300,23999,6,0,P|48:296|8:260,1,105,2|2,0:0|0:1,0:0:0:0:
64,132,24354,1,2,0:0:0:0:
196,164,24532,1,8,0:0:0:0:
217,211,24621,1,0,0:0:0:0:
226,262,24709,1,8,0:0:0:0:
217,313,24798,1,8,0:0:0:0:
192,359,24887,6,0,L|300:349,1,105,4|2,0:0|0:0,0:0:0:0:
384,290,25242,1,8,0:0:0:0:
360,186,25420,2,0,P|308:206|284:258,1,105,2|2,0:0|0:1,0:0:0:0:
468,226,25775,1,2,0:0:0:0:
468,226,25863,1,0,0:0:0:0:
468,226,25952,2,0,L|476:166,1,52.5,8|0,0:0|0:0,0:0:0:0:
504,130,26130,2,0,P|452:130|412:86,1,105,2|2,0:0|0:1,0:0:0:0:
328,35,26485,6,0,L|223:42,1,105,2|8,0:0|0:0,0:0:0:0:
64,124,26840,2,0,L|168:132,1,105,2|2,0:0|0:1,0:0:0:0:
24,220,27195,2,0,P|8:272|28:320,1,105,2|8,0:0|0:0,0:0:0:0:
132,316,27550,2,0,P|148:264|128:216,1,105,2|2,0:0|0:1,0:0:0:0:
176,124,27905,6,0,L|280:132,1,105,2|8,0:0|0:0,0:0:0:0:
384,116,28260,2,0,P|400:72|384:16,1,105,2|2,0:0|0:1,0:0:0:0:
280,28,28615,1,2,0:0:0:0:
176,124,28792,2,0,L|184:228,1,105,12|0,0:0|0:0,0:0:0:0:
288,328,29147,5,4,0:0:0:0:
320,216,29325,1,2,0:1:0:0:
192,320,29502,5,8,0:0:0:0:
384,292,29680,1,8,0:0:0:0:
280,104,29857,5,8,0:0:0:0:
288,328,30035,1,8,0:0:0:0:
408,176,30212,5,8,0:0:0:0:
184,208,30390,1,8,0:0:0:0:
184,208,30479,1,0,0:0:0:0:
184,208,30567,6,0,P|140:204|112:176,1,78.7500030040742,4|0,0:0|0:0,0:0:0:0:
68,68,30922,1,2,0:0:0:0:
176,134,31100,1,2,0:1:0:0:
48,144,31278,1,2,0:0:0:0:
147,61,31455,1,2,0:1:0:0:
264,148,31633,1,2,0:0:0:0:
264,32,31810,1,2,0:1:0:0:
176,134,31988,6,0,P|188:200|230:229,1,118.125004506111,2|0,0:0|0:0,0:0:0:0:
307,224,32343,6,0,L|467:216,1,157.5,2|0,0:0|0:0,0:0:0:0:
507,212,32698,5,2,0:0:0:0:
451,148,32875,1,2,0:1:0:0:
431,288,33053,1,2,0:0:0:0:
379,124,33230,1,2,0:1:0:0:
358,306,33408,6,0,L|274:314,1,78.7500030040742,2|2,0:0|0:1,0:0:0:0:
168,348,33763,1,2,0:0:0:0:
228,248,33940,1,2,0:1:0:0:
180,156,34118,1,2,0:0:0:0:
312,228,34295,1,2,0:1:0:0:
200,296,34473,1,2,0:0:0:0:
268,136,34650,1,2,0:1:0:0:
152,236,34828,6,0,P|92:176|104:108,1,157.5,2|0,0:0|0:0,0:0:0:0:
164,64,35183,6,0,P|212:64|264:116,1,118.125004506111,2|0,0:0|0:0,0:0:0:0:
272,184,35538,6,0,L|360:180,1,78.75,2|0,0:0|0:0,0:0:0:0:
392,176,35893,1,2,0:0:0:0:
304,256,36070,1,2,0:1:0:0:
340,104,36248,6,0,L|444:100,1,105,2|2,0:0|0:1,0:0:0:0:
508,208,36603,1,2,0:0:0:0:
440,304,36780,1,2,0:1:0:0:
392,176,36958,1,2,0:0:0:0:
508,208,37135,1,2,0:1:0:0:
372,256,37313,1,2,0:0:0:0:
463,138,37491,1,2,0:1:0:0:
445,242,37668,6,0,P|410:259|372:256,1,78.75,2|0,0:0|0:0,0:0:0:0:
312,200,38023,6,0,P|308:144|352:100,1,118.125004506111,2|0,0:0|0:0,0:0:0:0:
416,64,38378,6,0,L|256:68,1,157.5,2|0,0:0|0:0,0:0:0:0:
192,28,38733,6,0,L|204:236,1,196.875,4|0,0:0|0:0,0:0:0:0:
208,312,39088,5,4,0:0:0:0:
120,200,39266,1,2,0:1:0:0:
312,200,39443,1,8,0:0:0:0:
280,336,39621,1,2,0:1:0:0:
280,336,39709,1,0,0:0:0:0:
280,336,39798,1,2,0:1:0:0:
212,188,39976,1,2,0:1:0:0:
104,312,40153,2,0,P|56:300|24:256,1,105,8|0,0:0|0:0,0:0:0:0:
116,120,40508,6,0,P|164:132|196:176,1,105,4|0,0:0|0:0,0:0:0:0:
176,352,40863,1,8,0:0:0:0:
120,200,41041,1,2,0:1:0:0:
280,336,41218,1,2,0:1:0:0:
328,315,41307,1,2,0:1:0:0:
363,275,41396,1,2,0:1:0:0:
384,226,41485,1,2,0:1:0:0:
391,174,41573,5,2,0:1:0:0:
376,124,41662,1,2,0:1:0:0:
356,76,41751,1,2,0:1:0:0:
316,40,41840,1,2,0:1:0:0:
264,32,41928,6,0,L|152:36,1,105,4|0,0:0|0:0,0:0:0:0:
60,128,42283,1,8,0:0:0:0:
88,260,42461,1,0,0:0:0:0:
192,172,42638,1,2,0:1:0:0:
60,128,42816,1,2,0:1:0:0:
0,252,42993,1,8,0:0:0:0:
60,128,43171,1,0,0:0:0:0:
96,280,43349,6,0,P|144:320|208:316,1,118.125004506111,2|0,0:1|0:0,0:0:0:0:
272,300,43704,6,0,P|324:264|344:172,1,157.5,8|0,0:0|0:0,0:0:0:0:
324,128,44059,1,2,0:1:0:0:
248,200,44236,1,2,0:1:0:0:
200,104,44414,2,0,L|96:108,1,105,8|0,0:0|0:0,0:0:0:0:
276,40,44769,2,0,L|380:44,1,105,2|0,0:1|0:0,0:0:0:0:
452,124,45124,6,0,P|468:184|444:288,1,157.5,8|0,0:0|0:0,0:0:0:0:
416,256,45479,6,0,P|428:208|416:140,1,118.125004506111,2|0,0:1|0:0,0:0:0:0:
388,112,45834,5,8,0:0:0:0:
328,196,46011,1,0,0:0:0:0:
236,144,46189,2,0,P|220:192|240:244,1,105,2|2,0:1|0:1,0:0:0:0:
332,308,46544,6,0,P|280:348|220:344,1,118.125004506111,8|0,0:0|0:0,0:0:0:0:
164,312,46899,6,0,L|41:317,1,105,2|2,0:1|0:1,0:0:0:0:
218,222,47254,1,8,0:0:0:0:
69,227,47431,1,0,0:0:0:0:
92,226,47520,1,0,0:0:0:0:
113,224,47609,6,0,L|218:222,1,105,4|0,0:0|0:0,0:0:0:0:
332,308,47964,1,8,0:0:0:0:
192,304,48141,1,0,0:0:0:0:
304,224,48319,1,2,0:1:0:0:
260,352,48496,1,2,0:1:0:0:
392,248,48674,1,8,0:0:0:0:
303,224,48851,1,0,0:0:0:0:
332,308,49029,6,0,P|364:332|403:334,1,78.75,2|0,0:1|0:0,0:0:0:0:
468,300,49384,6,0,P|484:248|452:180,1,118.125004506111,8|0,0:0|0:0,0:0:0:0:
396,156,49739,6,0,P|344:160|308:200,1,105,2|2,0:1|0:1,0:0:0:0:
332,308,50094,6,0,P|256:304|192:200,1,196.875,4|0,0:0|0:0,0:0:0:0:
196,176,50449,5,4,0:0:0:0:
280,60,50627,1,2,0:1:0:0:
140,104,50804,1,12,0:0:0:0:
280,144,50982,1,0,0:0:0:0:
196,36,51159,2,0,P|144:12|96:24,1,105,4|2,0:0|0:1,0:0:0:0:
40,108,51514,2,0,L|48:268,1,157.5,12|0,0:0|0:0,0:0:0:0:
52,304,51869,5,4,0:0:0:0:
136,240,52047,1,2,0:1:0:0:
196,328,52224,2,0,P|243:342|296:323,1,105,4|0,0:0|0:0,0:0:0:0:
280,144,52579,1,2,0:1:0:0:
242,266,52757,1,8,0:0:0:0:
348,192,52934,1,2,0:1:0:0:
211,190,53112,1,2,0:1:0:0:
292,64,53289,5,4,0:0:0:0:
432,128,53644,1,2,0:0:0:0:
468,196,53822,2,0,L|464:268,1,52.5,0|2,0:0|0:0,0:0:0:0:
420,316,54177,1,0,0:0:0:0:
380,248,54354,1,2,0:0:0:0:
336,316,54532,1,0,0:0:0:0:
468,196,54709,1,2,0:0:0:0:
336,316,55420,5,2,0:0:0:0:
308,176,55775,1,0,0:0:0:0:
192,264,56130,2,0,L|80:268,1,105,4|2,0:0|0:0,0:0:0:0:
32,212,56662,2,0,P|16:168|40:104,1,105,0|2,0:0|0:0,0:0:0:0:
108,88,57195,1,2,0:0:0:0:
32,212,57372,1,0,0:0:0:0:
108,88,58260,5,2,0:0:0:0:
192,212,58615,1,0,0:0:0:0:
264,80,58970,2,0,P|316:64|372:88,1,105,2|2,0:0|0:0,0:0:0:0:
404,148,59502,2,0,L|400:256,1,105,0|2,0:0|0:0,0:0:0:0:
356,316,60035,2,0,B|290:286|209:325|209:325|128:360|52:319,1,315,2|0,0:0|0:0,0:0:0:0:
10,167,61455,1,2,0:0:0:0:
149,91,61810,6,0,B|189:102|241:55|241:55|268:100|330:87|330:87|339:150|405:153|405:153|374:211|417:259,1,420,4|0,0:0|0:0,0:0:0:0:
408,284,63585,6,0,L|320:280,1,78.75
276,276,63940,6,0,L|384:228,1,118.125004506111,2|0,0:0|0:0,0:0:0:0:
421,206,64295,6,0,L|405:302,1,78.75,0|0,0:0|0:0,0:0:0:0:
400,332,64650,5,4,0:1:0:0:
276,276,64828,1,2,0:0:0:0:
422,206,65005,1,8,0:0:0:0:
400,332,65183,1,2,0:0:0:0:
292,200,65360,2,0,P|240:200|200:240,1,105,2|2,0:1|0:0,0:0:0:0:
328,324,65715,1,8,0:0:0:0:
422,206,65893,6,0,P|436:152|416:104,1,105,2|2,0:0|0:1,0:0:0:0:
264,128,66248,1,2,0:0:0:0:
320,12,66425,1,8,0:0:0:0:
360,160,66603,1,2,0:0:0:0:
248,48,66780,1,2,0:1:0:0:
196,188,66958,1,2,0:0:0:0:
196,188,67047,1,0,0:0:0:0:
196,188,67135,1,8,0:0:0:0:
332,84,67313,5,2,0:0:0:0:
172,28,67491,1,2,0:1:0:0:
264,128,67668,1,2,0:0:0:0:
120,152,67846,2,0,P|112:208|140:252,1,105,8|2,0:0|0:0,0:0:0:0:
268,296,68201,1,2,0:1:0:0:
168,360,68378,1,2,0:0:0:0:
280,220,68556,2,0,P|326:241|346:299,1,105,8|2,0:0|0:0,0:0:0:0:
248,372,68911,5,2,0:1:0:0:
204,244,69088,1,2,0:0:0:0:
96,332,69266,2,0,P|64:292|68:224,1,105,8|2,0:0|0:0,0:0:0:0:
120,152,69621,1,2,0:1:0:0:
204,244,69798,1,2,0:0:0:0:
228,100,69976,1,8,0:0:0:0:
204,244,70153,1,2,0:0:0:0:
116,68,70331,6,0,P|64:80|35:129,1,105,4|2,0:0|0:0,0:0:0:0:
104,232,70686,1,8,0:0:0:0:
216,168,70863,2,0,L|320:176,1,105,2|2,0:0|0:1,0:0:0:0:
476,160,71218,1,2,0:0:0:0:
368,264,71396,1,8,0:0:0:0:
392,116,71573,1,2,0:0:0:0:
460,252,71751,6,0,P|452:312|408:348,1,105,2|2,0:1|0:0,0:0:0:0:
296,356,72106,1,8,0:0:0:0:
184,300,72283,2,0,L|80:308,1,105,2|2,0:0|0:1,0:0:0:0:
32,192,72638,1,2,0:0:0:0:
92,120,72816,1,4,0:0:0:0:
132,208,72993,1,2,0:0:0:0:
52,36,73171,5,12,0:0:0:0:
255,55,73349,1,2,0:1:0:0:
52,35,73526,1,2,0:1:0:0:
232,224,73704,6,0,L|336:212,1,105,4|2,0:0|0:1,0:0:0:0:
463,68,74059,1,2,0:1:0:0:
458,272,74236,1,2,0:1:0:0:
464,68,74414,6,0,L|252:54,1,210,4|2,0:0|0:1,0:0:0:0:
180,46,74946,2,0,L|127:42,1,52.5,8|0,0:0|0:0,0:0:0:0:
52,35,75124,2,0,L|0:31,1,52.5,8|0,0:0|0:0,0:0:0:0:
255,55,75301,1,8,0:0:0:0:
249,97,75390,1,8,0:0:0:0:
225,132,75479,1,8,0:0:0:0:
187,149,75567,1,8,0:0:0:0:
145,152,75656,1,2,0:1:0:0:
104,142,75745,1,2,0:1:0:0:
71,116,75834,1,2,0:1:0:0:
52,78,75922,1,2,0:1:0:0:
52,36,76011,6,0,L|44:211,1,157.5,4|0,0:0|0:0,0:0:0:0:
44,235,76366,1,4,0:0:0:0:
135,341,76544,2,0,P|176:306|184:249,1,105,2|2,0:0|0:1,0:0:0:0:
105,142,76899,1,2,0:0:0:0:
228,84,77076,2,0,P|284:92|336:88,1,105,8|2,0:0|0:0,0:0:0:0:
444,32,77431,2,0,P|436:88|440:140,1,105,2|2,0:1|0:0,0:0:0:0:
496,248,77786,2,0,P|440:240|388:244,1,105,8|2,0:0|0:0,0:0:0:0:
280,304,78141,2,0,P|288:248|284:196,1,105,2|2,0:1|0:0,0:0:0:0:
228,84,78496,1,8,0:0:0:0:
120,152,78674,6,0,P|148:192|208:208,1,105,2|2,0:0|0:1,0:0:0:0:
140,68,79029,1,2,0:0:0:0:
48,188,79207,1,8,0:0:0:0:
152,296,79384,1,2,0:0:0:0:
120,152,79562,1,2,0:1:0:0:
4,248,79739,1,2,0:0:0:0:
104,360,79917,1,8,0:0:0:0:
192,228,80094,1,2,0:0:0:0:
72,288,80272,5,2,0:1:0:0:
52,112,80449,1,2,0:0:0:0:
4,248,80627,1,8,0:0:0:0:
152,296,80804,2,0,P|204:308|256:280,1,105,2|4,0:0|0:0,0:0:0:0:
217,143,81159,2,0,P|165:131|113:159,1,105,2|4,0:0|0:0,0:0:0:0:
72,288,81514,1,2,0:1:0:0:
52,112,81692,5,4,0:0:0:0:
69,74,81780,1,2,0:1:0:0:
98,43,81869,1,2,0:1:0:0:
136,26,81958,1,2,0:1:0:0:
178,25,82047,1,8,0:0:0:0:
219,30,82135,1,2,0:1:0:0:
257,47,82224,1,2,0:1:0:0:
287,75,82313,1,2,0:1:0:0:
305,112,82402,5,8,0:0:0:0:
312,153,82491,1,2,0:1:0:0:
300,193,82579,1,2,0:1:0:0:
304,234,82668,1,2,0:1:0:0:
323,271,82757,1,8,0:0:0:0:
358,294,82846,1,2,0:1:0:0:
398,303,82934,1,2,0:1:0:0:
439,295,83023,1,2,0:1:0:0:
473,271,83112,5,8,0:0:0:0:
493,234,83201,1,2,0:1:0:0:
502,193,83289,1,2,0:1:0:0:
489,152,83378,1,2,0:1:0:0:
458,122,83467,1,8,0:0:0:0:
418,106,83556,1,2,0:1:0:0:
376,103,83644,1,2,0:1:0:0:
335,116,83733,1,2,0:1:0:0:
312,153,83822,5,8,0:0:0:0:
300,193,83911,1,2,0:1:0:0:
267,218,83999,1,2,0:1:0:0:
225,225,84088,1,2,0:1:0:0:
185,210,84177,1,8,0:0:0:0:
154,181,84266,1,2,0:1:0:0:
138,142,84354,1,2,0:1:0:0:
144,100,84443,1,2,0:1:0:0:
170,67,84532,5,12,0:0:0:0:
267,218,84709,1,0,0:0:0:0:
267,218,84798,1,2,0:1:0:0:
267,218,84887,1,12,0:0:0:0:
88,224,85064,1,12,0:0:0:0:
260,120,85242,1,2,0:1:0:0:
84,124,85420,1,2,0:1:0:0:
176,272,85597,1,4,0:0:0:0:
170,67,85775,1,2,0:1:0:0:
267,218,85952,6,0,L|440:212,1,157.5,4|0,0:1|0:0,0:0:0:0:
464,208,86307,6,0,L|353:151,1,118.125004506111,2|0,0:0|0:0,0:0:0:0:
319,139,86662,6,0,L|315:239,1,78.75,2|0,0:0|0:0,0:0:0:0:
293,235,87017,6,0,L|299:100,1,118.125004506111,2|0,0:0|0:0,0:0:0:0:
301,34,87372,5,12,0:0:0:0:
336,156,87550,1,2,0:1:0:0:
214,128,87727,2,0,L|97:117,1,105,2|2,0:1|0:1,0:0:0:0:
11,85,88082,1,2,0:1:0:0:
114,195,88260,2,0,P|126:242|102:298,1,105,2|12,0:1|0:0,0:0:0:0:
19,176,88615,1,2,0:1:0:0:
129,79,88792,6,0,P|179:90|214:129,1,105,2|12,0:1|0:0,0:0:0:0:
234,264,89147,1,2,0:1:0:0:
96,292,89325,2,0,P|89:241|114:196,1,105,2|12,0:1|0:0,0:0:0:0:
242,149,89680,1,2,0:1:0:0:
325,256,89857,1,8,0:0:0:0:
363,272,89946,1,8,0:0:0:0:
405,272,90035,1,8,0:0:0:0:
444,256,90124,1,8,0:0:0:0:
470,223,90212,6,0,L|460:132,1,78.7500030040742,4|0,0:0|0:0,0:0:0:0:
330,151,90567,6,0,L|324:271,1,105,4|0,0:0|0:0,0:0:0:0:
286,80,90922,1,2,0:1:0:0:
235,265,91100,2,0,P|183:257|145:206,1,105,2|8,0:0|0:0,0:0:0:0:
109,88,91455,2,0,P|59:79|10:118,1,105,2|2,0:0|0:1,0:0:0:0:
9,244,91810,6,0,L|21:358,1,105,2|8,0:0|0:0,0:0:0:0:
150,220,92165,2,0,L|145:336,1,105,2|2,0:0|0:1,0:0:0:0:
279,238,92520,2,0,L|291:352,1,105,2|8,0:0|0:0,0:0:0:0:
420,227,92875,1,2,0:0:0:0:
380,355,93053,5,2,0:1:0:0:
512,321,93230,1,2,0:0:0:0:
480,178,93408,1,8,0:0:0:0:
438,302,93585,1,2,0:0:0:0:
348,200,93763,5,2,0:1:0:0:
494,249,93940,1,2,0:0:0:0:
366,279,94118,1,8,0:0:0:0:
410,150,94295,1,2,0:0:0:0:
279,256,94473,5,2,0:1:0:0:
438,302,94650,1,2,0:0:0:0:
348,200,94828,1,4,0:0:0:0:
322,358,95005,1,2,0:0:0:0:
420,227,95183,6,0,P|470:231|512:287,1,105,8|2,0:0|0:1,0:0:0:0:
501,351,95449,2,0,P|449:378|394:365,1,105,8|2,0:0|0:1,0:0:0:0:
322,359,95715,1,8,0:0:0:0:
191,308,95893,6,0,P|176:257|200:192,1,105,4|0,0:0|0:0,0:0:0:0:
279,256,96248,1,8,0:0:0:0:
111,312,96425,2,0,P|65:292|41:245,1,105,2|2,0:0|0:1,0:0:0:0:
89,116,96780,2,0,L|194:123,1,105,2|8,0:0|0:0,0:0:0:0:
318,66,97135,2,0,L|432:60,1,105,2|2,0:0|0:1,0:0:0:0:
496,177,97491,2,0,P|504:230|474:287,1,105,2|8,0:0|0:0,0:0:0:0:
360,334,97846,2,0,P|310:314|275:259,1,105,2|2,0:0|0:1,0:0:0:0:
288,134,98201,2,0,P|329:100|392:97,1,105,2|8,0:0|0:0,0:0:0:0:
382,218,98556,1,2,0:0:0:0:
453,100,98733,5,2,0:1:0:0:
302,215,98911,1,2,0:0:0:0:
474,297,99088,1,8,0:0:0:0:
463,186,99266,1,2,0:0:0:0:
361,334,99443,1,2,0:1:0:0:
363,136,99621,1,2,0:0:0:0:
474,297,99798,1,8,0:0:0:0:
382,218,99976,1,2,0:0:0:0:
288,296,100153,5,4,0:0:0:0:
284,134,100331,1,8,0:0:0:0:
284,134,100420,1,8,0:0:0:0:
284,134,100508,1,8,0:0:0:0:
463,186,100686,1,2,0:1:0:0:
361,334,100863,1,2,0:1:0:0:
245,209,101041,1,2,0:1:0:0:
412,116,101218,1,2,0:1:0:0:
474,297,101396,1,2,0:1:0:0:
288,297,101573,5,4,0:0:0:0:
381,218,101751,1,2,0:1:0:0:
361,334,101928,1,8,0:0:0:0:
313,178,102106,2,0,P|259:171|209:201,1,105,2|0,0:1|0:0,0:0:0:0:
191,336,102461,1,2,0:1:0:0:
135,213,102638,1,8,0:0:0:0:
191,336,102816,6,0,P|245:343|295:313,1,105,2|0,0:1|0:0,0:0:0:0:
357,201,103171,1,2,0:1:0:0:
363,349,103349,1,8,0:0:0:0:
357,201,103526,2,0,L|349:90,1,105,2|0,0:1|0:0,0:0:0:0:
379,273,103881,1,2,0:1:0:0:
512,346,104059,1,8,0:0:0:0:
431,219,104236,1,2,0:1:0:0:
363,349,104414,5,4,0:0:0:0:
287,235,104591,2,0,P|280:178|305:139,1,105,2|8,0:1|0:0,0:0:0:0:
431,219,104946,2,0,P|454:270|432:324,1,105,2|0,0:1|0:0,0:0:0:0:
308,352,105301,2,0,L|199:355,1,105,2|8,0:1|0:0,0:0:0:0:
91,276,105656,2,0,P|78:218|94:171,1,105,2|0,0:1|0:0,0:0:0:0:
190,81,106011,1,2,0:1:0:0:
290,174,106189,2,0,P|252:210|197:210,1,105,8|2,0:0|0:1,0:0:0:0:
320,77,106544,1,2,0:1:0:0:
434,191,106721,1,12,0:0:0:0:
408,23,106899,1,12,0:0:0:0:
337,172,107076,1,2,0:1:0:0:
478,104,107254,6,0,P|510:201|481:259,1,157.5,4|0,0:0|0:0,0:0:0:0:
462,279,107609,1,12,0:0:0:0:
397,109,107786,1,0,0:0:0:0:
344,283,107964,1,4,0:0:0:0:
397,108,108141,1,0,0:0:0:0:
462,278,108319,1,12,0:0:0:0:
308,176,108496,1,0,0:0:0:0:
303,348,108674,6,0,P|270:358|216:344,1,78.75,4|0,0:0|0:0,0:0:0:0:
161,296,109029,6,0,P|118:280|43:303,1,118.125004506111,12|0,0:0|0:0,0:0:0:0:
14,369,109384,6,0,L|16:251,1,105,4|2,0:0|0:1,0:0:0:0:
87,108,109739,6,0,P|152:122|213:13,1,196.875,12|0,0:0|0:0,0:0:0:0:
138,47,110094,6,0,P|174:92|237:101,1,105,4|0,0:0|0:0,0:0:0:0:
347,58,110449,2,0,P|395:49|452:76,1,105,12|0,0:0|0:0,0:0:0:0:
423,237,110804,1,4,0:0:0:0:
387,127,110982,1,0,0:0:0:0:
501,228,111159,2,0,P|490:282|448:311,1,105,12|0,0:0|0:0,0:0:0:0:
340,200,111514,5,8,0:0:0:0:
326,192,111603,1,2,0:1:0:0:
313,183,111692,1,2,0:1:0:0:
468,149,111869,1,2,0:1:0:0:
366,293,112047,1,8,0:0:0:0:
357,306,112135,1,2,0:1:0:0:
350,320,112224,1,2,0:1:0:0:
387,127,112402,1,2,0:1:0:0:
234,208,112579,2,0,P|205:158|230:56,1,157.5,4|0,0:0|0:0,0:0:0:0:
253,36,112934,5,4,0:0:0:0:
234,208,113112,1,0,0:0:0:0:
132,66,113289,2,0,P|83:54|26:84,1,105,12|0,0:0|0:0,0:0:0:0:
18,235,113644,1,4,0:0:0:0:
163,172,113822,1,0,0:0:0:0:
4,150,113999,1,12,0:0:0:0:
72,295,114177,1,0,0:0:0:0:
163,172,114354,6,0,P|172:135|164:91,1,78.75,4|0,0:0|0:0,0:0:0:0:
133,66,114709,6,0,P|167:97|244:83,1,118.125004506111,12|0,0:0|0:0,0:0:0:0:
292,40,115064,6,0,P|350:33|417:111,1,157.5,4|0,0:0|0:0,0:0:0:0:
422,141,115420,5,12,0:0:0:0:
486,40,115597,1,2,0:0:0:0:
502,188,115775,2,0,P|465:226|412:228,1,105,4|0,0:0|0:0,0:0:0:0:
347,99,116130,1,12,0:0:0:0:
336,278,116307,1,0,0:0:0:0:
422,141,116485,1,4,0:0:0:0:
253,139,116662,1,0,0:0:0:0:
336,278,116840,1,12,0:0:0:0:
347,99,117017,1,0,0:0:0:0:
188,184,117195,5,4,0:0:0:0:
353,182,117372,1,8,0:0:0:0:
356,140,117461,1,8,0:0:0:0:
347,99,117549,1,8,0:0:0:0:
322,65,117638,1,8,0:0:0:0:
286,42,117727,1,2,0:1:0:0:
117,64,117905,2,0,L|123:168,1,105,4|2,0:0|0:1,0:0:0:0:
232,251,118260,2,0,L|226:361,1,105,4|2,0:0|0:1,0:0:0:0:
188,184,118615,5,4,0:0:0:0:
154,333,118792,1,0,0:0:0:0:
300,208,118970,1,12,0:0:0:0:
152,256,119147,1,0,0:0:0:0:
320,292,119325,1,4,0:0:0:0:
152,256,119502,1,2,0:1:0:0:
257,142,119680,1,12,0:0:0:0:
320,292,119857,1,0,0:0:0:0:
154,333,120035,6,0,P|115:329|97:315,1,52.5,4|0,0:0|0:0,0:0:0:0:
40,228,120390,6,0,P|28:187|44:136,1,78.7500030040742,12|0,0:0|0:0,0:0:0:0:
118,48,120745,6,0,P|165:24|232:34,1,105,4|2,0:0|0:1,0:0:0:0:
377,83,121100,6,0,P|428:124|441:202,1,131.25,12|0,0:0|0:0,0:0:0:0:
320,292,121455,5,4,0:0:0:0:
361,169,121633,1,2,0:0:0:0:
228,200,121810,1,12,0:0:0:0:
385,188,121988,5,2,0:0:0:0:
216,228,122165,1,4,0:0:0:0:
406,209,122343,5,2,0:0:0:0:
206,255,122520,1,12,0:0:0:0:
277,127,122698,1,2,0:0:0:0:
320,292,122875,1,8,0:0:0:0:
299,328,122964,1,8,0:0:0:0:
270,358,123053,1,8,0:0:0:0:
230,370,123141,1,8,0:0:0:0:
187,369,123230,5,2,0:1:0:0:
156,361,123319,1,2,0:1:0:0:
129,344,123408,1,2,0:1:0:0:
110,318,123496,1,2,0:1:0:0:
98,288,123585,1,2,0:1:0:0:
94,256,123674,1,2,0:1:0:0:
97,224,123763,1,2,0:1:0:0:
106,194,123851,1,2,0:1:0:0:
127,170,123940,5,2,0:1:0:0:
136,145,124029,1,2,0:1:0:0:
138,118,124118,1,2,0:1:0:0:
131,92,124207,1,2,0:1:0:0:
120,75,124295,5,4,0:0:0:0:
21,214,124650,1,8,0:0:0:0:
142,76,125005,5,2,0:0:0:0:
21,235,125360,1,8,0:0:0:0:
161,76,125715,5,2,0:0:0:0:
21,256,126070,1,8,0:0:0:0:
181,77,126425,5,2,0:0:0:0:
101,183,126603,1,2,0:1:0:0:
22,288,126780,2,0,P|45:326|81:342,1,78.7500030040742,8|0,0:0|0:0,0:0:0:0:
160,357,127135,1,2,0:1:0:0:
301,189,127491,1,8,0:0:0:0:
314,271,127668,2,0,P|368:246|372:149,1,157.500006008148,2|2,0:0|0:0,0:0:0:0:
308,107,128201,5,8,0:0:0:0:
112,208,128556,1,2,0:0:0:0:
269,103,128911,5,8,0:0:0:0:
109,247,129266,1,2,0:0:0:0:
173,169,129443,1,2,0:1:0:0:
232,98,129621,1,8,0:0:0:0:
106,286,129976,5,4,0:0:0:0:
346,45,130331,1,4,0:0:0:0:
450,344,130686,1,4,0:0:0:0:
232,98,131041,1,4,0:0:0:0:
495,202,131396,1,4,0:0:0:0:
186,228,131751,1,4,0:0:0:0:
410,62,132106,1,4,0:0:0:0:
289,355,132461,1,4,0:0:0:0:
495,202,132816,5,8,0:0:0:0:
459,233,132905,1,8,0:0:0:0:
413,244,132993,1,8,0:0:0:0:
365,238,133082,1,8,0:0:0:0:
323,214,133171,1,4,0:0:0:0:
169,137,133349,1,8,0:0:0:0:
123,124,133437,1,8,0:0:0:0:
77,138,133526,1,8,0:0:0:0:
47,174,133615,1,8,0:0:0:0:
36,220,133704,1,4,0:0:0:0:
31,71,133881,1,8,0:0:0:0:
169,137,134059,6,0,P|230:153|326:53,1,210,4|8,0:0|0:0,0:0:0:0:
292,33,134502,1,2,0:1:0:0:
325,59,134591,1,2,0:1:0:0:
366,70,134680,1,2,0:1:0:0:
408,71,134769,1,2,0:1:0:0:
448,61,134857,1,2,0:1:0:0:
481,34,134946,1,2,0:1:0:0:
479,76,135035,1,2,0:1:0:0:
477,118,135124,1,2,0:1:0:0:
475,159,135212,1,2,0:1:0:0:
473,201,135301,6,0,L|465:290,1,78.75,4|0,0:0|0:0,0:0:0:0:
456,358,135656,6,0,P|403:337|383:294,1,105,4|0,0:1|0:0,0:0:0:0:
383,165,136011,1,4,0:0:0:0:
466,280,136189,1,0,0:0:0:0:
318,342,136366,2,0,P|271:348|217:309,1,105,2|2,0:1|0:0,0:0:0:0:
181,188,136721,1,8,0:0:0:0:
249,69,136899,6,0,P|295:102|303:171,1,105,2|2,0:0|0:1,0:0:0:0:
167,269,137254,1,2,0:0:0:0:
350,260,137431,1,8,0:0:0:0:
227,147,137609,1,2,0:0:0:0:
239,306,137786,1,2,0:1:0:0:
316,166,137964,1,2,0:0:0:0:
316,166,138053,1,0,0:0:0:0:
316,166,138141,1,8,0:0:0:0:
167,269,138319,1,2,0:0:0:0:
152,106,138496,5,2,0:1:0:0:
254,224,138674,1,2,0:0:0:0:
137,356,138851,1,8,0:0:0:0:
254,224,139029,2,0,P|305:252|321:305,1,105,2|2,0:0|0:1,0:0:0:0:
220,366,139384,1,2,0:0:0:0:
179,187,139562,1,8,0:0:0:0:
67,316,139739,6,0,P|19:277|12:221,1,105,2|2,0:0|0:1,0:0:0:0:
102,146,140094,1,2,0:0:0:0:
182,271,140272,1,8,0:0:0:0:
255,140,140449,2,0,P|309:150|341:207,1,105,2|2,0:0|0:1,0:0:0:0:
100,225,140804,1,2,0:0:0:0:
177,100,140982,1,8,0:0:0:0:
254,224,141159,1,2,0:0:0:0:
100,225,141337,6,0,P|35:198|23:154,1,105,4|2,0:0|0:0,0:0:0:0:
55,36,141692,1,8,0:0:0:0:
177,100,141869,2,0,P|226:110|282:80,1,105,2|2,0:0|0:1,0:0:0:0:
443,110,142224,1,2,0:0:0:0:
299,184,142402,1,8,0:0:0:0:
367,36,142579,1,2,0:0:0:0:
401,196,142757,6,0,P|377:258|333:278,1,105,2|2,0:1|0:0,0:0:0:0:
216,229,143112,1,8,0:0:0:0:
177,100,143289,2,0,P|230:88|283:115,1,105,2|2,0:0|0:1,0:0:0:0:
293,271,143644,1,0,0:0:0:0:
361,120,143822,1,4,0:0:0:0:
216,229,143999,1,2,0:0:0:0:
401,196,144177,5,4,0:0:0:0:
336,367,144354,1,2,0:1:0:0:
401,196,144532,1,2,0:1:0:0:
246,337,144709,2,0,P|206:301|204:237,1,105,4|0,0:0|0:0,0:0:0:0:
159,73,145064,1,2,0:1:0:0:
305,186,145242,1,2,0:1:0:0:
101,242,145420,6,0,P|82:193|99:136,1,105,4|0,0:0|0:0,0:0:0:0:
253,35,145775,1,2,0:1:0:0:
294,32,145863,1,2,0:1:0:0:
334,44,145952,1,2,0:1:0:0:
369,66,146041,1,2,0:1:0:0:
385,104,146130,1,2,0:1:0:0:
387,145,146218,1,2,0:1:0:0:
377,186,146307,1,2,0:1:0:0:
349,217,146396,1,2,0:1:0:0:
309,230,146485,1,2,0:1:0:0:
267,229,146573,1,2,0:1:0:0:
227,214,146662,6,0,P|190:176|188:137,1,78.75,2|0,0:1|0:0,0:0:0:0:
191,86,147017,6,0,P|149:113|88:109,1,105,4|0,0:1|0:0,0:0:0:0:
1,11,147372,2,0,L|14:123,1,105,4|0,0:0|0:0,0:0:0:0:
82,233,147727,2,0,L|71:345,1,105,2|2,0:1|0:0,0:0:0:0:
151,186,148082,1,8,0:0:0:0:
239,332,148260,1,2,0:0:0:0:
336,175,148437,1,2,0:1:0:0:
186,264,148615,1,2,0:0:0:0:
191,87,148792,1,8,0:0:0:0:
288,254,148970,1,2,0:0:0:0:
394,100,149147,1,2,0:1:0:0:
251,177,149325,1,2,0:0:0:0:
392,269,149502,1,8,0:0:0:0:
394,100,149680,6,0,P|370:51|314:33,1,105,2|2,0:0|0:1,0:0:0:0:
167,164,150035,1,2,0:0:0:0:
313,112,150212,1,8,0:0:0:0:
126,83,150390,1,2,0:0:0:0:
251,177,150567,1,2,0:1:0:0:
116,234,150745,1,2,0:0:0:0:
212,97,150922,1,8,0:0:0:0:
278,257,151100,1,2,0:0:0:0:
136,317,151278,6,0,P|83:314|40:268,1,105,2|2,0:1|0:0,0:0:0:0:
167,164,151633,1,8,0:0:0:0:
278,257,151810,2,0,P|298:310|285:363,1,105,2|2,0:0|0:1,0:0:0:0:
167,164,152165,2,0,P|206:120|263:112,1,105,2|4,0:0|0:0,0:0:0:0:
383,138,152520,1,2,0:0:0:0:
361,278,152698,5,4,0:0:0:0:
323,80,152875,1,2,0:0:0:0:
470,131,153053,1,12,0:0:0:0:
308,177,153230,1,2,0:0:0:0:
427,47,153408,1,4,0:0:0:0:
475,217,153585,1,2,0:0:0:0:
285,253,153763,1,12,0:0:0:0:
383,138,153940,1,2,0:0:0:0:
361,278,154118,5,4,0:0:0:0:
323,80,154295,1,2,0:0:0:0:
236,195,154473,1,12,0:0:0:0:
361,278,154650,1,2,0:0:0:0:
383,137,154828,1,4,0:0:0:0:
236,195,155005,1,2,0:0:0:0:
292,346,155183,1,12,0:0:0:0:
317,182,155360,1,2,0:0:0:0:
168,240,155538,6,0,P|154:189|176:139,1,105,4|2,0:0|0:1,0:0:0:0:
287,263,155893,1,12,0:0:0:0:
179,346,156070,2,0,P|124:341|83:299,1,105,2|4,0:1|0:0,0:0:0:0:
28,185,156425,1,2,0:1:0:0:
91,63,156603,2,0,L|197:67,1,105,12|0,0:0|0:0,0:0:0:0:
302,152,156958,6,0,L|193:159,1,105,2|0,1:0|0:0,0:0:0:0:
338,58,157313,1,2,0:1:0:0:
375,77,157402,1,2,0:1:0:0:
400,110,157491,1,2,0:1:0:0:
407,150,157579,1,2,0:1:0:0:
405,181,157668,1,2,0:1:0:0:
392,210,157757,1,2,0:1:0:0:
370,233,157846,1,2,0:1:0:0:
343,250,157934,1,2,0:1:0:0:
323,256,158023,1,2,0:1:0:0:
302,258,158112,1,2,0:1:0:0:
280,256,158201,1,2,0:1:0:0:
260,249,158289,1,2,0:1:0:0:
242,236,158378,5,0,0:0:0:0:
201,105,158556,1,4,0:0:0:0:
105,202,158733,2,0,L|-3:207,1,105,4|2,0:0|0:1,0:0:0:0:
105,202,159088,1,4,0:0:0:0:
142,338,159266,2,0,L|254:335,1,105,4|2,0:0|0:1,0:0:0:0:
363,263,159621,1,4,0:0:0:0:
482,327,159798,6,0,P|502:273|479:215,1,105,4|0,0:0|0:0,0:0:0:0:
396,129,160153,1,4,0:0:0:0:
363,263,160331,2,0,P|313:280|257:258,1,105,4|2,0:0|0:1,0:0:0:0:
188,150,160686,1,4,0:0:0:0:
254,31,160863,2,0,L|292:31,8,26.25,2|2|2|2|2|2|2|2|2,0:0|0:0|0:0|0:0|0:0|0:0|0:0|0:0|0:0,0:0:0:0:
188,150,161396,1,4,0:0:0:0:
103,43,161573,6,0,P|56:36|0:74,1,105,4|2,0:0|0:1,0:0:0:0:
9,200,161928,1,4,0:0:0:0:
120,279,162106,2,0,P|162:300|231:287,1,105,4|2,0:0|0:1,0:0:0:0:
339,230,162461,1,4,0:0:0:0:
450,307,162638,2,0,L|446:351,4,26.25,2|2|2|2|2,0:0|0:0|0:0|0:0|0:0,0:0:0:0:
487,175,162993,2,0,L|479:67,1,105,4|4,0:0|0:0,0:0:0:0:
347,29,163349,6,0,L|339:98,1,70,8|8,0:3|0:3,0:0:0:0:
266,153,163585,2,0,L|253:78,1,70,8|8,0:3|0:3,0:0:0:0:
176,34,163822,2,0,P|124:26|58:89,1,140,2|2,0:1|0:1,0:0:0:0:
42,214,164236,1,4,0:0:0:0:
172,256,164414,6,0,P|183:200|157:146,1,105,4|2,0:0|0:1,0:0:0:0:
42,213,164769,1,4,0:0:0:0:
75,345,164946,2,0,L|197:341,1,105,4|2,0:0|0:1,0:0:0:0:
257,228,165301,1,4,0:0:0:0:
437,345,165479,2,0,L|332:341,1,105,4|2,0:0|0:1,0:0:0:0:
205,290,165834,1,4,0:0:0:0:
154,163,166011,6,0,P|140:113|154:63,1,105,4|2,0:0|0:1,0:0:0:0:
284,20,166366,1,4,0:0:0:0:
411,70,166544,2,0,P|433:70|448:60,7,26.25,2|2|2|2|2|2|2|2,0:0|0:0|0:0|0:0|0:0|0:0|0:0|0:0,0:0:0:0:
463,46,166899,2,0,L|452:155,1,105,4|2,0:0|0:1,0:0:0:0:
431,318,167254,1,2,0:1:0:0:
346,167,167431,1,4,0:0:0:0:
504,251,167609,1,2,0:1:0:0:
334,271,167786,1,2,0:1:0:0:
504,251,167964,1,4,0:0:0:0:
256,192,168053,12,4,169739,0:0:0:0:
118,58,180745,6,0,L|212:65,1,78.75,0|0,3:0|0:0,0:0:0:0:
230,68,181100,1,4,0:0:0:0:
387,79,181455,1,2,0:1:0:0:
449,127,181633,1,2,0:0:0:0:
463,204,181810,1,2,0:1:0:0:
439,279,181988,1,2,0:0:0:0:
379,329,182165,1,2,0:1:0:0:
300,334,182343,1,2,0:0:0:0:
235,288,182520,6,0,P|192:258|136:267,1,105,2|2,0:1|0:1,0:0:0:0:
122,340,183053,1,8,3:0:0:0:
44,347,183230,1,2,0:0:0:0:
12,275,183408,1,8,3:0:0:0:
73,225,183585,1,2,3:1:0:0:
142,263,183763,1,2,0:1:0:0:
142,263,183851,1,2,0:1:0:0:
142,263,183940,1,4,0:0:0:0:
226,48,184295,5,2,0:1:0:0:
189,117,184473,1,2,0:0:0:0:
201,194,184650,1,2,0:1:0:0:
248,257,184828,1,2,0:0:0:0:
316,295,185005,1,2,0:1:0:0:
394,294,185183,1,2,0:0:0:0:
461,254,185360,1,4,0:0:0:0:
501,185,185538,5,8,0:0:0:0:
501,171,185627,1,8,0:0:0:0:
497,158,185715,1,12,0:0:0:0:
471,83,185893,1,8,0:0:0:0:
413,29,186070,1,8,0:0:0:0:
400,25,186159,1,8,0:0:0:0:
386,23,186248,1,8,0:0:0:0:
372,24,186337,1,8,0:0:0:0:
359,27,186425,1,8,3:0:0:0:
347,33,186514,1,8,3:0:0:0:
336,41,186603,1,2,0:1:0:0:
328,51,186692,1,2,0:1:0:0:
323,63,186780,6,0,L|330:167,1,105,4|0,0:0|0:0,0:0:0:0:
143,307,187135,2,0,L|150:202,1,105,4|0,0:0|0:0,0:0:0:0:
228,76,187491,6,0,L|234:180,1,105,4|0,0:0|0:0,0:0:0:0:
50,295,187846,2,0,L|58:188,1,105,4|0,0:0|0:0,0:0:0:0:
94,58,188201,5,4,0:0:0:0:
228,77,188378,1,2,0:1:0:0:
228,77,188467,1,2,0:1:0:0:
228,77,188556,1,4,0:0:0:0:
142,181,188733,1,2,0:1:0:0:
170,25,188911,1,4,0:0:0:0:
296,119,189088,1,2,0:1:0:0:
155,102,189266,1,4,0:0:0:0:
300,35,189443,1,2,0:1:0:0:
330,190,189621,6,0,P|276:198|232:166,1,105,4|0,0:0|0:0,0:0:0:0:
374,122,189976,2,0,P|407:162|405:218,1,105,4|0,0:0|0:0,0:0:0:0:
296,119,190331,2,0,P|316:64|361:43,1,105,4|0,0:0|0:0,0:0:0:0:
488,72,190686,2,0,L|485:187,1,105,4|0,0:0|0:0,0:0:0:0:
447,308,191041,5,2,0:1:0:0:
329,289,191218,1,2,0:1:0:0:
409,149,191396,5,2,0:1:0:0:
375,357,191573,1,2,0:1:0:0:
230,186,191751,5,2,0:1:0:0:
497,226,191928,1,2,0:1:0:0:
288,367,192106,5,2,0:1:0:0:
503,134,192283,2,0,P|472:71|351:71,1,196.875007510186,2|0,0:1|0:0,0:0:0:0:
332,98,192816,6,0,L|341:192,1,78.75,2|0,0:0|0:0,0:0:0:0:
312,265,193171,6,0,L|240:271,1,52.5,0|0,0:0|0:0,0:0:0:0:
230,186,193349,2,0,L|178:181,1,52.5,0|0,0:0|0:0,0:0:0:0:
258,103,193526,6,0,L|297:101,7,39.3750015020371,0|0|0|0|0|0|0|0,0:0|0:0|0:0|0:0|0:0|0:0|0:0|0:0,0:0:0:0:
332,98,193881,5,4,0:1:0:0:
424,229,194059,1,2,0:0:0:0:
268,251,194236,1,8,0:0:0:0:
394,151,194414,1,2,0:0:0:0:
403,307,194591,2,0,P|381:353|327:374,1,105,2|2,0:1|0:0,0:0:0:0:
195,364,194946,1,8,0:0:0:0:
173,228,195124,6,0,P|224:223|268:251,1,105,2|2,0:0|0:1,0:0:0:0:
126,321,195479,1,2,0:0:0:0:
206,151,195656,1,8,0:0:0:0:
262,327,195834,1,2,0:0:0:0:
96,250,196011,1,2,0:1:0:0:
279,189,196189,1,2,0:0:0:0:
279,189,196278,1,0,0:0:0:0:
279,189,196366,1,8,0:0:0:0:
126,321,196544,6,0,P|71:326|29:286,1,105,2|2,0:0|0:1,0:0:0:0:
50,160,196899,1,2,0:0:0:0:
160,80,197076,2,0,P|210:67|258:87,1,105,8|2,0:0|0:0,0:0:0:0:
321,208,197431,1,2,0:1:0:0:
404,86,197609,1,2,0:0:0:0:
438,257,197786,1,8,0:0:0:0:
329,122,197964,1,2,0:0:0:0:
358,278,198141,5,2,0:1:0:0:
470,140,198319,1,2,0:0:0:0:
321,208,198496,1,8,0:0:0:0:
473,56,198674,1,2,0:0:0:0:
439,257,198851,1,2,0:1:0:0:
329,122,199029,1,2,0:0:0:0:
358,278,199207,1,8,0:0:0:0:
405,85,199384,1,2,0:0:0:0:
461,282,199562,6,0,P|497:240|490:182,1,105,4|2,0:0|0:0,0:0:0:0:
473,57,199917,1,8,0:0:0:0:
356,127,200094,2,0,P|298:141|255:119,1,105,2|2,0:0|0:1,0:0:0:0:
138,57,200449,1,2,0:0:0:0:
154,192,200627,1,8,0:0:0:0:
215,54,200804,1,2,0:0:0:0:
209,250,200982,6,0,P|163:271|105:253,1,105,2|2,0:1|0:0,0:0:0:0:
91,122,201337,1,8,0:0:0:0:
215,54,201514,2,0,L|325:57,1,105,2|2,0:0|0:1,0:0:0:0:
428,204,201869,1,2,0:0:0:0:
432,21,202047,1,4,0:0:0:0:
319,165,202224,1,2,0:0:0:0:
496,118,202402,5,4,0:0:0:0:
319,166,202579,1,2,0:1:0:0:
432,21,202757,1,2,0:1:0:0:
428,204,202934,2,0,P|399:253|340:269,1,105,4|0,0:0|0:0,0:0:0:0:
247,169,203289,1,2,0:1:0:0:
105,255,203467,1,2,0:1:0:0:
153,61,203644,6,0,P|224:100|247:180,1,157.5,4|0,0:0|0:0,0:0:0:0:
247,208,203999,1,8,0:0:0:0:
189,320,204177,6,0,P|171:334|132:337,1,52.5,8|0,0:0|0:0,0:0:0:0:
47,321,204354,2,0,P|19:306|3:270,1,52.5,8|0,0:0|0:0,0:0:0:0:
0,181,204532,5,12,0:0:0:0:
2,149,204621,1,8,0:0:0:0:
15,120,204709,1,2,0:1:0:0:
37,97,204798,1,2,0:1:0:0:
62,79,204887,1,12,0:0:0:0:
93,70,204976,1,8,0:0:0:0:
124,72,205064,1,2,0:1:0:0:
154,80,205153,1,2,0:1:0:0:
180,98,205242,6,0,P|228:113|282:92,1,105,4|0,0:1|0:0,0:0:0:0:
366,189,205597,1,4,0:0:0:0:
349,318,205775,2,0,P|297:334|245:309,1,105,0|2,0:0|0:1,0:0:0:0:
135,205,206130,1,0,0:0:0:0:
159,354,206307,1,8,0:0:0:0:
226,219,206485,1,2,0:0:0:0:
91,286,206662,5,2,0:1:0:0:
89,131,206840,1,2,0:0:0:0:
172,277,207017,1,8,0:0:0:0:
235,138,207195,1,2,0:0:0:0:
52,202,207372,1,2,0:1:0:0:
164,98,207550,1,2,0:0:0:0:
172,277,207727,1,8,0:0:0:0:
297,189,207905,6,0,P|316:139|293:85,1,105,2|2,0:0|0:1,0:0:0:0:
164,98,208260,1,2,0:0:0:0:
254,268,208437,1,8,0:0:0:0:
234,56,208615,1,2,0:0:0:0:
197,200,208792,1,2,0:1:0:0:
306,20,208970,1,2,0:0:0:0:
164,98,209147,1,8,0:0:0:0:
297,189,209325,1,2,0:0:0:0:
172,277,209502,5,2,0:1:0:0:
238,134,209680,1,2,0:0:0:0:
343,260,209857,1,8,0:0:0:0:
234,336,210035,2,0,P|190:362|132:351,1,105,2|2,0:0|0:1,0:0:0:0:
297,189,210390,2,0,P|351:173|403:204,1,105,2|12,0:0|0:0,0:0:0:0:
175,182,210745,1,2,0:1:0:0:
175,182,210834,1,2,0:1:0:0:
175,182,210922,6,0,P|160:139|180:79,1,105,4|2,0:0|0:0,0:0:0:0:
330,133,211278,2,0,P|373:118|433:138,1,105,12|2,0:0|0:0,0:0:0:0:
379,286,211633,2,0,P|394:329|374:389,1,105,4|2,0:0|0:0,0:0:0:0:
234,336,211988,2,0,P|191:351|131:331,1,105,12|2,0:0|0:0,0:0:0:0:
88,164,212343,5,4,0:0:0:0:
41,296,212520,1,2,0:0:0:0:
175,182,212698,5,12,0:0:0:0:
136,335,212875,1,2,0:0:0:0:
261,180,213053,5,4,0:0:0:0:
249,340,213230,1,2,0:0:0:0:
344,163,213408,5,12,0:0:0:0:
366,323,213585,1,2,0:0:0:0:
427,176,213763,5,4,0:0:0:0:
299,273,213940,1,2,0:1:0:0:
450,279,214118,1,12,0:0:0:0:
344,163,214295,1,2,0:1:0:0:
366,323,214473,2,0,P|322:357|263:342,1,105,4|0,0:0|0:0,0:0:0:0:
159,279,214828,2,0,P|131:242|133:172,1,105,12|0,0:0|0:0,0:0:0:0:
171,66,215183,5,4,0:0:0:0:
266,148,215360,1,8,0:0:0:0:
276,160,215449,1,8,0:0:0:0:
288,169,215538,1,8,0:3:0:0:
302,175,215627,1,8,0:3:0:0:
317,178,215715,1,8,0:3:0:0:
332,180,215804,1,8,0:3:0:0:
347,180,215893,1,2,0:1:0:0:
362,177,215982,1,2,0:1:0:0:
376,171,216070,1,8,0:3:0:0:
389,162,216159,1,2,0:1:0:0:
401,152,216248,1,8,0:3:0:0:
410,139,216337,1,8,0:3:0:0:
417,125,216425,1,2,0:1:0:0:
422,110,216514,1,2,0:1:0:0:
422,94,216603,6,0,P|459:170|430:249,1,157.5,4|2,0:0|0:1,0:0:0:0:
389,297,216958,1,12,0:0:0:0:
259,337,217135,2,0,L|145:334,1,105,2|2,0:3|0:1,0:0:0:0:
111,195,217491,2,0,L|114:81,1,105,2|8,0:3|0:0,0:0:0:0:
253,47,217846,2,0,L|367:50,1,105,2|2,0:3|0:1,0:0:0:0:
401,189,218201,2,0,L|398:303,1,105,2|8,0:3|0:0,0:0:0:0:
268,204,218556,2,0,L|270:95,1,105,2|2,0:3|0:1,0:0:0:0:
130,24,218911,2,0,P|70:20|20:60,1,105,2|8,0:3|0:0,0:0:0:0:
6,198,219266,1,2,0:1:0:0:
6,198,219354,1,8,0:0:0:0:
6,198,219443,6,0,L|14:306,1,105,4|0,0:0|0:0,0:0:0:0:
64,135,219798,1,8,0:0:0:0:
121,282,219976,2,0,P|171:306|224:288,1,105,2|2,0:3|0:1,0:0:0:0:
236,136,220331,2,0,P|186:112|133:130,1,105,2|8,0:3|0:0,0:0:0:0:
272,211,220686,2,0,P|313:174|318:121,1,105,2|2,0:3|0:1,0:0:0:0:
188,40,221041,2,0,P|147:77|142:130,1,105,12|12,0:0|0:0,0:0:0:0:
214,263,221396,1,2,0:1:0:0:
319,127,221573,5,8,0:0:0:0:
336,107,221662,1,8,0:0:0:0:
359,95,221751,1,8,0:0:0:0:
385,91,221840,1,8,0:0:0:0:
411,91,221928,1,2,0:1:0:0:
436,97,222017,1,2,0:1:0:0:
458,109,222106,1,8,0:0:0:0:
476,127,222195,1,8,0:0:0:0:
486,151,222283,6,0,B|496:218|496:218|486:281|486:281|500:361,1,210,4|8,0:0|0:0,0:0:0:0:
384,249,222816,2,0,P|334:224|275:241,1,105,2|2,0:3|0:1,0:0:0:0:
165,333,223171,2,0,P|105:344|59:323,1,105,2|8,0:3|0:0,0:0:0:0:
87,167,223526,1,2,0:3:0:0:
97,189,223615,1,0,0:0:0:0:
108,210,223704,6,0,L|164:215,1,52.5,2|0,0:0|0:0,0:0:0:0:
302,144,223881,2,0,L|354:139,1,52.5,2|0,0:0|0:0,0:0:0:0:
224,8,224059,2,0,L|286:3,1,52.5,2|0,0:0|0:0,0:0:0:0:
221,144,224236,2,0,L|217:255,1,105,2|2,0:0|0:1,0:0:0:0:
99,283,224591,1,4,0:0:0:0:
295,244,224769,1,12,0:0:0:0:
87,168,224946,1,2,0:1:0:0:
245,67,225124,5,4,0:0:0:0:
134,247,225301,1,2,0:1:0:0:
303,144,225479,1,2,0:1:0:0:
87,168,225656,2,0,P|34:174|0:220,1,105,4|0,0:0|0:0,0:0:0:0:
58,359,226011,1,2,0:1:0:0:
88,167,226189,1,2,0:1:0:0:
216,364,226366,2,0,P|268:347|300:257,1,157.5,4|0,0:0|0:0,0:0:0:0:
287,220,226721,5,8,0:0:0:0:
183,85,226899,1,8,0:0:0:0:
134,247,227076,1,8,0:0:0:0:
182,84,227254,1,8,0:0:0:0:
223,75,227343,1,2,0:1:0:0:
264,78,227431,1,2,0:1:0:0:
304,90,227520,1,2,0:1:0:0:
338,114,227609,1,2,0:1:0:0:
361,149,227698,1,2,0:1:0:0:
372,189,227786,1,2,0:1:0:0:
368,230,227875,1,2,0:1:0:0:
384,268,227964,6,0,P|423:295|493:275,1,105,4|2,0:1|0:3,0:0:0:0:
508,164,228319,1,12,0:0:0:0:
452,50,228496,2,0,P|400:46|357:77,1,105,2|2,0:3|0:1,0:0:0:0:
223,75,228851,2,0,P|228:132|266:170,1,105,2|8,0:3|0:0,0:0:0:0:
208,285,229207,2,0,P|262:305|312:288,1,105,2|2,0:3|0:1,0:0:0:0:
431,348,229562,2,0,P|447:295|432:246,1,105,2|8,0:3|0:0,0:0:0:0:
304,190,229917,1,2,0:3:0:0:
209,285,230094,1,2,0:1:0:0:
216,310,230183,1,0,0:0:0:0:
222,335,230272,1,2,0:3:0:0:
139,221,230449,1,8,0:0:0:0:
75,342,230627,6,0,P|27:309|10:245,1,105,2|2,0:3|0:1,0:0:0:0:
121,121,230982,1,2,0:3:0:0:
209,285,231159,1,8,0:0:0:0:
51,186,231337,1,2,0:3:0:0:
217,105,231514,1,2,0:1:0:0:
209,285,231692,1,2,0:3:0:0:
359,213,231869,1,8,0:0:0:0:
212,191,232047,1,2,0:3:0:0:
307,79,232224,5,2,0:1:0:0:
280,245,232402,1,2,0:3:0:0:
140,144,232579,1,4,0:0:0:0:
307,79,232757,2,0,P|356:62|414:82,1,105,2|2,0:3|0:1,0:0:0:0:
482,189,233112,1,2,0:3:0:0:
482,189,233201,1,0,0:0:0:0:
482,189,233289,2,0,P|489:250|462:293,1,105,2|2,0:1|0:3,0:0:0:0:
345,345,233644,5,4,0:0:0:0:
304,357,233733,1,2,0:1:0:0:
261,358,233822,1,2,0:1:0:0:
220,348,233911,1,2,0:1:0:0:
185,325,233999,1,8,0:0:0:0:
156,293,234088,1,2,0:1:0:0:
142,253,234177,1,2,0:1:0:0:
136,211,234266,1,2,0:1:0:0:
139,169,234354,5,8,0:0:0:0:
160,132,234443,1,2,0:1:0:0:
194,108,234532,1,2,0:1:0:0:
234,96,234621,1,2,0:1:0:0:
275,98,234709,1,8,0:0:0:0:
311,119,234798,1,2,0:1:0:0:
339,149,234887,1,2,0:1:0:0:
375,170,234976,1,2,0:1:0:0:
416,173,235064,5,8,0:0:0:0:
455,158,235153,1,2,0:1:0:0:
481,125,235242,1,2,0:1:0:0:
488,83,235331,1,2,0:1:0:0:
477,42,235420,1,8,0:0:0:0:
440,21,235508,1,2,0:1:0:0:
397,17,235597,1,2,0:1:0:0:
359,36,235686,1,2,0:1:0:0:
331,67,235775,5,8,0:0:0:0:
325,108,235863,1,2,0:1:0:0:
339,149,235952,1,2,0:1:0:0:
364,182,236041,1,2,0:1:0:0:
384,218,236130,1,8,0:0:0:0:
385,259,236218,1,2,0:1:0:0:
371,298,236307,1,2,0:1:0:0:
343,329,236396,1,2,0:1:0:0:
306,349,236485,5,12,0:0:0:0:
104,356,236662,1,2,0:1:0:0:
290,252,236840,1,2,0:1:0:0:
290,252,236928,1,2,0:1:0:0:
290,252,237017,1,2,0:1:0:0:
106,264,237195,1,2,0:1:0:0:
106,264,237283,1,2,0:1:0:0:
106,264,237372,1,2,0:1:0:0:
178,99,237550,1,2,0:1:0:0:
178,99,237638,1,2,0:1:0:0:
178,99,237727,1,2,0:1:0:0:
178,99,237816,1,2,0:1:0:0:
178,99,237905,6,0,L|328:36,1,157.5,4|0,0:1|0:0,0:0:0:0:
362,23,238260,6,0,L|299:125,1,118.125004506111,0|0,0:0|0:0,0:0:0:0:
280,157,238615,6,0,L|196:115,1,78.75
178,99,238970,6,0,B|199:271|199:271|271:311|411:301|417:129,1,472.500018024445,0|0,0:0|0:0,0:0:0:0:
419,130,240745,5,2,0:1:0:0:
323,33,240922,1,8,0:0:0:0:
281,42,241011,1,8,0:0:0:0:
240,54,241100,1,8,0:0:0:0:
199,67,241189,1,8,0:0:0:0:
172,67,241278,5,2,0:1:0:0:
146,61,241366,1,2,0:1:0:0:
120,56,241455,1,2,0:1:0:0:
94,51,241544,1,2,0:1:0:0:
57,71,241633,5,8,0:0:0:0:
22,95,241721,1,8,0:0:0:0:
27,120,241810,5,2,0:1:0:0:
32,145,241899,1,2,0:1:0:0:
37,170,241988,1,2,0:1:0:0:
42,195,242076,1,2,0:1:0:0:
47,220,242165,2,0,L|36:316,1,78.7500030040742,4|0,0:0|0:0,0:0:0:0:
151,189,242520,6,0,L|162:304,1,105,4|2,0:0|0:0,0:0:0:0:
288,342,242875,1,2,0:1:0:0:
271,206,243053,2,0,L|276:95,1,105,2|8,0:0|0:0,0:0:0:0:
396,164,243408,2,0,L|386:46,1,105,2|2,0:0|0:1,0:0:0:0:
461,224,243763,6,0,P|412:249|352:233,1,105,2|8,0:0|0:0,0:0:0:0:
286,128,244118,2,0,P|236:133|195:177,1,105,2|2,0:0|0:1,0:0:0:0:
92,257,244473,2,0,P|112:211|95:153,1,105,2|8,0:0|0:0,0:0:0:0:
77,24,244828,2,0,P|106:64|164:78,1,105,2|2,0:0|0:1,0:0:0:0:
285,128,245183,5,2,0:0:0:0:
355,11,245360,1,8,0:0:0:0:
209,147,245538,2,0,P|241:197|289:205,1,105,2|2,0:0|0:1,0:0:0:0:
385,115,245893,1,2,0:0:0:0:
488,203,246070,2,0,L|483:309,1,105,4|2,0:0|0:0,0:0:0:0:
385,115,246425,5,0,0:0:0:0:
364,250,246603,2,0,L|374:367,1,105,4|0,0:0|0:0,0:0:0:0:
255,218,246958,2,0,L|243:325,1,105,4|0,0:0|0:0,0:0:0:0:
128,248,247313,2,0,L|138:365,1,105,4|0,0:0|0:0,0:0:0:0:
32,210,247668,1,2,0:1:0:0:
21,250,247757,1,2,0:1:0:0:
10,290,247846,6,0,L|0:168,1,105,4|0,0:0|0:0,0:0:0:0:
63,63,248201,1,8,0:0:0:0:
198,41,248378,2,0,P|256:33|298:62,1,105,2|2,0:0|0:1,0:0:0:0:
424,95,248733,2,0,P|401:149|355:171,1,105,2|8,0:0|0:0,0:0:0:0:
258,258,249088,2,0,P|222:211|226:160,1,105,2|2,0:0|0:1,0:0:0:0:
206,355,249443,6,0,P|263:346|305:375,1,105,2|8,0:0|0:0,0:0:0:0:
143,262,249798,2,0,P|120:316|74:338,1,105,2|2,0:0|0:1,0:0:0:0:
58,197,250153,1,2,0:0:0:0:
167,106,250331,2,0,P|224:100|272:138,1,105,4|2,0:0|0:0,0:0:0:0:
332,241,250686,1,2,0:1:0:0:
263,358,250863,6,0,L|153:372,1,105,4|0,0:0|0:0,0:0:0:0:
190,238,251218,2,0,L|76:231,1,105,4|0,0:0|0:0,0:0:0:0:
167,106,251573,1,4,0:0:0:0:
291,48,251751,2,0,L|405:55,1,105,4|0,0:0|0:0,0:0:0:0:
456,177,252106,5,2,0:1:0:0:
477,61,252283,1,2,0:1:0:0:
369,205,252461,5,2,0:1:0:0:
366,53,252638,1,2,0:1:0:0:
279,236,252816,5,2,0:1:0:0:
254,43,252993,1,2,0:1:0:0:
193,267,253171,5,2,0:1:0:0:
150,31,253349,1,2,0:1:0:0:
143,347,253704,5,4,0:0:0:0:
255,192,253881,1,4,0:0:0:0:
255,192,254059,1,2,0:1:0:0:
73,132,254236,5,4,0:0:0:0:
255,192,254414,1,4,0:0:0:0:
255,192,254591,1,2,0:1:0:0:
255,0,254769,5,4,0:0:0:0:
255,192,254946,1,4,0:0:0:0:
255,192,255124,1,2,0:1:0:0:
438,132,255301,5,4,0:0:0:0:
255,192,255479,1,4,0:0:0:0:
255,192,255656,1,2,0:1:0:0:
368,347,255834,5,4,0:0:0:0:
255,192,256011,1,4,0:0:0:0:
