osu file format v12

[General]
AudioFilename: yanaginagi - Toaru kaizokuou no kimagure.mp3
AudioLeadIn: 1800
PreviewTime: 37680
Countdown: 0
SampleSet: Normal
StackLeniency: 0.7
Mode: 0
LetterboxInBreaks: 0
WidescreenStoryboard: 1

[Editor]
DistanceSpacing: 1
BeatDivisor: 4
GridSize: 4
TimelineZoom: 1

[Metadata]
Title:Toaru Kaizoku Ou no Kimagure
TitleUnicode:とある海賊王の気まぐれ
Artist:yanaginagi
ArtistUnicode:やなぎなぎ
Creator:HabiHolic
Version:Normal
Source:
Tags:jun maeda 終わりの惑星のLove Song kantokun Gloria Guard qoot8123
BeatmapID:305484
BeatmapSetID:118762

[Difficulty]
HPDrainRate:3
CircleSize:3
OverallDifficulty:3
ApproachRate:4
SliderMultiplier:1.2
SliderTickRate:1

[Events]
//Background and Video events
0,0,"BG.jpg",0,0
//Break Periods
2,69892,73705
//Storyboard Layer 0 (Background)
//Storyboard Layer 1 (Fail)
//Storyboard Layer 2 (Pass)
//Storyboard Layer 3 (Foreground)
//Storyboard Sound Samples
//Background Colour Transformations
3,100,163,162,255

[TimingPoints]
359,333.333333333333,4,1,1,70,1,0
37692,-100,4,1,1,70,0,1
47692,-100,4,1,1,70,0,0
48358,-100,4,1,1,70,0,1
69692,-100,4,1,1,70,0,0
75025,-100,4,3,0,70,0,0
80358,-100,4,1,1,70,0,0
101692,-100,4,1,1,70,0,1
111692,-100,4,1,1,70,0,0
112358,-100,4,1,1,70,0,1
123025,-100,4,1,1,70,0,0

[Colours]
Combo1 : 255,255,155
Combo2 : 48,224,123
Combo3 : 106,181,255
Combo4 : 188,241,99

[HitObjects]
60,184,359,6,0,P|116:192|184:160,1,120,4|8,0:0|0:0,0:0:0:0:
252,80,1025,2,0,P|308:60|372:72,1,120,0|8,0:0|0:0,0:0:0:0:
472,124,1692,2,0,B|444:180|444:180|480:284|392:344,1,240
340,236,2692,1,8,0:0:0:0:
232,188,3025,6,0,P|184:212|120:208,1,120,0|8,0:0|0:0,0:0:0:0:
96,92,3692,2,0,P|144:68|208:72,1,120,0|8,0:0|0:0,0:0:0:0:
328,72,4358,2,0,P|384:88|448:76,1,120,0|8,0:0|0:0,0:0:0:0:
480,124,4858,2,0,L|488:304,1,180,4|8,0:0|0:0,0:0:0:0:
368,328,5692,6,0,P|312:344|248:340,1,120,4|8,0:0|0:0,0:0:0:0:
140,296,6358,2,0,L|100:344,2,60,0|0|8,0:0|0:0|0:0,0:0:0:0:
72,196,7025,2,0,P|88:144|80:80,1,120,0|8,0:0|0:0,0:0:0:0:
124,36,7525,2,0,P|204:60|308:48,1,180,4|8,0:0|0:0,0:0:0:0:
400,120,8358,6,0,L|456:96,2,60,0|0|8,0:0|0:0|0:0,0:0:0:0:
352,156,8858,2,0,P|336:240|372:328,1,180,4|8,0:0|0:0,0:0:0:0:
248,332,9692,2,0,L|176:324,1,60
140,288,10025,2,0,L|68:296,1,60,8|4,0:0|0:0,0:0:0:0:
32,256,10358,2,0,P|16:192|24:128,1,120,0|8,0:0|0:0,0:0:0:0:
120,72,11025,6,0,P|236:88|344:24,1,240,4|0,0:0|0:0,0:0:0:0:
444,88,12025,1,8,0:0:0:0:
460,208,12358,2,0,L|472:272,1,60
428,308,12692,2,0,P|380:304|316:336,1,120,8|0,0:0|0:0,0:0:0:0:
196,324,13358,1,8,0:0:0:0:
88,268,13692,6,0,P|68:216|72:152,1,120,0|8,0:0|0:0,0:0:0:0:
124,44,14358,2,0,P|184:40|236:68,1,120,0|8,0:0|0:0,0:0:0:0:
344,120,15025,2,0,P|424:124|480:32,2,180,0|0|8,0:0|0:0|0:0,0:0:0:0:
252,196,16358,6,0,P|264:248|320:292,1,120,0|8,0:0|0:0,0:0:0:0:
224,372,17025,1,0,0:0:0:0:
116,316,17358,1,8,0:0:0:0:
136,196,17692,2,0,P|124:144|68:100,1,120,0|8,0:0|0:0,0:0:0:0:
168,28,18358,2,0,L|296:28,1,120,0|8,0:0|0:0,0:0:0:0:
388,96,19025,6,0,P|412:180|508:216,2,180,0|0|8,0:0|0:0|0:0,0:0:0:0:
280,148,20358,2,0,P|232:172|164:168,1,120,0|8,0:0|0:0,0:0:0:0:
60,116,21025,2,0,P|44:172|60:236,1,120,0|8,0:0|0:0,0:0:0:0:
148,308,21692,6,0,P|272:308|372:240,1,240
364,128,22692,1,8,0:0:0:0:
292,32,23025,2,0,P|168:32|68:100,1,240
64,212,24025,1,8,0:0:0:0:
144,300,24358,6,0,P|204:300|260:260,1,120,0|8,0:0|0:0,0:0:0:0:
348,200,25025,2,0,L|472:200,1,120,0|8,0:0|0:0,0:0:0:0:
476,80,25692,2,0,P|368:36|240:44,1,240
132,76,26692,1,8,0:0:0:0:
44,156,27025,6,0,P|32:212|48:280,1,120,0|8,0:0|0:0,0:0:0:0:
148,328,27692,2,0,P|208:344|268:324,1,120,0|8,0:0|0:0,0:0:0:0:
380,304,28358,2,0,P|388:180|472:96,1,240
360,44,29358,1,8,0:0:0:0:
240,64,29692,6,0,P|192:88|120:88,1,120,0|8,0:0|0:0,0:0:0:0:
44,176,30358,2,0,P|32:232|48:296,1,120,0|8,0:0|0:0,0:0:0:0:
164,320,31025,2,0,P|288:336|376:260,1,240
452,180,32025,1,8,0:0:0:0:
256,192,32358,12,2,34692,2:0:0:0:
256,192,35025,12,0,36358,0:0:0:0:
52,200,37692,6,0,P|112:300|228:312,1,240,4|0,0:0|0:0,0:0:0:0:
180,200,38692,1,8,0:0:0:0:
302,203,39025,2,0,P|242:103|126:91,1,240
180,200,40025,1,8,0:0:0:0:
240,304,40358,6,0,P|336:312|404:180,1,240
456,92,41358,1,8,0:0:0:0:
348,44,41692,2,0,P|288:36|236:64,1,120,0|8,0:0|0:0,0:0:0:0:
168,160,42358,2,0,P|115:187|57:178,1,120,0|8,0:0|0:0,0:0:0:0:
32,296,43025,6,0,P|132:340|264:316,1,240
336,228,44025,1,8,0:0:0:0:
364,112,44358,2,0,P|424:112|480:144,2,120,0|8|0,0:0|0:0|0:0,0:0:0:0:
252,152,45358,1,8,0:0:0:0:
232,272,45692,2,0,P|144:308|16:228,1,240
48,124,46692,1,8,0:0:0:0:
144,52,47025,6,0,P|200:40|264:52,1,120,0|8,0:0|0:0,0:0:0:0:
400,16,47692,2,0,L|468:8,2,60,0|0|8,0:0|0:0|0:0,0:0:0:0:
444,128,48358,6,0,P|460:196|340:300,1,240,4|0,0:0|0:0,0:0:0:0:
256,224,49358,1,8,0:0:0:0:
160,296,49692,2,0,P|61:238|63:124,1,240
152,40,50692,1,8,0:0:0:0:
272,52,51025,6,0,L|396:52,1,120,0|8,0:0|0:0,0:0:0:0:
480,136,51692,2,0,P|500:188|496:252,1,120,0|8,0:0|0:0,0:0:0:0:
400,328,52358,2,0,P|356:344|280:336,1,120,0|8,0:0|0:0,0:0:0:0:
184,276,53025,1,0,0:0:0:0:
76,324,53358,1,8,0:0:0:0:
68,204,53692,6,0,P|36:160|28:96,1,120,0|8,0:0|0:0,0:0:0:0:
136,44,54358,2,0,P|200:56|264:44,1,120,0|8,0:0|0:0,0:0:0:0:
372,72,55025,2,0,P|452:144|468:280,1,240
372,340,56025,1,8,0:0:0:0:
264,288,56358,6,0,P|208:288|156:324,1,120,0|8,0:0|0:0,0:0:0:0:
48,276,57025,2,0,P|13:227|12:168,1,120,0|8,0:0|0:0,0:0:0:0:
116,104,57692,2,0,P|232:116|336:52,1,240
452,68,58692,1,8,0:0:0:0:
480,184,59025,6,0,P|488:240|464:300,1,120,0|8,0:0|0:0,0:0:0:0:
348,328,59692,2,0,P|292:320|236:356,1,120,0|8,0:0|0:0,0:0:0:0:
128,312,60358,2,0,P|48:224|48:96,1,240
148,52,61358,2,0,L|204:84,1,60,8|0,0:0|0:0,0:0:0:0:
248,120,61692,6,0,P|308:120|360:76,1,120,0|8,0:0|0:0,0:0:0:0:
472,76,62358,2,0,P|492:128|480:196,1,120,0|8,0:0|0:0,0:0:0:0:
380,252,63025,2,0,P|256:252|168:328,1,240
52,316,64025,1,8,0:0:0:0:
256,192,64358,12,2,66692,2:0:0:0:
256,192,67025,12,0,69692,0:0:0:0:
48,164,75025,6,0,B|112:148|112:148|168:148|168:148|208:116|208:116|280:92,1,240
388,64,76025,1,2,0:0:0:0:
464,160,76358,2,0,P|480:216|464:280,1,120,0|2,0:0|0:0,0:0:0:0:
360,308,77025,2,0,P|300:308|252:352,1,120,0|2,0:0|0:0,0:0:0:0:
136,340,77692,6,0,P|64:244|64:124,1,240
160,56,78692,1,2,0:0:0:0:
264,104,79025,2,0,P|344:104|412:32,2,180,0|0|2,0:0|0:0|0:0,0:0:0:0:
176,188,80358,6,0,P|120:196|80:244,1,120,0|8,0:0|0:0,0:0:0:0:
140,344,81025,2,0,P|198:334|235:289,1,120,0|8,0:0|0:0,0:0:0:0:
324,208,81692,2,0,P|384:208|436:240,1,120,0|8,0:0|0:0,0:0:0:0:
480,128,82358,1,0,0:0:0:0:
388,48,82692,1,8,0:0:0:0:
276,92,83025,6,0,P|172:148|44:132,1,240
32,256,84025,1,8,0:0:0:0:
92,360,84358,2,0,P|196:304|324:320,1,240
412,244,85358,1,8,0:0:0:0:
488,152,85692,6,0,B|432:116|368:132|368:132|332:88|264:88,1,240
268,208,86692,1,8,0:0:0:0:
160,152,87025,2,0,P|104:152|48:184,1,120,0|8,0:0|0:0,0:0:0:0:
48,304,87692,2,0,P|99:333|158:334,1,120,0|8,0:0|0:0,0:0:0:0:
276,304,88358,6,0,P|332:292|392:312,1,120,0|8,0:0|0:0,0:0:0:0:
456,212,89025,2,0,P|476:160|468:96,1,120,0|8,0:0|0:0,0:0:0:0:
420,60,89525,1,0,0:0:0:0:
364,76,89692,2,0,P|300:80|244:44,1,120,0|8,0:0|0:0,0:0:0:0:
132,48,90358,2,8,P|72:48|24:88,1,120
32,204,91025,6,0,P|144:240|196:348,1,240
256,240,92025,1,8,0:0:0:0:
316,343,92358,2,0,P|368:239|480:204,1,240
460,84,93358,1,8,0:0:0:0:
348,44,93692,6,0,P|296:28|228:36,1,120,0|8,0:0|0:0,0:0:0:0:
128,96,94358,2,0,P|120:148|68:196,1,120,0|8,0:0|0:0,0:0:0:0:
44,308,95025,2,0,P|160:320|248:232,1,240
336,164,96025,1,8,0:0:0:0:
256,192,96358,12,2,98692,2:0:0:0:
256,192,99025,12,0,100358,0:0:0:0:
460,200,101692,6,0,P|400:300|284:312,1,240,4|0,0:0|0:0,0:0:0:0:
332,200,102692,1,8,0:0:0:0:
210,203,103025,2,0,P|270:103|386:91,1,240
332,200,104025,1,8,0:0:0:0:
272,304,104358,6,0,P|176:312|93:196,1,240
56,92,105358,1,8,0:0:0:0:
164,44,105692,2,0,P|224:36|276:64,1,120,0|8,0:0|0:0,0:0:0:0:
344,160,106358,2,0,P|397:187|455:178,1,120,0|8,0:0|0:0,0:0:0:0:
480,296,107025,6,0,P|380:340|248:316,1,240
176,228,108025,1,8,0:0:0:0:
148,112,108358,2,0,P|88:112|32:144,2,120,0|8|0,0:0|0:0|0:0,0:0:0:0:
260,152,109358,1,8,0:0:0:0:
280,272,109692,6,0,P|368:308|496:228,1,240
464,124,110692,1,8,0:0:0:0:
368,52,111025,2,0,P|312:40|248:52,1,120,0|8,0:0|0:0,0:0:0:0:
132,76,111692,2,0,L|64:68,2,60,0|0|8,0:0|0:0|0:0,0:0:0:0:
56,168,112358,6,0,P|40:236|160:340,1,240,4|0,0:0|0:0,0:0:0:0:
256,276,113358,1,8,0:0:0:0:
359,340,113692,2,0,P|458:282|456:168,1,240
384,72,114692,1,8,0:0:0:0:
268,48,115025,6,0,L|144:48,1,120,0|8,0:0|0:0,0:0:0:0:
56,128,115692,2,0,P|36:180|40:244,1,120,0|8,0:0|0:0,0:0:0:0:
128,328,116358,2,0,P|172:344|248:336,1,120,0|8,0:0|0:0,0:0:0:0:
344,272,117025,1,0,0:0:0:0:
452,328,117358,1,8,0:0:0:0:
436,208,117692,6,0,P|468:164|476:100,1,120,0|8,0:0|0:0,0:0:0:0:
372,48,118358,2,0,P|308:60|244:48,1,120,0|8,0:0|0:0,0:0:0:0:
140,80,119025,2,0,P|60:152|44:288,1,240
144,340,120025,1,8,0:0:0:0:
252,292,120358,6,0,P|308:292|360:328,1,120,0|8,0:0|0:0,0:0:0:0:
464,272,121025,2,0,P|499:223|500:164,1,120,0|8,0:0|0:0,0:0:0:0:
396,108,121692,2,0,P|280:120|176:56,1,240
56,68,122692,1,8,0:0:0:0:
32,184,123025,6,0,P|24:240|48:300,1,120,0|8,0:0|0:0,0:0:0:0:
164,320,123692,2,0,P|220:312|276:348,1,120,0|8,0:0|0:0,0:0:0:0:
388,312,124358,2,0,P|468:224|468:96,1,240
376,36,125358,1,8,0:0:0:0:
260,60,125692,5,4,0:0:0:0:
