osu file format v9

[General]
AudioFilename: 02..mp3
AudioLeadIn: 1000
PreviewTime: 72673
Countdown: 0
SampleSet: Soft
StackLeniency: 0.4
Mode: 0
LetterboxInBreaks: 0

[Editor]
Bookmarks: 232254,235497
DistanceSpacing: 1
BeatDivisor: 4
GridSize: 4

[Metadata]
Title:Owari no Sekai kara
Artist:yanaginagi
Creator:Snowy Dream
Version:Snowy
Source:Owari no Hoshi no Love song
Tags:c81 Maeda Jun SHOGO Asami Yuriko yama_ko key Lundlerol

[Difficulty]
HPDrainRate:7
CircleSize:4
OverallDifficulty:7
ApproachRate:8
SliderMultiplier:1.6
SliderTickRate:1

[Events]
//Background and Video events
0,0,"BG.jpg"
//Break Periods
2,15169,27191
2,102736,111516
2,170844,179624
2,180574,189354
//Storyboard Layer 0 (Background)
//Storyboard Layer 1 (Fail)
//Storyboard Layer 2 (Pass)
//Storyboard Layer 3 (Foreground)
Sprite,Foreground,Centre,"Lyirc\C1.png",320,240 M,0,14969,15374,259,152,276,152 F,0,14969,15374,0,1 F,0,15374,27131,1 M,0,15374,27941,276,152,306,152 F,0,27131,27941,1,0
Sprite,Foreground,Centre,"Lyirc\C3.png",320,240 M,0,18212,18617,411,186,394,186 F,0,18212,18617,0,1 F,0,18617,27131,1 M,0,18617,27941,394,186,357,185 F,0,27131,27941,1,0
Sprite,Foreground,Centre,"Lyirc\C2.png",320,240 M,0,21455,21860,247,257,246,247 F,0,21455,21860,0,1 F,0,21860,27131,1,0.982878 M,0,21860,27941,246,247,249,224 F,0,27131,27941,0.982878,0
Sprite,Foreground,Centre,"Lyirc\1-1.png",320,240 M,0,774,,320,240 F,0,774,3013,0,1 F,0,3013,6595,1,0.9852613 F,0,6595,7491,0.9852613,0
Sprite,Foreground,Centre,"Lyirc\1-2.png",320,240 F,0,7938,8834,0,1 F,0,8834,13535,1 F,0,13535,14655,1,0
Sprite,Foreground,Centre,"Lyirc\2-1.png",320,240 M,0,27941,28347,240,169,237,155 F,0,27941,28347,0,1 M,0,28347,32806,237,155,238,146 F,0,28347,32806,1,0.9876847 M,0,32806,33212,238,146,240,154 F,0,32806,33212,0.9876847,0
Sprite,Foreground,Centre,"Lyirc\2-2.png",320,240 M,0,33617,34023,317,136,316,152 F,0,33617,34023,0,1 M,0,34023,39293,316,152,319,160 F,0,34023,39293,1,0.997537 M,0,39293,40104,319,160,327,151 F,0,39293,40104,0.997537,0
Sprite,Foreground,Centre,"Lyirc\2-3.png",320,240 M,0,40914,41320,257,126,263,116 F,0,40914,41320,0,1 M,0,41320,45779,263,116,264,107 F,0,41320,45779,1,0.9630542 M,0,45779,46387,264,107,274,121 F,0,45779,46387,0.9630542,0
Sprite,Foreground,Centre,"Lyirc\2-4.png",320,240 M,0,46387,46793,357,160,342,160 F,0,46387,46793,0,1 M,0,46793,52266,342,160,319,161 F,0,46793,52266,1,0.9950739 M,0,52266,53077,319,161,342,161 F,0,52266,53077,0.9950739,0
Sprite,Foreground,Centre,"Lyirc\3-1.png",320,240 M,0,53077,53482,253,123,252,108 F,0,53077,53482,0,1 M,0,53482,57363,252,108,253,98 F,0,53482,57941,1,0.9925926 M,0,57363,57941,253,98,253,96 M,0,57941,58347,253,96,254,108 F,0,57941,58347,0.9925926,0
Sprite,Foreground,Centre,"Lyirc\3-2.png",320,240 M,0,58347,58752,298,133,311,132 F,0,58347,58752,0,1 M,0,58752,59968,311,132,315,132 F,0,58752,59968,1 M,0,59968,60374,315,132,305,132 F,0,59968,60374,1,0
Sprite,Foreground,Centre,"Lyirc\3-3.png",320,240 M,0,60171,60577,326,249,327,234 F,0,60171,60577,0,1 F,0,60577,70104,1,0.9950739 M,0,60577,71725,327,234,324,170 F,0,70104,71725,0.9950739,0
Sprite,Foreground,Centre,"Lyirc\4-1.png",320,240 M,0,72941,73347,169,189,169,173 F,0,72941,73347,0,1 M,0,73347,78212,169,173,169,158 F,0,73347,78212,1,0.9827586 M,0,78212,79023,169,158,169,176 F,0,78212,79023,0.9827586,0
Sprite,Foreground,Centre,"Lyirc\4-2.png",320,240 M,0,79428,79833,469,329,469,346 F,0,79428,79833,0,1 M,0,79833,84698,469,346,467,368 F,0,79833,84698,1,0.9802469 M,0,84698,85509,467,368,467,349 F,0,84698,85509,0.9802469,0
Sprite,Foreground,Centre,"Lyirc\4-3.png",320,240 M,0,86725,87131,322,170,322,151 F,0,86725,87131,0,1 M,0,87131,89158,322,151,322,133 F,0,87131,89158,1,0.9827586 M,0,89158,89563,322,133,322,146 F,0,89158,89563,0.9827586,0
Sprite,Foreground,Centre,"Lyirc\4-4.png",320,240 M,0,89968,90374,275,190,295,190 F,0,89968,90374,0,1 M,0,90374,94428,295,190,315,190 F,0,90374,94428,1,0.9827586 M,0,94428,94833,315,190,297,190 F,0,94428,94833,0.9827586,0
Sprite,Foreground,Centre,"Lyirc\4-5.png",320,240 M,0,94833,95239,366,252,343,251 F,0,94833,95239,0,1 F,0,95239,99698,1,0.7906404 M,0,95239,100914,343,251,313,250 F,0,99698,100914,0.7906404,0
Sprite,Foreground,Centre,"Lyirc\5-1.png",320,240 M,0,112266,112671,467,133,467,149 F,0,112266,112671,0,1 M,0,112671,117131,467,149,465,169 F,0,112671,117131,1 M,0,117131,117536,465,169,465,157 F,0,117131,117536,1,0
Sprite,Foreground,Centre,"Lyirc\5-2.png",320,240 M,0,117739,118144,162,383,162,363 F,0,117739,118144,0,1 M,0,118144,123617,162,363,162,338 F,0,118144,123617,1 M,0,123617,124023,162,338,162,349 F,0,123617,124023,1,0
Sprite,Foreground,Centre,"Lyirc\5-3.png",320,240 M,1,124428,124833,320,286,318,264 F,0,124428,124833,0,1 M,0,124833,128482,318,264,317,224 F,0,124833,128482,1,0.9975309 M,0,128482,129293,317,224,318,255 F,0,128482,129293,0.9975309,0
Sprite,Foreground,Centre,"Lyirc\5-4.png",320,240 M,0,129698,130104,323,134,323,150 F,0,129698,130104,0,1 F,0,130104,141455,1,0.9827586 M,0,130104,142975,323,150,325,238 F,0,141455,143077,0.9827586,0 M,0,142975,143077,325,238
Sprite,Foreground,Centre,"Lyirc\6-1.png",320,240 M,0,144293,144698,414,246,432,246 F,0,144293,144698,0,1 M,0,144698,149360,432,246,455,245 F,0,144698,149360,1,0.9975309 M,0,149360,149766,455,245,437,244 F,0,149360,149766,0.9975309,0
Sprite,Foreground,Centre,"Lyirc\6-2.png",320,240 M,0,150779,151185,243,245,228,245 F,0,150779,151185,0,1 M,0,151185,155847,228,245,201,245 F,0,151185,155847,1,0.997537 M,0,155847,156860,201,245,218,245 F,0,155847,156860,0.997537,0
Sprite,Foreground,Centre,"Lyirc\6-3.png",320,240 M,0,158077,158482,317,169,317,148 F,0,158077,158482,0,1 S,0,158077,158482,1.14336,0.9487997 M,0,158482,160509,317,148,317,125 F,0,158482,160509,1,0.9925926 M,0,160509,160914,317,125,317,133 F,0,160509,160914,0.9925926,0
Sprite,Foreground,Centre,"Lyirc\6-4.png",320,240 M,0,161320,161725,318,207,318,182 F,0,161320,161725,0,1 M,0,161725,163347,318,182,317,171 F,0,161725,163347,1 M,0,163347,163752,317,171,319,184 F,0,163347,163752,1,0
Sprite,Foreground,Centre,"Lyirc\6-5.png",320,240 M,0,163752,,320,240 F,0,163752,164158,0,1 F,0,164158,167401,1,0.9876847 S,0,164158,168921,1,1.39936 F,0,167401,169023,0.9876847,0 S,0,168921,169023,1.39936
Sprite,Foreground,Centre,"Lyirc\7-1.png",320,240 S,0,169833,,0.9590399 M,0,169833,170239,323,202,324,218 F,0,169833,170239,0,1 F,0,170239,177131,1,0.9950739 M,0,170239,178651,324,218,323,256 F,0,177131,178752,0.9950739,0 M,0,178651,178752,323,256
Sprite,Foreground,Centre,"Lyirc\7-2.png",320,240 S,0,179563,,0.8668801 M,0,179563,179968,315,275,315,256 F,0,179563,179968,0,1 M,0,179968,188482,315,256,316,227 F,0,179968,191725,1,0.9925926 F,0,191725,193347,0.9925926,0
Sprite,Foreground,Centre,"Lyirc\8-1.png",320,240 M,0,207131,207536,165,136,186,137 F,0,207131,207536,0,1 M,0,207536,211590,186,137,205,135 F,0,207536,211590,1,0.9910225 M,0,211590,211996,205,135,190,135 F,0,211590,211996,0.9910225,0
Sprite,Foreground,Centre,"Lyirc\8-2.png",320,240 M,0,212401,212806,414,211,394,210 F,0,212401,212806,0,1 M,0,212806,214833,394,210,380,210 F,0,212806,214833,1,0.9876543 M,0,214833,215239,380,210,394,209 F,0,214833,215239,0.9876543,0
Sprite,Foreground,Centre,"Lyirc\8-3.png",320,240 M,0,215644,216050,320,240,318,254 F,0,215644,216050,0,1 M,0,216050,220509,318,254,318,273 F,0,216050,220509,1,0.9876847 M,0,220509,220914,318,273,319,260 F,0,220509,220914,0.9876847,0
Sprite,Foreground,Centre,"Lyirc\9-1.png",320,240 M,0,222131,,320,240 F,0,222131,222536,0,1 F,0,222536,227401,1,0.9901235 S,0,222536,228212,1,1.16384 F,0,227401,228212,0.9901235,0
Sprite,Foreground,Centre,"Lyirc\9-2.png",320,240 F,0,228617,229023,0,1 F,0,229023,233685,1,0.9876847 S,0,229023,235509,1,1.17408 F,0,233685,235509,0.9876847,0
Sprite,Foreground,Centre,"Lyirc\9-3.png",320,240 M,0,235914,,320,240 F,0,235914,236320,0,1 S,0,235914,236320,1.256,1 F,0,236320,245239,1,0.9876847 S,0,236320,246860,1,1.14336 F,0,245239,246860,0.9876847,0
Sprite,Foreground,Centre,"Lyirc\9-3.png",320,240 F,0,236320,238752,0.4996915,0 S,0,236523,238752,1.005144,1.306774
Sprite,Foreground,Centre,"Lyirc\10-1.png",320,240 M,0,248077,248482,200,140,220,140 F,0,248077,248482,0,1 M,0,248482,253144,220,140,242,139 F,0,248482,253144,1 M,0,253144,253550,242,139,221,139 F,0,253144,253550,1,0
Sprite,Foreground,Centre,"Lyirc\10-2.png",320,240 M,0,254563,254968,466,213,444,212 F,0,254563,254968,0,1 M,0,254968,259631,444,212,424,212 F,0,254968,259631,1 M,0,259631,260036,424,212,440,212 F,0,259631,260036,1,0
Sprite,Foreground,Centre,"Lyirc\10-3.png",320,240 M,0,261860,262266,155,301,178,301 F,0,261860,262266,0,1 M,0,262266,267131,178,301,195,300 F,0,262266,267131,1 M,0,267131,267536,195,300,175,299 F,0,267131,267536,1,0
Sprite,Foreground,Centre,"Lyirc\10-4.png",320,240 M,0,267739,268144,445,372,463,372 F,0,267739,268144,0,1 M,0,268144,274833,463,372,481,373 F,0,268144,274833,1,0.9901235 F,0,274833,276050,0.9901235,0
//Storyboard Sound Samples
//Background Colour Transformations
3,100,163,162,255

[TimingPoints]
1222.36170842006,447.761194029851,4,2,2,40,1,0
14969,405.405405405405,4,2,1,75,1,0
72333,-100,4,2,1,5,0,0
72536,-100,4,2,1,75,0,0
73347,-100,4,2,1,75,0,1
99698,-100,4,2,1,75,0,0
143786,-100,4,2,1,5,0,0
143989,-100,4,2,1,75,0,0
144698,-100,4,2,1,75,0,1
170644,-100,4,2,1,75,0,0
222536,416.666666666667,4,2,1,45,1,0
222536,-200,4,2,1,45,0,0
227620,410.958904109589,4,2,1,45,1,0
227620,-200,4,2,1,45,0,0
229023,405.405405405405,4,2,1,60,1,0
232266,-100,4,2,1,50,0,0
233887,-100,4,2,1,75,0,1
233887,-100,4,2,1,75,0,0
235509,-100,4,2,1,75,0,0
248482,-100,4,2,1,75,0,1
277671,-100,4,2,1,75,0,0

[Colours]
Combo1 : 134,249,6
Combo2 : 15,210,221
Combo3 : 47,118,225
Combo4 : 230,9,124

[HitObjects]
372,108,1222,5,4
272,232,1670,1,2
196,256,1894,1,0
40,292,2341,1,0
24,212,2565,2,0,B|44:172|84:156,1,80,2|0
132,96,3013,6,0,B|212:60|292:92,1,160,4|2
348,144,3685,2,0,B|384:188|336:260|380:308,2,160
272,168,4804,6,0,B|232:244,1,80,4|0
156,220,5252,2,0,B|116:296,1,80,2|0
44,260,5699,1,0
32,180,5923,1,0
44,140,6035,1,0
72,112,6147,1,2
144,80,6371,1,0
220,108,6595,6,0,B|268:44,1,80,4|0
316,108,7043,2,0,B|364:44,1,80,2|0
444,184,7491,2,0,B|396:248,1,80
348,184,7938,2,0,B|300:248,1,80,2|0
104,148,8386,6,0,B|64:228|128:296,1,160,4|2
168,184,9058,2,0,B|100:247|20:207,1,160
16,128,9729,1,2
68,68,9953,1,0
148,68,10177,6,0,B|228:72|228:72|240:112|280:132,1,160,4|2
304,56,10849,2,0,B|360:88|368:152|320:192,1,160
252,228,11520,1,2
196,284,11744,1,0
164,308,11856,1,0
124,304,11968,2,0,B|96:268|64:252|64:252|68:208|48:172,1,160,4|2
72,96,12640,1,0
140,56,12864,5,0
236,64,13088,1,0
328,128,13311,1,2
364,252,13535,1,0
256,192,13647,12,4,14969
152,288,27941,6,0,B|232:324|308:288,1,160,4|2
332,212,28550,1,0
396,160,28752,2,0,B|428:132|428:84,2,80,0|0|2
320,136,29360,1,0
248,100,29563,6,0,B|168:72,1,80
160,152,29968,2,0,B|80:124,1,80,2|0
212,232,30374,2,0,B|292:260,1,80
236,320,30779,2,0,B|316:348,1,80,2|0
388,316,31185,5,0
388,316,31387,1,0
392,236,31590,2,0,B|408:196|448:172,1,80,2|0
48,156,32198,1,0
84,140,32300,1,0
104,108,32401,2,0,B|144:88|184:92,1,80,2|0
192,172,32806,2,0,B|196:216|224:248,1,80
280,300,33212,1,2
416,64,33617,1,0
144,68,34023,1,2
88,124,34225,1,0
84,164,34327,1,0
108,196,34428,6,0,B|124:236|116:280,2,80,0|0|2
256,132,35239,1,0
316,184,35441,1,0
356,172,35543,1,0
396,184,35644,2,0,B|436:200|480:184,2,80,2|0|0
356,252,36252,1,0
276,256,36455,2,0,B|264:344|164:360,1,160,2|0
120,296,37063,6,0,B|84:276|40:284,2,80,0|2|0
160,228,37671,2,0,B|172:184|204:160,1,80
284,156,38077,2,0,B|272:200|240:224,1,80,2|0
104,108,38482,2,0,B|143:85|183:91,1,80
352,272,38887,2,0,B|312:294|272:288,1,80,2|0
104,272,39293,5,0
36,228,39496,1,0
28,188,39597,1,0
40,148,39698,2,0,B|56:108|48:64,1,80,2|0
124,44,40104,1,0
180,136,40306,1,0
312,104,40509,1,2
284,216,40712,1,0
144,240,40914,6,0,B|140:280|116:316,2,80,4|0|2
160,160,41523,2,0,B|232:124|320:140,1,160
392,168,42131,1,2
328,216,42333,1,0
388,272,42536,2,0,B|392:316|372:352,1,80
248,216,42941,2,0,B|244:172|264:136,1,80,2|0
128,280,43347,2,0,B|132:324|112:360,1,80
32,176,43752,2,0,B|28:132|48:96,1,80,2|0
196,80,44158,5,0
308,140,44360,1,0
320,248,44563,1,2
252,316,44766,2,0,B|196:312|152:348|96:340,1,160
20,284,45374,1,2
20,204,45577,1,0
8,164,45678,1,0
20,128,45779,1,0
92,164,45982,2,0,B|132:152|176:160,2,80,0|2|0
252,188,46590,6,0,B|260:232|244:272,1,80
332,308,46996,2,0,B|306:344|266:361,1,80,2|0
196,332,47401,1,0
140,272,47604,1,0
140,272,47705,1,0
140,272,47806,1,2
48,140,48212,6,0,B|32:100|44:56,2,80,0|0|2
124,168,48820,1,0
124,168,49023,1,0
196,204,49225,1,0
212,240,49327,1,0
216,280,49428,1,2
376,264,49833,6,0,B|412:240|452:236,2,80,0|0|2
296,168,50441,1,0
260,152,50543,1,0
220,148,50644,2,0,B|184:132|140:140,1,80
132,288,51050,2,0,B|163:264|178:222,1,80,2|0
56,136,51455,2,0,B|60:175|89:209,1,80
24,260,51860,1,2
56,332,52063,1,0
92,352,52164,1,0
132,348,52266,1,0
200,304,52469,1,0
280,292,52671,6,0,B|324:296|352:328,1,80,2|0
428,348,53077,1,0
460,276,53279,1,0
464,236,53381,1,0
452,196,53482,1,2
412,128,53685,1,0
356,72,53887,6,0,B|328:104|336:148,1,80,4|0
352,284,54293,2,0,B|380:252|372:208,1,80,2|0
240,108,54698,2,0,B|212:140|220:184,1,80,2|0
236,320,55104,2,0,B|264:288|256:244,1,80,2|0
120,140,55509,2,0,B|92:172|100:216,1,80,2|0
116,352,55914,2,0,B|144:320|136:276,1,80,2|0
56,292,56320,1,2
56,292,56523,1,0
88,220,56725,1,2
164,196,56928,1,0
244,212,57131,6,0,B|284:224|324:216,1,80,2|0
464,160,57536,2,0,B|424:148|384:156,1,80,2|0
412,232,57941,2,0,B|452:244|492:236,1,80,2|0
296,136,58347,2,0,B|256:124|216:132,1,80,2|0
160,188,58752,2,0,B|148:228|156:268,1,80,2|0
224,308,59158,2,0,B|236:268|228:228,1,80,2|0
220,148,59563,1,2
268,84,59766,1,0
348,84,59969,1,2
352,156,60171,1,0
376,188,60273,1,0
380,228,60374,6,0,B|400:272|384:312,1,80,4|0
132,156,60779,2,0,B|112:112|128:72,1,80,2|0
320,280,61185,2,0,B|315:328|281:354,1,80,2|0
192,112,61590,2,0,B|196:63|230:37,1,80,2|0
244,288,61996,2,0,B|215:327|173:333,1,80,2|0
268,104,62401,2,0,B|311:84|352:100,1,80,2|0
176,252,62806,1,2
176,252,63009,1,0
308,168,63212,1,2
308,168,63414,1,0
236,200,63617,5,4
236,200,64428,1,4
120,84,65239,5,4
340,320,65644,1,0
312,64,66050,1,4
148,340,66455,1,0
256,192,66860,12,2,69698
256,192,69901,5,0
256,192,70002,1,0
256,192,70104,1,4
256,192,70205,12,0,72435
256,192,73347,5,4
180,172,73550,1,0
160,208,73651,1,0
160,248,73752,1,2
84,276,73955,2,0,B|76:316|100:352,2,80
72,196,74563,1,2
112,124,74766,1,0
224,80,74968,6,0,B|276:128|272:192,1,120
264,224,75374,2,0,B|256:264|288:308,1,80,2|0
352,260,75779,1,0
408,320,75982,1,0
388,356,76083,1,0
352,372,76185,1,2
276,348,76387,1,0
216,296,76590,6,0,B|180:272|136:284,1,80
80,340,76996,2,0,B|116:364|160:352,1,80,2|0
80,252,77401,1,0
112,180,77604,1,0
124,140,77705,1,0
156,116,77806,2,0,B|182:82|225:76,1,80,2|0
372,264,78212,6,0,B|388:304|372:344,1,80,4|0
300,308,78617,1,2
304,228,78820,1,4
232,264,79023,1,0
196,276,79124,1,0
160,260,79225,1,0
132,232,79327,1,0
124,192,79428,1,2
136,156,79529,1,0
164,128,79631,1,0
176,92,79732,1,0
172,52,79833,1,4
252,40,80036,5,0
276,72,80137,1,0
280,112,80239,1,2
272,192,80441,1,0
196,216,80644,2,0,B|156:216|120:236,1,80
140,312,81050,2,0,B|132:352|96:380,1,80,2|0
56,308,81455,6,0,B|36:268|96:196|76:152,1,160,0|2
92,76,82063,1,0
172,92,82266,2,0,B|212:104|240:136,2,80,0|0|2
132,160,82874,1,0
284,224,83077,6,0,B|304:292|276:344,1,120,4|0
240,336,83482,1,2
120,320,83685,1,0
64,216,83887,1,0
184,224,84090,1,0
264,132,84293,1,2
372,188,84496,2,0,B|428:244|428:244|472:228|516:240,1,160,4|0
456,128,85104,5,2
336,108,85306,2,0,B|316:44|316:44|268:20|216:36,1,160,4|0
236,152,85914,1,2
228,192,86016,1,0
212,228,86117,1,0
200,264,86218,1,0
196,304,86320,1,4
80,56,86725,6,0,B|72:96|36:124,2,80,2|0|0
156,32,87333,1,0
192,44,87435,1,0
220,72,87536,2,0,B|224:112|252:148,1,80,2|0
328,156,87941,2,0,B|324:116|296:80,1,80,4|0
412,252,88347,6,0,B|400:292|364:320,1,80,2|0
292,292,88752,1,0
216,316,88955,1,0
176,328,89056,1,0
148,356,89158,1,2
72,328,89360,2,0,B|40:300|40:256,1,80,0|4
120,264,89766,1,0
184,116,89968,6,0,B|196:76|188:36,2,80,2|0|0
116,160,90577,1,0
144,188,90678,1,0
184,196,90779,1,2
332,108,90982,1,0
424,212,91185,6,0,B|480:228|500:300|460:348,1,160,4|2
404,288,91793,1,0
368,300,91894,1,0
328,300,91996,2,0,B|288:308|252:288,1,80,4|0
200,224,92401,1,2
200,224,92604,1,0
44,112,92806,6,0,B|24:176|80:232,1,120,4|0
112,240,93212,2,0,B|136:272|144:324,2,80,2|0|0
120,160,93820,1,0
156,148,93921,1,0
196,148,94023,1,2
256,96,94225,1,0
324,140,94428,6,0,B|352:168|356:216,1,80,4|0
448,172,94833,2,0,B|448:211|416:248,1,80,2|0
344,272,95239,1,0
476,304,95441,1,0
476,304,95543,1,0
476,304,95644,2,0,B|448:332|400:336,1,80,2|0
324,348,96050,6,0,B|240:312|156:348|88:304,1,240,4|0
100,228,96860,1,0
168,184,97063,1,0
204,164,97164,1,0
216,124,97266,2,0,B|180:100|168:48,1,80,2|0
252,56,97671,2,0,B|288:80|300:132,1,80,4|0
356,176,98077,5,2
356,176,98279,1,0
324,248,98482,1,0
324,248,98685,1,0
248,268,98887,1,2
172,244,99090,2,0,B|160:224|144:212,2,40,0|0|4
92,264,99496,1,0
52,332,99698,1,2
256,192,99901,12,4,102536
136,164,112266,5,4
120,240,112468,1,0
148,316,112671,1,2
148,316,112874,1,0
252,216,113077,2,0,B|292:228|320:260,1,80
324,340,113482,1,2
324,340,113685,1,0
468,216,113887,6,0,B|476:172|456:136,1,80
332,196,114293,2,0,B|324:240|344:276,1,80,2|0
388,104,114698,2,0,B|344:96|308:116,1,80
416,316,115104,2,0,B|460:324|496:304,1,80,2|0
320,176,115509,5,0
244,148,115712,1,0
244,148,115813,1,0
244,148,115914,1,2
176,188,116117,2,0,B|164:232|184:264,2,80,0|0|0
120,132,116725,1,2
148,56,116928,2,0,B|192:48|220:24,2,80
120,132,117536,1,2
36,240,117739,5,0
40,280,117840,1,0
64,312,117941,1,0
172,256,118144,1,0
204,280,118246,1,0
216,316,118347,1,2
140,340,118550,1,0
232,200,118752,6,0,B|264:172|304:168,1,80,4|0
380,196,119158,2,0,B|404:280|360:356,1,160,2|0
272,268,119766,1,0
312,260,119867,1,0
348,272,119968,2,0,B|388:284|428:276,2,80,2|0|0
380,196,120577,1,0
372,116,120779,2,0,B|384:72|416:48,1,80
100,228,121387,6,0,B|96:248|84:264,2,40,0|0|2
116,148,121793,1,0
192,120,121996,2,0,B|248:88|308:84,1,120
340,104,122401,2,0,B|348:144|392:172,1,80,2|0
460,192,122806,1,0
444,272,123009,1,0
300,252,123212,1,2
324,328,123414,1,0
164,332,123617,6,0,B|124:272|148:212,1,120
184,204,124023,2,0,B|220:180|236:140,1,80,2|0
228,64,124428,1,0
264,52,124529,1,0
304,52,124631,1,0
340,72,124732,1,0
364,104,124833,1,2
376,144,124935,1,0
376,184,125036,1,0
364,224,125137,1,0
360,264,125239,1,4
260,268,125441,5,0
272,308,125543,1,0
304,332,125644,2,0,B|336:356|380:356,1,80,2|0
212,192,126050,2,0,B|180:168|136:168,1,80,2|0
104,296,126455,2,0,B|143:300|181:278,1,80,2|0
168,76,126860,2,0,B|128:71|90:93,1,80,2|0
264,132,127266,2,0,B|300:116|322:78,1,80,2|0
268,220,127671,2,0,B|231:235|209:273,1,80,2|0
392,128,128077,1,2
356,200,128279,1,0
340,236,128381,1,0
344,276,128482,1,4
420,256,128685,5,0
460,248,128786,1,0
488,276,128887,2,0,B|516:308|496:356,1,80,2|0
333,352,129293,2,0,B|361:320|341:272,1,80,2|0
232,228,129698,2,0,B|223:269|265:301,1,80,2|0
288,160,130104,2,0,B|296:118|254:86,1,80,2|0
144,104,130509,2,0,B|157:144|209:150,1,80,2|0
88,168,130914,2,0,B|74:127|22:121,1,80,2|0
20,200,131320,1,2
60,268,131523,2,0,B|48:284|44:304,2,40,0|0|4
172,196,131928,5,0
180,236,132029,1,0
192,276,132131,2,0,B|216:352,1,80,2|0
268,184,132536,2,0,B|292:260,1,80,2|0
344,100,132941,2,0,B|368:176,1,80,2|0
448,168,133347,6,0,B|424:244,1,80,2|0
356,288,133752,1,2
356,288,133955,1,0
252,352,134158,2,0,B|277:276,1,80,2|0
252,200,134563,1,2
252,200,134766,1,0
172,212,134968,5,4
212,120,135779,1,4
324,252,136590,1,4
472,156,137401,1,4
256,192,138212,12,2,141050
256,192,141252,5,0
256,192,141354,1,0
256,192,141455,1,4
256,192,141556,12,0,143887
108,160,144293,5,2
104,200,144394,1,0
124,236,144496,1,0
160,252,144597,1,0
200,248,144698,1,4
252,188,144901,6,0,B|276:152|328:152,1,80,0|2
356,224,145306,1,0
368,264,145408,1,0
352,300,145509,1,0
272,300,145712,1,0
216,356,145914,1,2
144,320,146117,1,0
68,348,146320,6,0,B|32:296|48:224,1,120
76,208,146725,2,0,B|92:168|80:128,1,80,2|0
160,112,147131,2,0,B|184:92|220:100|236:80,2,80,0|0|2
164,192,147739,1,0
164,232,147840,1,0
196,256,147941,2,0,B|216:292|216:332,1,80
284,120,148347,2,0,B|272:159|244:187,1,80,2|0
416,36,148752,2,0,B|386:64|347:74,1,80
324,108,149056,1,0
328,148,149158,2,0,B|344:188|332:232,1,80,2|0
132,308,149563,5,4
52,192,149766,1,0
272,240,149968,1,2
236,112,150171,2,0,B|300:60|388:68,1,160,4|0
424,76,150678,1,0
444,112,150779,1,2
436,152,150881,1,0
416,188,150982,1,0
416,228,151083,1,0
440,260,151185,5,4
304,312,151387,1,0
268,332,151489,1,0
228,324,151590,2,0,B|192:304|152:308,1,80,2|0
72,324,151996,1,0
112,168,152198,2,0,B|96:128|56:112,2,80,0|2|0
272,192,152806,6,0,B|304:252|376:260,1,120,4|0
408,256,153212,2,0,B|444:232|452:192,1,80,2|0
460,112,153617,1,0
412,48,153820,2,0,B|432:40|444:24,2,40,0|0|2
332,40,154225,1,0
112,108,154428,6,0,B|84:168|124:228,1,120,4|0
156,240,154833,2,0,B|180:272|176:316,1,80,2|0
108,360,155239,1,0
68,292,155441,1,0
80,212,155644,1,2
144,164,155847,2,0,B|180:140|228:136,1,80,0|4
344,168,156252,5,0
356,208,156354,1,0
388,228,156455,1,2
372,96,156658,2,0,B|412:116|416:164,1,80,4|0
432,292,157063,1,0
396,304,157164,1,0
356,296,157266,1,2
288,108,157468,1,0
248,228,157671,1,4
92,100,158077,6,0,B|72:140|100:180,1,80,2|0
416,288,158482,2,0,B|436:248|408:208,1,80
266,137,158887,2,0,B|224:180|288:256|244:288,1,160,4|0
56,320,159496,5,0
40,284,159597,1,0
60,248,159698,2,0,B|92:216|136:212,1,80,2|0
452,136,160104,2,0,B|420:168|376:172,1,80
228,120,160509,2,0,B|276:152|248:236|304:264,1,160,4|0
384,44,161117,5,0
368,80,161218,1,0
380,116,161320,2,0,B|400:156|396:196,1,80,2|0
128,236,161725,2,0,B|152:198|189:182,1,80
392,356,162131,2,0,B|347:353|314:329,1,80,2|0
120,28,162536,6,0,B|188:24|228:84,1,120,4|0
232,116,162941,2,0,B|248:156|284:184,1,80,2|0
364,196,163347,1,0
452,312,163550,1,0
444,176,163752,1,2
436,216,163854,1,0
416,252,163955,1,0
380,268,164056,1,0
340,268,164158,1,4
184,184,164360,5,0
104,192,164563,1,2
36,152,164766,2,0,B|16:188|36:232,1,80
96,280,165171,1,0
212,104,165374,1,2
288,80,165577,1,0
372,212,165779,6,0,B|392:272|360:332,1,120,4|0
320,328,166185,2,0,B|284:308|240:304,1,80,2|0
172,336,166590,1,0
160,260,166793,1,0
220,212,166996,1,2
256,200,167097,1,0
280,168,167198,1,0
280,128,167300,1,0
260,92,167401,1,4
200,144,167604,5,0
160,140,167705,1,0
128,116,167806,1,2
52,92,168009,1,0
48,132,168110,1,0
24,164,168212,1,0
56,236,168414,1,0
52,276,168516,1,0
76,308,168617,1,2
136,256,168820,5,0
172,236,168921,1,0
212,228,169023,1,0
252,228,169124,1,0
288,244,169225,1,0
308,280,169327,1,0
304,320,169428,1,2
268,340,169529,1,0
228,336,169631,1,0
208,304,169732,1,0
212,264,169833,5,0
336,136,170239,1,0
336,136,170644,1,4
256,192,180374,5,4
256,192,190104,12,0,191624
256,192,191725,12,2,194563
160,168,194969,5,4
116,236,195171,2,0,B|108:280|136:312,2,80,0|2|0
160,168,195779,1,0
220,116,195982,2,0,B|228:72|200:40,2,80,0|2|0
408,264,196590,6,0,B|412:304|396:344,1,80
304,200,196996,2,0,B|327:232|333:275,1,80,2|0
180,200,197401,2,0,B|216:216|243:250,1,80
76,264,197806,2,0,B|116:259|156:276,1,80,2|0
324,120,198212,6,0,B|344:84|344:40,2,80,0|0|2
208,160,198820,1,0
260,272,199023,2,0,B|281:307|319:329,2,80,0|0|2
208,160,199631,1,0
104,96,199833,2,0,B|62:96|24:118,2,80,0|0|2
208,160,200441,1,0
208,160,200543,1,0
208,160,200644,1,0
164,292,200847,1,0
312,248,201050,1,2
228,236,201252,1,0
228,236,201455,5,4
444,76,201860,1,2
280,148,202266,1,0
324,212,202469,1,0
316,292,202671,1,2
164,248,203077,6,0,B|124:256|92:288,2,80,0|0|2
184,168,203685,1,0
264,164,203887,2,0,B|256:124|224:92,2,80,0|0|2
248,324,204698,5,4
404,288,205104,1,2
48,128,205509,1,4
140,260,205914,1,2
388,64,206320,1,4
304,200,206725,1,2
172,108,207131,1,0
304,200,207536,1,2
256,48,207941,6,0,B|236:88|256:128,1,80,4|0
372,288,208347,2,0,B|392:248|372:208,1,80,2|0
340,68,208752,2,0,B|342:112|380:137,1,80,2|0
252,324,209158,2,0,B|285:301|288:256,1,80,2|0
136,212,209563,6,0,B|160:249|205:252,1,80,2|0
200,172,209969,2,0,B|175:134|130:131,1,80,2|0
164,56,210374,1,2
164,56,210577,1,0
296,112,210779,1,2
296,112,210982,1,0
416,192,211185,6,0,B|376:172|336:192,1,80,4|0
376,348,211590,2,0,B|396:308|376:268,1,80,2|0
220,304,211996,2,0,B|260:324|300:304,1,80,2|0
260,148,212401,2,0,B|240:188|260:228,1,80,2|0
416,252,212806,6,0,B|402:209|359:195,1,80,2|0
408,44,213212,2,0,B|365:58|351:101,1,80,2|0
200,52,213617,2,0,B|214:95|257:109,1,80,2|0
204,260,214023,2,0,B|247:246|261:203,1,80,2|0
108,156,214428,6,0,B|148:136|188:156,1,80,4|0
104,292,214833,2,0,B|64:311|24:292,1,80,2|0
188,288,215239,2,0,B|185:332|148:357,1,80,2|0
28,156,215644,2,0,B|30:111|68:86,1,80,2|0
200,176,216050,2,0,B|162:151|160:106,1,80,2|0
276,220,216455,2,0,B|313:244|316:289,1,80,2|0
280,120,216860,5,2
280,120,217063,1,0
212,264,217266,1,2
212,264,217469,1,0
160,156,217671,5,4
352,228,218077,1,2
213,98,218482,1,4
298,285,218887,1,2
292,96,219293,1,4
219,288,219698,1,2
349,149,220104,1,4
162,234,220509,1,2
256,192,220914,12,2,222536
144,164,223369,5,2
76,308,224202,2,0,B|104:352|184:352|220:308,1,160,2|2
436,76,225869,2,0,B|408:32|328:32|292:76,1,160,2|2
152,216,227620,6,0,B|120:244,2,40,0|2|0
216,168,228441,1,0
216,168,228647,1,2
256,236,229023,5,0
364,188,229428,1,2
416,296,229833,1,0
308,344,230239,1,2
256,148,230644,5,0
148,196,231050,1,2
96,88,231455,1,0
204,40,231860,1,2
256,192,232266,5,4
256,76,232469,1,0
256,76,232570,1,0
256,76,232671,1,2
348,140,232874,1,0
348,252,233077,1,2
256,316,233279,1,0
160,252,233482,1,2
156,140,233685,1,0
408,152,233887,5,4
348,72,234090,1,0
104,152,234293,1,4
164,72,234496,1,4
256,132,234698,5,2
296,144,234800,1,0
316,180,234901,1,0
312,220,235002,1,0
284,248,235104,1,2
244,252,235205,1,0
208,232,235306,1,0
196,192,235408,1,0
208,152,235509,1,4
32,280,235914,6,0,B|68:352,1,80,2|0
120,292,236320,2,0,B|84:220,1,80
72,140,236725,2,0,B|84:52|180:32,1,160,0|4
328,108,237536,6,0,B|388:48,1,80,2|0
352,192,237941,2,0,B|412:132,1,80
276,168,238347,2,0,B|228:161|180:181|180:181|136:133,1,160,0|4
196,264,239158,6,0,B|140:324,1,80,2|0
316,264,239563,2,0,B|372:324,1,80
256,60,239969,1,2
256,140,240171,1,0
256,180,240273,1,0
256,220,240374,1,4
256,300,240577,1,0
184,196,240779,2,0,B|168:112,1,80,2|0
328,196,241185,2,0,B|344:112,1,80
176,36,241590,2,0,B|336:36,1,160,2|4
76,248,242401,6,0,B|64:292|32:316,2,80,2|0|0
68,168,243009,1,0
140,132,243212,2,0,B|184:128|216:100,1,80,2|0
224,24,243617,2,0,B|276:40|304:104|356:120,1,160,4|2
432,132,244225,1,0
420,212,244428,1,0
340,200,244631,1,0
128,288,245036,5,0
104,256,245137,1,0
104,216,245239,2,0,B|156:152|252:156,1,160,4|2
404,172,245847,2,0,B|352:236|256:232,1,160,4|0
316,144,246455,2,0,B|344:108|344:68,2,80,4|0|0
192,240,247063,2,0,B|164:276|164:316,2,80,4|2|0
220,152,247671,1,4
220,148,248077,1,2
64,208,248482,6,0,B|48:272|88:320,1,120,4|0
128,328,248887,2,0,B|168:336|212:320,1,80,2|0
268,268,249293,2,0,B|308:272|336:308,1,80
416,296,249698,2,0,B|444:268|460:228,1,80,2|0
384,64,250104,6,0,B|428:116|412:184,1,120,4|0
380,196,250509,2,0,B|340:184|296:200,1,80,2|0
240,248,250914,2,0,B|212:216|228:168,2,80,0|0|2
312,280,251523,1,0
144,312,251725,6,0,B|120:276|164:232|132:192,1,120,4|0
100,176,252131,2,0,B|72:140|88:100,1,80,2|0
152,52,252536,2,0,B|180:88|164:128,1,80
216,188,252941,1,2
272,128,253144,1,0
420,184,253347,5,4
416,328,253550,1,0
300,244,253752,1,4
164,296,253955,2,0,B|116:316|48:276|52:216,1,160,4|0
56,176,254462,1,0
76,144,254563,1,2
112,128,254664,1,0
152,128,254766,1,0
184,148,254867,1,0
204,184,254969,1,4
448,228,255374,6,0,B|464:268|456:308,2,80,2|0|0
380,188,255982,1,0
412,116,256185,1,2
484,152,256387,1,0
320,136,256590,6,0,B|268:168|196:152,1,120,4|0
164,144,256996,1,2
196,72,257198,2,0,B|212:32|248:8,2,80
116,80,257806,1,2
84,152,258009,1,0
96,192,258110,1,0
128,216,258212,6,0,B|168:220|204:256|248:260,1,120,4|0
280,264,258617,2,0,B|320:248|340:204,1,80,2|0
360,92,259023,2,0,B|376:54|416:38,2,80,0|0|2
252,140,259631,1,0
412,208,259833,6,0,B|444:288,1,80,4|0
349,254,260239,2,0,B|320:180,1,80,4|0
228,152,260644,2,0,B|257:226,1,80,0|4
136,124,261050,2,0,B|165:198,1,80,4|0
36,324,261455,6,0,B|44:284|80:252,1,80,4|0
296,220,261860,2,0,B|288:260|252:292,1,80,2|0
180,204,262266,1,0
128,144,262469,1,0
120,104,262570,1,0
136,68,262671,1,2
200,120,262874,2,0,B|236:108|288:116,1,80,0|4
456,276,263482,6,0,B|408:340,1,80,2|0
368,272,263887,2,0,B|416:208,1,80
432,128,264293,1,2
352,124,264496,1,0
328,156,264597,1,0
304,188,264698,1,4
48,304,265104,6,0,B|28:228,1,80,2|0
164,196,265509,2,0,B|184:120,1,80
464,304,265914,2,0,B|484:228,1,80,2|0
348,196,266320,2,0,B|327:120,1,80,4|0
296,288,266725,2,0,B|275:212,1,80,4|0
220,152,267131,1,0
140,164,267333,1,0
112,192,267435,1,0
100,228,267536,1,2
180,236,267739,1,0
20,236,267941,6,0,B|12:192|28:144,1,80,4|0
60,84,268347,1,2
140,84,268550,2,0,B|180:72|216:44,1,80
292,48,268955,1,0
348,104,269158,2,0,B|360:144|352:184,1,80,2|0
455,295,269563,6,0,B|444:256|452:216,1,80,4|0
472,140,269969,1,2
472,140,270171,1,0
32,320,270577,5,0
36,280,270678,1,0
60,248,270779,1,2
128,208,270982,1,0
172,140,271185,6,0,B|200:108|236:96,1,80,4|0
348,184,271590,2,0,B|344:140|316:108,1,80,2|0
264,168,271996,5,0
276,204,272097,1,0
280,244,272198,1,0
268,284,272300,1,0
236,308,272401,1,2
200,320,272502,1,0
160,312,272604,1,0
128,288,272705,1,0
116,252,272806,1,4
68,188,273009,6,0,B|56:172|36:160,2,40,0|0|2
136,144,273414,1,0
192,204,273617,2,0,B|208:244|196:284,1,80,0|0
340,112,274023,1,2
408,212,274225,1,0
168,156,274631,1,0
184,36,274833,1,2
256,192,274935,12,4,277671
