osu file format v9

[General]
AudioFilename: Owari no sekai.mp3
AudioLeadIn: 1000
PreviewTime: 73254
Countdown: 0
SampleSet: Soft
StackLeniency: 0.7
Mode: 0
LetterboxInBreaks: 0

[Editor]
DistanceSpacing: 1
BeatDivisor: 4
GridSize: 4

[Metadata]
Title:Owari no Sekai Kara (Short Ver.)
Artist:yanaginagi
Creator:jesse7419
Version:Saya
Source:Owari no Hoshi no Love Song
Tags:Jun Maeda Yanagi Nagi Saya-Honmei

[Difficulty]
HPDrainRate:6
CircleSize:4
OverallDifficulty:7
ApproachRate:8
SliderMultiplier:1.8
SliderTickRate:1

[Events]
//Background and Video events
0,0,"BG.jpg"
Video,0,"Owari no Hoshi no Love Song- Owari no Sekai Kara.avi"
//Break Periods
//Storyboard Layer 0 (Background)
//Storyboard Layer 1 (Fail)
//Storyboard Layer 2 (Pass)
//Storyboard Layer 3 (Foreground)
//Storyboard Sound Samples
//Background Colour Transformations
3,100,163,162,255

[TimingPoints]
-255,447.761194029851,4,2,1,30,1,0
1088,-200,4,2,1,30,0,0
15080,405.405405405405,4,2,1,50,1,0
15282,405.405405405405,4,2,1,55,1,0
28254,-100,4,2,2,45,0,0
34538,-100,4,2,1,45,0,0
34640,-100,4,2,2,45,0,0
41025,-100,4,2,1,55,0,0
63525,-100,4,2,1,40,0,0
63930,-200,4,2,1,50,0,0
65552,-200,4,2,2,50,0,0
66363,-200,4,2,1,35,0,0
67984,-200,4,2,2,45,0,0
72748,-200,4,2,1,20,0,0
72849,-100,4,2,1,50,0,0
73660,-100,4,2,1,80,0,1
87038,-100,4,2,1,70,0,1
96261,-100,4,2,1,70,0,0
96363,-100,4,2,1,70,0,1
100011,-100,4,2,1,50,0,0
100214,-100,4,2,1,35,0,0
102849,-100,4,2,1,30,0,0

[Colours]
Combo1 : 146,88,96
Combo2 : 78,139,113
Combo3 : 215,113,87
Combo4 : 251,245,179

[HitObjects]
256,192,1088,1,0
328,136,1312,1,0
384,208,1536,2,0,B|400:252|384:296,1,90,2|0
240,344,2207,2,0,B|256:300|296:276,1,90
256,192,2879,1,0
256,192,3103,1,0
164,192,3327,5,2
208,112,3550,1,0
116,112,3774,1,0
116,112,3998,2,0,B|56:112,2,45
208,112,4670,1,0
256,192,4894,1,0
340,164,5118,6,0,B|372:124|420:124,1,90,2|0
452,208,5789,2,0,B|472:224|480:252,1,45
428,320,6237,2,0,B|408:304|400:276,1,45
316,252,6685,1,0
316,252,6909,2,0,B|220:252,2,90,2|0|0
112,96,8252,6,0,B|68:116|52:168,2,90,0|2|0
196,132,9371,2,0,B|240:112|256:60,2,90
136,200,10491,6,0,B|104:236,1,45,2|0
172,296,10939,2,0,B|142:329,1,45,0|0
260,272,11386,2,0,B|289:238,1,45,0|0
372,276,11834,2,0,B|401:242,1,45,0|0
460,172,12282,6,0,B|440:128|396:108,1,90,2|0
336,176,12953,1,0
336,176,13177,2,0,B|316:156|288:156,1,45
232,220,13625,2,0,B|252:240|280:240,1,45
256,192,14073,12,4,15282
416,80,15687,6,0,B|320:72|276:172,1,180,0|0
360,296,16295,2,0,B|380:252|360:208,1,90,0|8
192,140,16700,2,0,B|100:140,1,90,4|0
64,224,17106,2,0,B|160:224,1,90,0|8
216,84,17511,2,0,B|124:84,1,90,0|0
36,276,17917,2,0,B|132:276,1,90,0|8
228,332,18322,1,0
272,320,18423,1,0
308,292,18525,6,0,B|364:216|344:120,1,180,4|8
188,32,19133,2,0,B|152:60|160:116,1,90
203,248,19538,2,0,B|239:220|232:168,1,90,0|8
56,120,19944,1,4
72,208,20146,1,0
116,288,20349,2,0,B|144:328|192:340,1,90,0|8
204,248,20754,1,0
292,232,20956,1,0
372,188,21160,2,0,B|392:176|396:152,5,45,0|0|8|0|8|0
352,144,21768,6,0,B|296:60|196:76,1,180,4|8
203,244,22376,2,0,B|232:208|228:160,1,90
116,220,22781,2,0,B|87:256|91:304,1,90,0|8
176,332,23187,6,0,B|220:352|264:332,1,90,4|0
224,156,23592,2,0,B|180:136|136:156,1,90,0|8
308,216,23998,2,0,B|352:236|396:216,1,90
288,72,24403,2,0,B|276:48|248:48,5,45,0|0|8|0|8|0
248,92,25011,6,0,B|156:76|80:148,2,180,4|8|0
320,148,26025,1,0
380,216,26227,1,8
460,260,26430,2,0,B|480:216|460:172,2,90,4|0|0
380,304,27038,1,8
304,264,27241,2,0,B|284:308|304:352,2,90
380,216,27849,1,8
360,176,27950,1,0
332,140,28052,1,8
292,120,28153,1,0
248,104,28254,6,0,B|156:104,1,90,4|0
72,136,28660,2,0,B|88:180|136:192,1,90,2|0
168,276,29065,2,0,B|212:260|224:212,1,90,2|0
244,124,29471,2,0,B|293:136|309:180,1,90,2|0
232,344,29876,6,0,B|136:344,1,90,2|0
44,192,30281,2,0,B|56:142|100:126,1,90,2|0
232,248,30687,2,0,B|182:235|166:191,1,90,2|0
328,108,31092,2,0,B|377:120|393:164,1,90,2|0
372,344,31498,5,2
320,268,31700,1,0
232,248,31903,2,0,B|136:248,2,90,2|0|2
256,336,32511,1,0
320,268,32714,1,2
320,176,32917,2,0,B|316:128|272:100,2,90,0|2|0
248,12,33525,2,0,B|200:16|172:60,2,90,2|0|2
336,40,34133,1,0
384,116,34336,1,2
320,176,34538,5,2
320,176,34640,1,0
320,176,34741,1,2
228,176,34944,2,0,B|140:176,2,90
100,304,35552,2,0,B|192:304,1,90,2|0
268,348,35957,1,2
320,276,36160,2,0,B|364:300|376:356,2,90,0|2|0
320,184,36768,2,0,B|320:4,1,180,2|2
400,140,37376,5,0
460,240,37579,1,2
320,184,37781,2,0,B|224:184,1,90,0|2
156,276,38187,1,0
64,204,38390,1,2
152,128,38592,2,0,B|180:92|232:96,1,90,0|2
288,268,38998,2,0,B|336:272|368:308,1,90,0|2
256,352,39403,1,0
256,352,39606,5,2
56,192,40011,1,2
256,32,40417,1,2
456,192,40822,1,2
388,96,41025,1,8
388,96,41126,1,0
388,96,41227,6,0,B|340:108|316:152,1,90,4|0
288,264,41633,1,8
456,350,41836,2,0,B|444:302|404:280,1,90
288,264,42241,2,0,B|192:264,1,90,0|8
140,332,42646,1,0
56,192,42849,5,0
108,88,43052,1,0
184,212,43254,2,0,B|224:244|272:236,1,90,8|0
296,24,43660,1,0
244,128,43863,1,0
360,112,44065,2,0,B|400:84|412:36,1,90,8|0
152,72,44471,6,0,B|112:100|100:148,1,90
238,243,44876,2,0,B|228:200|188:172,1,90,8|0
120,232,45281,1,0
120,232,45484,2,0,B|24:232,2,90,0|8|0
159,343,46092,6,0,B|228:396|260:288|328:352,1,180,0|8
404,304,46700,1,0
404,304,46903,2,0,B|376:264|328:248,1,90
244,248,47309,1,8
156,248,47511,2,0,B|112:248,2,45
196,168,47917,5,0
244,248,48119,1,8
196,324,48322,1,0
104,324,48525,2,0,B|56:320|32:276,2,90,0|0|8
104,324,49133,1,0
196,324,49336,5,0
256,224,49538,1,0
368,264,49741,1,8
424,192,49944,5,0
456,276,50146,1,0
368,264,50349,2,0,B|332:232|336:176,1,90,0|8
387,19,50754,2,0,B|423:51|420:100,2,90
264,108,51363,1,8
264,108,51565,2,0,B|168:108,1,90
52,200,51971,1,0
132,284,52173,1,8
52,200,52376,1,0
224,360,52579,6,0,B|268:380|312:360,1,90,0|0
252,192,52984,2,0,B|208:172|164:192,1,90,8|0
68,344,53390,1,0
132,284,53592,1,8
52,200,53795,1,8
168,108,53998,1,8
308,160,54200,6,0,B|352:176|376:215,1,90,6|0
204,224,54606,2,0,B|160:208|135:168,1,90,2|0
296,252,55011,2,0,B|280:296|240:320,1,90,2|0
216,132,55417,2,0,B|232:88|271:63,1,90,2|0
380,208,55822,2,0,B|410:243|412:290,1,90,2|0
132,176,56227,2,0,B|101:140|99:93,1,90,2|0
256,192,56633,1,2
180,284,56836,1,0
296,304,57038,1,2
296,304,57140,1,0
296,304,57241,6,0,B|340:288|360:244,1,90,0|2
216,80,57646,2,0,B|172:96|152:140,2,90,0|2|0
316,140,58254,1,2
400,60,58457,1,0
428,176,58660,1,2
340,252,58863,1,0
228,216,59065,6,0,B|138:216,1,90,2|0
64,308,59471,2,0,B|164:308,2,90,2|0|2
138,216,60079,1,0
88,112,60281,1,2
88,112,60383,1,0
88,112,60484,6,0,B|100:64|136:36,2,90,0|6|0
180,116,61092,1,2
260,160,61295,1,0
256,68,61498,1,2
180,116,61700,1,0
132,192,61903,1,2
132,192,62106,6,0,B|32:192,2,90,0|2|0
224,264,62714,1,2
224,264,62917,2,0,B|320:264,2,90,0|2|0
160,96,63525,1,4
96,264,63727,1,0
256,180,63930,5,4
256,136,64741,1,4
256,96,65552,6,0,B|256:0,2,90,4|0|4
344,72,66768,2,0,B|384:96|404:144,2,90,0|4|0
256,96,67984,5,2
164,96,68390,1,0
56,240,68795,5,2
144,240,69200,1,0
284,352,69606,5,2
284,352,69809,2,0,B|244:324,1,45,0|2
256,236,70214,1,2
256,236,70315,1,2
256,236,70417,1,6
256,192,70518,12,8,72748
200,100,73254,6,0,B|156:124|140:180,1,90
381,323,73660,2,0,B|352:228|260:200,1,180,4|8
152,248,74268,2,0,B|172:292|216:308,1,90
322,136,74673,2,0,B|280:160|260:200,1,90,0|8
408,168,75079,1,0
416,124,75180,1,0
408,80,75281,6,0,B|380:36|336:24,1,90
256,60,75687,1,8
112,172,75890,2,0,B|88:212|92:264,2,90
196,252,76498,1,8
308,220,76700,1,0
276,332,76903,6,0,B|188:284|200:180,1,180,0|8
288,104,77511,1,0
308,220,77714,1,0
400,144,77917,1,0
400,144,78018,1,0
400,144,78119,1,8
420,260,78322,1,0
256,88,78525,6,0,B|212:72|168:88,1,90,4|0
100,184,78930,1,8
216,168,79133,2,0,B|272:172|320:232|312:300,1,180,4|0
204,256,79741,1,8
164,240,79842,1,0
136,204,79944,1,8
128,160,80045,1,0
144,120,80146,6,0,B|176:80|224:60|276:64|305:86,1,180,4|8
404,152,80754,2,0,B|372:192|324:212|272:208|228:176,1,180
306,87,81363,1,8
412,160,81565,1,0
412,160,81667,1,0
412,160,81768,6,0,B|432:116|412:72,1,90,2|0
248,240,82173,2,0,B|228:284|248:328,1,90,8|2
444,292,82579,1,0
443,291,82781,2,0,B|396:208|312:173,1,180,2|0
68,92,83390,6,0,B|116:176|199:210,1,180,4|0
256,108,83998,1,0
368,80,84200,1,4
424,252,84403,1,0
248,212,84606,1,8
420,156,84809,1,0
372,328,85011,6,0,B|324:320|296:272,1,90,4|0
140,56,85417,2,0,B|188:64|216:112,1,90,8|4
120,308,85822,1,8
136,264,85923,1,0
168,232,86025,1,0
208,208,86126,1,0
244,232,86227,1,8
276,264,86329,1,0
320,280,86430,1,0
364,264,86531,1,0
400,240,86633,6,0,B|428:200|416:154,1,90,4|0
340,64,87038,2,0,B|256:24|164:64,2,180,8|0|8
416,156,88052,1,2
416,156,88153,1,0
416,156,88254,5,4
324,232,88457,1,0
252,140,88660,2,0,B|212:224|252:316,2,180,8|0|8
324,232,89673,1,2
324,232,89775,1,0
324,232,89876,6,0,B|368:248|388:296,1,90,4|0
152,288,90281,2,0,B|108:272|88:224,1,90,8|0
144,52,90687,1,0
224,140,90890,1,0
224,140,90991,1,0
224,140,91092,2,0,B|272:144|300:192,1,90,8|0
86,329,91498,6,0,B|100:264|152:220|216:232,1,180,4|8
296,188,92106,1,0
347,350,92309,2,0,B|298:382|210:370|188:320,1,180,12|8
64,192,92917,1,8
64,192,93018,1,0
64,192,93119,6,0,B|72:120|148:92|200:112,1,180,4|8
159,284,93727,2,0,B|143:240|160:196,1,90
332,248,94133,2,0,B|348:292|331:336,1,90,0|8
160,284,94538,1,0
236,119,94741,6,0,B|312:64|409:87,1,180,4|8
436,264,95349,2,0,B|452:308|436:352,1,90
76,120,95754,2,0,B|60:76|76:32,1,90,0|8
256,192,96160,1,8
340,112,96363,6,0,B|382:126|402:174,1,90,4|0
172,272,96768,1,8
172,272,96869,1,0
172,272,96971,2,0,B|130:258|110:210,2,90,0|0|0
256,192,97579,1,8
256,192,97781,1,0
308,88,97984,5,2
352,72,98086,1,0
392,92,98187,1,2
400,136,98288,1,0
380,176,98390,1,10
352,208,98491,1,0
324,244,98592,2,0,B|304:292|324:332,2,90,2|8|0
132,208,99200,1,8
92,96,99403,1,0
204,124,99606,2,0,B|248:144|256:192,1,90,8|0
256,192,100011,1,4
256,192,100214,12,4,102849
