osu file format v9

[General]
AudioFilename: Owari no sekai.mp3
AudioLeadIn: 1000
PreviewTime: 73254
Countdown: 0
SampleSet: Soft
StackLeniency: 0.7
Mode: 0
LetterboxInBreaks: 0

[Editor]
DistanceSpacing: 1.2
BeatDivisor: 4
GridSize: 8

[Metadata]
Title:Owari no Sekai Kara (Short Ver.)
Artist:yanaginagi
Creator:jesse7419
Version:Normal
Source:Owari no Hoshi no Love Song
Tags:Jun Maeda Yanagi Nagi Saya-Honmei

[Difficulty]
HPDrainRate:3
CircleSize:3
OverallDifficulty:3
ApproachRate:4
SliderMultiplier:1.2
SliderTickRate:1

[Events]
//Background and Video events
0,0,"BG.jpg"
Video,0,"Owari no Hoshi no Love Song- Owari no Sekai Kara.avi"
//Break Periods
//Storyboard Layer 0 (Background)
//Storyboard Layer 1 (Fail)
//Storyboard Layer 2 (Pass)
//Storyboard Layer 3 (Foreground)
//Storyboard Sound Samples
//Background Colour Transformations
3,100,163,162,255

[TimingPoints]
-255,447.761194029851,4,2,1,50,1,0
3550,-100,4,2,2,5,0,0
3998,-100,4,2,1,50,0,0
10715,-100,4,2,2,5,0,0
10939,-100,4,2,1,50,0,0
15080,405.405405405405,4,1,1,50,1,0
15282,405.405405405405,4,1,1,50,1,0
17917,-100,4,1,1,65,0,0
18119,-100,4,1,1,80,0,0
18322,-100,4,1,1,65,0,0
18525,-100,4,1,1,50,0,0
28457,-100,4,2,2,70,0,0
34538,-100,4,2,1,60,0,0
34944,-100,4,2,2,70,0,0
40011,-100,4,2,2,50,0,0
40417,-100,4,2,2,65,0,0
40822,-100,4,2,2,70,0,0
41025,-100,4,2,1,50,0,0
41227,-100,4,1,1,50,0,0
41633,-100,4,2,2,70,0,0
44065,-100,4,2,1,50,0,0
44268,-100,4,2,2,70,0,0
47309,-100,4,2,1,50,0,0
47511,-100,4,2,2,70,0,0
50552,-100,4,2,1,50,0,0
50754,-100,4,2,2,70,0,0
53187,-100,4,2,1,50,0,0
53390,-100,4,1,1,65,0,0
53795,-100,4,1,1,80,0,0
53998,-100,4,1,1,50,0,0
54606,-100,4,2,1,60,0,0
63525,-100,4,1,1,50,0,0
63727,-100,4,2,1,50,0,0
64336,-100,4,2,2,50,0,0
67984,-100,4,2,2,70,0,0
68390,-100,4,2,1,50,0,0
68795,-100,4,2,2,70,0,0
69200,-100,4,2,1,50,0,0
69606,-100,4,2,2,70,0,0
72038,-100,4,2,1,70,0,0
73660,-100,4,1,1,70,0,1
78525,-100,4,1,1,50,0,1
78930,-100,4,1,1,70,0,1
88254,-100,4,1,1,50,0,1
88660,-100,4,1,1,70,0,1
89876,-100,4,1,1,60,0,1
90281,-100,4,1,1,70,0,1
91498,-100,4,1,1,65,0,1
91903,-100,4,1,1,70,0,1
99606,-100,4,1,1,50,0,0

[Colours]
Combo1 : 146,88,96
Combo2 : 78,139,113
Combo3 : 215,113,87
Combo4 : 251,245,179

[HitObjects]
152,64,1088,1,0
208,112,1312,1,0
136,136,1536,2,0,B|136:216|216:248,1,120,2|0
264,240,2207,2,0,B|319:259|319:339,1,120,2|0
432,248,3103,6,0,B|480:136|480:136|432:24,1,240,2|0
328,128,4446,1,0
200,56,4894,5,0
152,112,5118,2,0,B|88:104|40:152,2,120,2|0|0
168,184,6237,2,0,B|136:240|176:312,1,120,2|0
224,344,6909,1,2
448,160,7804,1,2
312,104,8252,5,0
264,160,8476,1,0
240,88,8700,2,0,B|160:88|128:168,1,120,2|0
136,216,9371,2,0,B|116:271|36:271,1,120,2|0
184,296,10267,6,0,B|208:384|312:216|336:296,1,180,2|0
376,344,11162,2,0,B|448:336|488:264,1,120,0|0
256,192,12282,12,0,13849
448,48,15282,6,0,B|488:120|456:184,1,120,12|0
368,272,16092,2,0,B|408:320,2,60,0|8|0
296,248,16700,2,0,B|224:248|192:184,1,120,12|0
56,176,17511,2,0,B|56:104|111:76,1,120,8|0
176,48,18119,1,0
241,77,18322,1,0
307,48,18525,6,0,B|379:40|403:136,1,120,12|0
368,256,19336,2,0,B|368:320,2,60,0|8|0
296,248,19944,2,0,B|232:272|200:328,1,120,12|0
168,184,20754,2,0,B|139:134|75:110,1,120,8|0
280,184,21768,6,0,B|302:117|374:125,2,120,12|0|0
280,256,22781,1,8
224,304,22984,1,0
152,296,23187,2,0,B|79:272|56:208,2,120,12|0|8
184,160,24403,1,8
376,264,25011,6,0,B|432:232|437:165,2,120,4|0|0
312,224,26025,1,8
248,264,26227,1,0
184,224,26430,2,0,B|128:192|123:125,1,120,12|8
256,80,27241,2,0,B|320:56|368:102,1,120,8|8
368,176,27849,1,8
264,272,28254,6,0,B|232:344|160:360,1,120,4|2
144,288,28863,2,0,B|112:216|40:200,1,120
168,104,29673,1,0
216,48,29876,2,0,B|253:108|309:116,2,120,0|2|0
168,184,31092,1,2
208,320,31498,6,0,B|176:320|144:288,2,60,0|0|2
240,256,32106,2,0,B|312:264|352:192,1,120
376,144,32714,2,0,B|406:87|478:95,1,120,2|0
464,240,33525,1,2
342,316,33930,6,0,B|278:332|222:276,1,120,0|2
192,224,34538,2,0,B|168:160|208:104,1,120,2|0
240,48,35146,1,2
352,136,35552,6,0,B|368:200|328:256,1,120
287,307,36160,2,0,B|239:347|159:323,1,120,0|0
112,280,36768,1,2
192,160,37173,6,0,B|232:104|296:104,1,120,0|2
364,105,37781,2,0,B|404:177|404:177|380:281,1,180,0|2
328,320,38592,2,0,B|264:320|264:320|216:288,2,120
328,248,39606,5,2
328,104,40011,1,2
456,176,40417,1,2
328,248,40822,1,2
269,289,41025,1,8
260,218,41227,6,0,B|243:146|188:122,1,120,4|2
140,178,41836,2,0,B|100:226|100:298,2,120
124,106,42849,1,2
248,32,43254,1,2
392,64,43660,1,2
472,184,44065,1,8
336,224,44471,6,0,B|344:296|280:336,1,120,0|2
216,336,45079,2,0,B|144:344|104:280,1,120
144,224,45687,1,2
176,160,45890,2,0,B|216:56|336:56,1,180,0|2
400,168,46903,6,0,B|434:216,1,60
472,280,47309,1,8
435,342,47511,2,0,B|315:342,1,120,0|0
240,344,48119,1,2
96,336,48525,6,0,B|72:264|136:216,1,120,0|2
168,168,49133,2,0,B|128:128|128:128|48:128,1,120
64,56,49741,1,2
208,88,50146,6,0,B|216:115|250:127,1,60
299,73,50552,1,8
344,128,50754,2,0,B|400:176|400:176|400:272|400:272|344:320,1,240
200,296,51971,5,0
144,248,52173,1,2
128,176,52376,2,0,B|128:104|208:80,2,120,0|0|8
200,192,53390,6,0,B|256:208|320:192,1,120
384,160,53998,1,0
448,192,54200,2,0,B|472:256|456:312,1,120,4|8
320,352,55011,6,0,B|248:344|232:256,1,120,2|8
96,240,55822,2,0,B|168:232|184:144,1,120,0|8
256,40,56633,2,0,B|320:40|344:136,1,120,2|8
336,184,57241,2,0,B|264:192|248:280,1,120,0|0
304,312,57849,1,8
176,248,58254,6,0,B|112:248|112:248|56:200,2,120,2|8|0
312,192,59471,1,8
248,64,59876,2,0,B|208:8|136:32,1,120,2|8
136,104,60484,2,0,B|96:160|30:137,1,120,0|0
32,208,61092,1,8
104,336,61498,6,0,B|240:336,1,120,2|8
296,328,62106,2,0,B|392:232,1,120
352,176,62714,1,8
312,112,62917,1,0
256,64,63119,1,2
168,176,63525,1,4
40,104,63930,6,0,B|8:160|37:219,1,120,8|0
181,219,64741,2,0,B|213:275|183:334,1,120,4|0
327,334,65552,2,0,B|297:274|329:218,1,120,4|0
473,219,66363,2,0,B|502:159|470:103,1,120,4|0
352,24,67173,1,4
80,128,67984,6,0,B|192:200,1,120,2|2
328,192,68795,2,0,B|428:127,1,120,2|2
312,48,69606,2,0,B|256:16|192:48,2,120,2|2|4
256,184,70822,5,0
112,208,71227,1,2
200,320,71633,1,0
256,184,72038,2,8,B|288:240,3,60
472,136,73254,6,0,B|440:152|416:136,1,60
384,72,73660,2,0,B|328:32|272:72,1,120,4|8
272,144,74268,2,0,B|216:184|160:144,1,120,0|0
120,88,74876,1,8
88,152,75079,2,0,B|24:232|40:336,1,180,0|8
104,344,75890,2,0,B|232:344,1,120
272,288,76498,1,8
376,192,76903,6,0,B|432:160|456:96,2,120,0|8|0
344,128,77917,2,0,B|312:72|255:50,1,120
208,104,78525,2,0,B|152:136|130:192,1,120,4|8
144,264,79133,1,4
360,256,79741,6,0,B|424:232,1,60,8|0
476,195,80146,2,0,B|508:131|465:82,1,120,4|8
397,104,80754,2,0,B|333:136|284:93,1,120,0|0
224,56,81363,1,8
160,88,81565,2,0,B|119:186|191:253,1,180,0|8
264,264,82376,2,0,B|329:266|358:201,1,120,0|0
380,133,82984,1,8
473,241,83390,6,0,B|505:305|441:369,1,120,0|8
385,353,83998,1,0
313,353,84200,2,0,B|249:353,2,60,0|0|8
337,281,84809,2,0,B|377:225|377:145,1,120
401,97,85417,1,8
329,81,85619,2,0,B|273:41|201:57,1,120,4|0
145,57,86227,2,0,B|97:9,2,60,0|0|4
98,193,87038,5,8
212,107,87444,1,0
350,148,87849,2,0,B|422:143|437:230,1,120,8|4
314,297,88660,5,8
174,264,89066,1,0
116,132,89471,2,0,B|65:79|122:12,1,120,8|4
246,79,90281,5,8
390,111,90687,1,0
294,215,91092,2,0,B|230:191|158:215,1,120,0|4
281,308,91903,2,0,B|345:340|417:308,1,120,8|4
430,175,92714,5,8
390,111,92917,1,0
350,47,93119,2,0,B|294:7|230:47,1,120,4|8
184,92,93727,1,0
86,200,94133,1,0
126,264,94336,1,8
174,320,94538,6,0,B|230:360|302:312,1,120
302,248,95146,1,8
318,176,95349,2,0,B|374:136|446:184,1,120
486,224,95957,1,8
256,192,96363,12,4,99606
