osu file format v9

[General]
AudioFilename: Owari no sekai.mp3
AudioLeadIn: 1000
PreviewTime: 73254
Countdown: 0
SampleSet: Soft
StackLeniency: 0.7
Mode: 0
LetterboxInBreaks: 0

[Editor]
DistanceSpacing: 1.6
BeatDivisor: 4
GridSize: 8

[Metadata]
Title:Owari no Sekai Kara (Short Ver.)
Artist:yanaginagi
Creator:jesse7419
Version:Insane
Source:Owari no Hoshi no Love Song
Tags:Jun Maeda Yanagi Nagi Saya-Honmei

[Difficulty]
HPDrainRate:7
CircleSize:4
OverallDifficulty:7
ApproachRate:8
SliderMultiplier:1.6
SliderTickRate:1

[Events]
//Background and Video events
0,0,"BG.jpg"
Video,0,"Owari no Hoshi no Love Song- Owari no Sekai Kara.avi"
//Break Periods
//Storyboard Layer 0 (Background)
//Storyboard Layer 1 (Fail)
//Storyboard Layer 2 (Pass)
//Storyboard Layer 3 (Foreground)
//Storyboard Sound Samples
//Background Colour Transformations
3,100,163,162,255

[TimingPoints]
-255,447.761194029851,4,2,1,50,1,0
1536,-133.333333333333,4,2,1,50,0,0
13849,-200,4,2,1,50,0,0
14073,-200,4,2,2,5,0,0
14745,-200,4,2,1,50,0,0
15080,405.405405405405,4,1,1,50,1,0
15282,405.405405405405,4,1,1,50,1,0
17917,-100,4,1,1,65,0,0
18119,-100,4,1,1,80,0,0
18322,-100,4,1,1,65,0,0
18525,-100,4,1,1,50,0,0
21160,-100,4,1,1,55,0,0
21363,-100,4,1,1,60,0,0
21565,-100,4,1,1,55,0,0
21768,-100,4,1,1,50,0,0
23592,-100,4,1,1,40,0,0
23998,-100,4,1,1,50,0,0
24403,-100,4,1,1,60,0,0
24606,-100,4,1,1,55,0,0
24809,-100,4,1,1,50,0,0
26836,-100,4,1,1,60,0,0
27241,-100,4,1,1,70,0,0
27646,-100,4,1,1,80,0,0
28254,-100,4,1,1,50,0,0
28457,-100,4,2,2,70,0,0
34538,-100,4,2,1,60,0,0
34741,-100,4,2,2,70,0,0
38592,-100,4,2,1,40,0,0
38795,-100,4,2,2,70,0,0
40011,-100,4,2,2,50,0,0
40417,-100,4,2,2,70,0,0
40619,-100,4,2,1,60,0,0
40822,-100,4,2,2,50,0,0
41025,-100,4,2,1,50,0,0
41227,-100,4,1,1,50,0,0
41633,-100,4,2,2,70,0,0
44065,-100,4,2,1,50,0,0
44268,-100,4,2,2,70,0,0
47309,-100,4,2,1,50,0,0
47511,-100,4,2,2,70,0,0
50552,-100,4,2,1,50,0,0
50754,-100,4,2,2,70,0,0
53187,-100,4,2,1,50,0,0
53390,-100,4,1,1,65,0,0
53592,-100,4,1,1,80,0,0
53998,-100,4,1,1,50,0,0
54099,-100,4,1,1,55,0,0
54200,-100,4,1,1,50,0,0
54606,-100,4,2,1,60,0,0
60687,-100,4,2,2,50,0,0
60788,-100,4,2,1,60,0,0
63525,-100,4,1,1,50,0,0
63727,-100,4,2,1,50,0,0
64336,-100,4,2,2,50,0,0
67984,-200,4,2,2,70,0,0
68390,-200,4,2,1,50,0,0
68795,-200,4,2,2,70,0,0
69200,-200,4,2,1,50,0,0
69606,-200,4,2,2,70,0,0
72038,-200,4,2,1,70,0,0
72140,-100,4,2,1,70,0,0
73660,-83.3333333333333,4,1,1,70,0,1
78525,-83.3333333333333,4,1,1,50,0,1
78727,-83.3333333333333,4,1,1,70,0,1
85011,-83.3333333333333,4,1,1,50,0,1
85214,-83.3333333333333,4,1,1,70,0,1
88254,-83.3333333333333,4,1,1,50,0,1
88660,-83.3333333333333,4,1,1,70,0,1
89876,-83.3333333333333,4,1,1,60,0,1
90281,-83.3333333333333,4,1,1,70,0,1
91498,-83.3333333333333,4,1,1,65,0,1
91700,-83.3333333333333,4,1,1,70,0,1
98187,-83.3333333333333,4,2,1,70,0,1
98592,-83.3333333333333,4,1,1,50,0,1
98795,-83.3333333333333,4,1,1,55,0,1
98998,-83.3333333333333,4,1,1,60,0,1
99200,-83.3333333333333,4,1,1,65,0,1
99403,-83.3333333333333,4,1,1,70,0,1
99606,-83.3333333333333,4,1,1,50,0,1
99809,-83.3333333333333,4,1,1,70,0,1
100011,-100,4,1,1,50,0,0

[Colours]
Combo1 : 146,88,96
Combo2 : 78,139,113
Combo3 : 215,113,87
Combo4 : 251,245,179

[HitObjects]
208,96,1088,1,0
256,88,1312,1,0
304,96,1536,2,0,B|360:112|392:176,1,120.000004577637,2|0
264,184,2207,2,0,B|202:214|186:270,1,120.000004577637,2|0
480,312,3103,5,2
488,264,3327,2,0,B|496:232|480:200,1,60.0000022888184,0|0
456,168,3774,1,0
412,188,3998,2,0,B|348:212|292:188,1,120.000004577637,2|0
264,151,4670,1,0
239,109,4894,5,0
213,68,5118,2,0,B|157:44|92:78,1,120.000004577637,2|0
62,108,5789,1,0
38,149,6013,1,0
16,192,6237,2,0,B|-8:256|16:320,1,120.000004577637,2|0
56,336,6909,5,2
222,220,7356,1,0
106,56,7804,1,2
304,72,8252,5,0
326,118,8476,1,0
358,158,8700,2,0,B|390:214|454:238,1,120.000004577637,2|0
320,264,9371,2,0,B|298:320|242:352,1,120.000004577637,2|0
360,144,10267,5,0
312,128,10491,2,0,B|248:104|184:144,1,120.000004577637,2|0
184,184,11162,2,0,B|132:216|68:192,1,120.000004577637,2|0
39,155,11834,1,0
49,108,12058,5,0
64,62,12282,2,0,B|136:62,1,60.0000022888184,2|0
200,240,12730,2,0,B|200:304,1,60.0000022888184,2|0
312,144,13177,2,0,B|312:80,1,60.0000022888184,2|0
312,296,13625,1,2
312,296,13849,2,0,B|232:344|152:288,1,160,0|0
80,104,15080,5,8
80,104,15181,1,8
80,104,15282,2,0,B|48:192|72:264,1,160,12|0
264,280,16092,1,0
344,224,16295,1,8
416,160,16498,1,0
304,32,16700,2,0,B|224:0|151:48,1,160,12|0
216,120,17309,5,0
168,200,17511,1,8
264,200,17714,1,0
216,39,17917,1,0
96,240,18119,1,0
336,240,18322,1,0
312,48,18525,5,12
216,40,18727,1,0
144,104,18930,2,0,B|80:152|80:256,1,160,0|0
88,344,19538,1,8
168,296,19741,1,0
403,267,19944,2,0,B|344:320|256:320,1,160,12|0
456,184,20552,5,0
360,200,20754,1,8
304,120,20957,1,0
282,109,21059,1,0
260,98,21160,1,0
236,91,21261,1,0
212,87,21363,1,0
188,91,21464,1,0
164,98,21565,1,0
142,109,21666,1,0
120,120,21768,1,12
176,304,22173,6,0,B|240:240,1,80
328,256,22579,1,0
395,320,22781,1,8
420,231,22984,1,0
312,56,23187,2,0,B|225:56|169:120,1,160,12|8
149,138,23694,1,8
131,159,23795,1,8
280,304,23998,5,8
360,248,24200,1,0
448,296,24403,1,0
464,272,24504,1,0
472,248,24606,1,0
464,224,24707,1,0
448,200,24809,1,0
314,118,25011,6,0,B|272:40|184:40,2,160,12|0|0
120,200,26025,1,8
184,128,26227,1,0
144,296,26430,2,0,B|176:336|224:336,1,80,12|0
256,232,26836,5,0
256,232,26937,1,0
256,232,27038,1,0
368,296,27241,2,0,B|336:336|288:336,1,80,8|8
256,232,27646,1,0
208,144,27849,1,0
256,128,27950,1,0
304,144,28052,1,0
184,328,28254,6,0,B|112:368,1,80,4|0
48,296,28660,1,2
88,208,28863,2,0,B|128:184|165:209,1,80,0|0
331,232,29268,2,0,B|296:256|256:232,1,80,0|2
225,141,29673,1,0
416,128,29876,6,0,B|408:72|360:40,1,80,0|0
264,200,30281,2,0,B|272:256|320:288,1,80,2|0
304,88,30687,2,0,B|296:32|248:0,1,80,0|0
152,160,31092,2,0,B|160:216|208:248,1,80,2|0
240,312,31498,5,0
144,312,31700,1,0
64,256,31903,1,2
35,164,32106,2,0,B|35:100|83:52|139:52,1,160
224,64,32714,5,2
264,152,32917,1,0
168,136,33119,1,0
224,64,33322,1,0
303,237,33525,1,2
110,205,33727,1,0
110,205,33930,6,0,B|126:261|190:261,1,80
256,232,34336,1,2
264,136,34538,2,0,B|288:96|368:104,1,80,2|0
256,232,34944,2,0,B|232:272|152:264,1,80,0|2
184,72,35552,6,0,B|136:64|96:128,1,80
71,189,35957,1,2
104,280,36160,2,0,B|160:336,1,80,0|0
232,211,36565,1,0
304,336,36768,2,0,B|360:280,1,80,2|0
352,40,37376,6,0,B|312:32|264:56,2,80,0|2|0
416,112,37984,2,0,B|456:120|493:100,1,80
328,152,38390,1,0
201,170,38592,1,2
79,127,38795,2,0,B|39:126|7:158,1,80,0|0
40,248,39200,5,2
112,312,39403,1,0
192,264,39606,1,2
216,248,39707,1,0
240,232,39809,1,0
472,248,40011,5,2
400,312,40214,1,0
320,264,40417,1,2
296,248,40518,1,0
272,232,40619,1,2
344,64,40822,1,2
168,64,41025,1,8
128,232,41227,6,0,B|184:304|280:280,1,160,4|2
88,160,41836,2,0,B|128:136|168:160,1,80
184,176,42140,1,0
208,192,42241,2,0,B|244:213|284:189,1,80,0|2
360,248,42646,1,0
432,184,42849,5,2
432,184,43052,1,0
320,120,43254,1,2
320,120,43457,1,0
192,216,43660,1,2
192,216,43863,1,0
88,56,44065,2,0,B|48:80|32:136,1,80,8|0
136,312,44471,5,0
232,336,44673,1,0
328,312,44876,1,2
152,224,45079,2,0,B|228:277|304:224,1,160
392,56,45687,5,2
343,138,45890,2,0,B|305:108|270:137,1,80
232,224,46295,1,0
88,152,46498,1,2
40,232,46700,1,0
103,303,46903,6,0,B|142:334|176:304,1,80,0|0
328,352,47309,1,8
368,264,47511,1,0
368,264,47613,1,0
368,264,47714,1,0
432,192,47916,2,0,B|468:157|509:165,1,80,0|2
184,192,48525,6,0,B|148:227|107:219,1,80,0|0
248,121,48930,1,2
184,49,49133,1,0
120,121,49336,2,0,B|40:113,1,80,0|0
248,120,49741,2,0,B|344:128,1,80,2|0
208,280,50349,5,0
360,336,50552,1,8
440,200,50754,2,0,B|481:131,2,80
308,106,51363,1,2
440,200,51565,2,0,B|399:269,1,80
311,227,51971,1,0
250,301,52173,6,0,B|181:260,1,80,2|0
120,184,52579,1,0
80,96,52782,1,0
152,32,52984,1,2
264,96,53187,1,8
384,48,53390,1,0
472,136,53592,1,0
448,264,53795,1,0
336,328,53998,5,0
288,336,54099,1,0
240,328,54200,2,0,B|160:304|104:240,1,160,4|8
256,120,55011,2,0,B|224:24|128:32,1,160,2|8
264,200,55619,2,0,B|296:296|392:288,1,160,0|0
472,264,56227,1,8
488,168,56430,1,0
440,88,56633,1,2
440,88,56836,2,0,B|408:48|352:56,1,80,0|8
320,272,57241,5,0
320,272,57342,1,0
320,272,57444,2,0,B|304:320|264:328,1,80
171,332,57849,1,8
256,160,58254,2,0,B|352:128|344:32,1,160,2|8
176,168,58863,2,0,B|80:200|88:296,1,160,0|0
171,332,59471,1,8
259,296,59673,1,0
246,201,59876,1,2
246,201,60079,2,0,B|224:168|176:168,1,80,0|8
40,312,60484,5,0
40,312,60586,1,0
40,312,60687,2,0,B|62:278|110:278,1,80,4|0
168,128,61092,1,8
256,96,61295,1,0
345,129,61498,2,0,B|368:168|360:208,1,80,2|0
167,255,61903,6,0,B|144:216|152:176,1,80,8|0
158,152,62207,1,0
168,128,62309,1,0
232,56,62511,2,0,B|272:40|312:56,1,80,0|8
392,104,62917,1,0
456,176,63119,2,0,B|479:211|472:254,1,80,2|0
408,328,63525,1,4
312,304,63727,1,8
312,304,63829,1,8
312,304,63930,1,12
246,35,64336,5,0
408,137,64741,1,4
312,304,65146,1,0
145,208,65552,1,4
336,32,65957,5,0
395,293,66363,1,4
134,363,66768,1,0
64,104,67173,1,4
254,195,67579,1,0
184,272,67984,6,0,B|184:184,1,80,2|2
328,112,68795,2,0,B|328:192,1,80,2|2
256,336,69606,1,0
256,256,69809,1,2
256,176,70011,1,2
256,96,70214,1,2
256,72,70315,1,2
256,48,70417,1,4
160,80,70822,5,0
384,144,71227,1,2
88,240,71633,1,0
456,296,72038,5,8
428,296,72140,1,8
400,296,72241,1,0
256,192,72444,1,8
64,96,72646,1,8
92,96,72748,1,8
424,104,73254,5,0
424,104,73457,1,0
424,104,73660,2,0,B|352:32|246:56,1,191.999994140625,4|8
248,272,74268,1,0
232,304,74369,1,0
208,328,74471,2,0,B|152:360|88:320,1,96.0000022888184
24,232,74876,1,8
80,104,75079,5,0
283,75,75281,2,0,B|248:104|192:96,1,95.9999970703126
394,43,75687,1,8
432,152,75890,1,0
432,152,75991,1,0
432,152,76092,1,0
368,248,76295,2,0,B|312:240|277:269,1,95.9999970703126,0|8
104,320,76700,5,0
64,208,76903,2,0,B|40:160|72:104,1,96.0000022888184
176,160,77309,1,8
256,336,77511,1,0
256,304,77613,1,0
256,272,77714,1,0
344,200,77917,1,0
320,88,78119,1,8
368,312,78322,2,0,B|440:312|456:248,1,96.0000022888184,0|4
448,72,78727,5,0
256,32,78930,1,8
64,72,79133,1,4
448,120,79538,5,0
461,151,79640,1,0
471,183,79741,1,8
472,216,79842,1,0
466,249,79944,1,0
451,278,80045,1,0
427,301,80146,2,0,B|328:360|240:312,1,191.999994140625,4|8
173,225,80754,6,0,B|157:161,2,48.0000011444092,0|0|0
160,32,81160,2,0,B|216:16|264:40,1,96.0000022888184,0|8
264,152,81565,1,0
456,152,81768,2,0,B|418:171|362:155,1,96.0000022888184,0|0
400,48,82173,1,8
288,200,82376,5,0
320,216,82477,1,0
344,240,82579,2,0,B|384:280|384:336,1,95.9999970703126
268,329,82984,1,8
268,329,83187,1,0
80,296,83390,6,0,B|48:248|64:192,1,95.9999970703126,0|0
32,92,83795,1,8
144,64,83998,1,0
144,64,84099,1,0
144,64,84200,1,0
184,256,84403,1,0
328,128,84606,1,8
416,56,84809,2,0,B|448:104|432:160,1,95.9999970703126,0|4
328,304,85214,5,0
216,144,85417,1,8
104,304,85619,2,0,B|48:272|32:192|64:128,1,191.999994140625,4|0
79,104,86126,1,0
101,78,86227,1,0
131,64,86329,1,0
163,57,86430,1,0
195,50,86531,1,0
228,56,86633,1,4
400,224,87038,5,8
432,112,87241,1,0
400,112,87342,1,0
368,112,87444,1,0
304,288,87646,1,0
496,288,87849,1,8
400,112,88052,1,0
400,312,88254,1,4
208,184,88660,5,8
296,104,88863,1,0
272,80,88964,1,0
240,72,89065,1,0
314,254,89268,1,0
103,254,89471,1,8
80,224,89572,1,0
64,192,89673,1,0
56,160,89775,1,0
56,128,89876,1,4
328,48,90281,5,8
432,88,90484,1,0
432,120,90586,1,0
432,152,90687,1,0
392,264,90890,1,0
280,240,91092,2,0,B|168:240|115:321,1,192.000004577637,0|4
288,168,91700,2,0,B|400:168|454:86,1,192.000004577637,0|0
454,87,92207,1,0
454,87,92309,1,4
376,304,92714,5,8
376,304,92815,1,0
376,304,92917,1,0
376,304,93018,1,0
376,304,93119,2,0,B|280:336|160:296,1,192.000004577637,4|8
80,256,93727,1,0
248,160,93930,5,0
272,136,94031,1,0
288,104,94133,2,0,B|288:40|248:16,1,96.0000022888184,0|8
96,136,94538,2,0,B|95:249|192:304,1,192.000004577637
280,352,95146,1,0
344,168,95349,1,0
368,144,95450,1,0
400,128,95552,2,0,B|464:96|512:152,1,96.0000022888184
490,132,95957,1,8
490,132,96160,1,0
256,192,96363,12,0,98187
80,88,98592,5,0
87,121,98694,1,0
76,152,98795,1,0
68,184,98896,1,0
77,216,98998,1,8
93,245,99099,1,0
122,261,99200,1,0
154,270,99302,1,0
186,261,99403,1,8
218,254,99504,1,0
251,246,99606,2,0,B|296:228|344:252,1,96.0000022888184,4|8
343,251,100011,1,4
