osu file format v9

[General]
AudioFilename: Owari no sekai.mp3
AudioLeadIn: 1000
PreviewTime: 73254
Countdown: 0
SampleSet: Soft
StackLeniency: 0.7
Mode: 0
LetterboxInBreaks: 0

[Editor]
DistanceSpacing: 0.6
BeatDivisor: 4
GridSize: 8

[Metadata]
Title:Owari no Sekai Kara (Short Ver.)
Artist:yanaginagi
Creator:jesse7419
Version:Hard
Source:Owari no Hoshi no Love Song
Tags:Jun Maeda Yanagi Nagi Saya-Honmei

[Difficulty]
HPDrainRate:5
CircleSize:4
OverallDifficulty:6
ApproachRate:7
SliderMultiplier:1.4
SliderTickRate:1

[Events]
//Background and Video events
0,0,"BG.jpg"
Video,0,"Owari no Hoshi no Love Song- Owari no Sekai Kara.avi"
//Break Periods
//Storyboard Layer 0 (Background)
//Storyboard Layer 1 (Fail)
//Storyboard Layer 2 (Pass)
//Storyboard Layer 3 (Foreground)
//Storyboard Sound Samples
//Background Colour Transformations
3,100,163,162,255

[TimingPoints]
-255,447.761194029851,4,2,1,50,1,0
10491,-100,4,2,2,5,0,0
10939,-100,4,2,1,50,0,0
15080,405.405405405405,4,1,1,50,1,0
15282,405.405405405405,4,1,1,50,1,0
17917,-100,4,1,1,65,0,0
18119,-100,4,1,1,80,0,0
18322,-100,4,1,1,65,0,0
18525,-100,4,1,1,50,0,0
24403,-100,4,1,1,60,0,0
24606,-100,4,1,1,55,0,0
24809,-100,4,1,1,50,0,0
28457,-100,4,2,2,70,0,0
34538,-100,4,2,1,60,0,0
34944,-100,4,2,2,70,0,0
40011,-100,4,2,2,50,0,0
40417,-100,4,2,2,65,0,0
40822,-100,4,2,2,70,0,0
41025,-100,4,2,1,50,0,0
41227,-100,4,1,1,50,0,0
41633,-100,4,2,2,70,0,0
44065,-100,4,2,1,50,0,0
44268,-100,4,2,2,70,0,0
47309,-100,4,2,1,50,0,0
47511,-100,4,2,2,70,0,0
50552,-100,4,2,1,50,0,0
50754,-100,4,2,2,70,0,0
53187,-100,4,2,1,50,0,0
53390,-100,4,1,1,65,0,0
53592,-100,4,1,1,80,0,0
53998,-100,4,1,1,50,0,0
54099,-100,4,1,1,55,0,0
54200,-100,4,1,1,50,0,0
54606,-100,4,2,1,60,0,0
60687,-100,4,2,2,50,0,0
60788,-100,4,2,1,60,0,0
63525,-100,4,1,1,50,0,0
63727,-100,4,2,1,50,0,0
64336,-100,4,2,2,50,0,0
67984,-133.333333333333,4,2,2,70,0,0
68390,-133.333333333333,4,2,1,50,0,0
68795,-133.333333333333,4,2,2,70,0,0
69200,-133.333333333333,4,2,1,50,0,0
69606,-133.333333333333,4,2,2,70,0,0
72038,-133.333333333333,4,2,1,70,0,0
72140,-100,4,2,1,70,0,0
73660,-83.3333333333333,4,1,1,70,0,1
78525,-83.3333333333333,4,1,1,50,0,1
78727,-83.3333333333333,4,1,1,70,0,1
85011,-83.3333333333333,4,1,1,50,0,1
85214,-83.3333333333333,4,1,1,70,0,1
88254,-83.3333333333333,4,1,1,50,0,1
88660,-83.3333333333333,4,1,1,70,0,1
89876,-83.3333333333333,4,1,1,60,0,1
90281,-83.3333333333333,4,1,1,70,0,1
91498,-83.3333333333333,4,1,1,65,0,1
91700,-83.3333333333333,4,1,1,70,0,1
97984,-83.3333333333333,4,1,1,50,0,1
98592,-83.3333333333333,4,1,1,70,0,1
99606,-83.3333333333333,4,1,1,50,0,1
99809,-83.3333333333333,4,1,1,70,0,1
100011,-83.3333333333333,4,1,1,50,0,0

[Colours]
Combo1 : 146,88,96
Combo2 : 78,139,113
Combo3 : 215,113,87
Combo4 : 251,245,179

[HitObjects]
264,96,1088,1,0
272,136,1312,1,0
280,176,1536,2,0,B|304:248|280:320,1,140,2|0
192,352,2207,2,0,B|170:286|194:214,1,140,2|0
56,120,3103,6,0,B|128:144|193:122,1,140,2|0
232,104,3774,1,0
272,88,3998,2,0,B|337:66|409:90,1,140,2|0
128,152,4894,5,0
104,184,5118,2,0,B|72:256|104:328,1,140,2|0
144,320,5789,1,0
184,320,6013,1,0
224,320,6237,2,0,B|296:304|368:320,1,140,2|0
400,336,6909,1,2
256,32,7804,1,2
112,120,8252,5,0
104,160,8476,1,0
96,200,8700,2,0,B|72:272|96:344,1,140,2|0
136,352,9371,2,0,B|208:376|280:352,1,140,2|0
168,224,10267,6,0,B|208:120|312:64,1,210,2|0
336,96,11162,2,0,B|400:144|472:104,1,140,2|0
504,88,11834,1,0
256,192,12282,12,0,13849
224,72,15080,5,8
224,72,15181,1,8
224,72,15282,2,0,B|264:144|224:208,1,140,12|0
88,304,16092,1,0
168,320,16295,2,0,B|200:352|248:344,1,70,8|0
160,240,16700,2,0,B|80:208|88:120,2,140,12|0|8
200,160,17714,1,0
256,96,17917,1,0
336,72,18119,1,0
416,96,18322,1,0
472,160,18525,6,0,B|488:240|416:296,1,140,12|0
320,160,19336,1,0
240,176,19538,1,8
296,240,19741,1,0
192,104,19944,2,0,B|104:104|48:64,1,140,12|0
96,232,20754,1,8
248,304,21160,2,0,B|360:328|448:216,1,210,8|4
296,144,22173,6,0,B|320:72|416:40,1,140,0|0
448,112,22781,1,8
488,184,22984,1,0
464,264,23187,2,0,B|391:240|367:168,2,140,12|0|8
408,328,24200,1,0
328,352,24403,1,0
248,328,24606,1,0
192,264,24809,1,0
204,181,25011,6,0,B|204:93|284:53,2,140,4|0|0
124,149,26025,1,8
44,181,26227,1,0
68,261,26430,2,0,B|100:301|140:301,1,70,12|0
264,272,26836,2,0,B|304:240|304:200,1,70,8|0
264,80,27241,2,0,B|232:40|192:40,1,70,8|0
168,176,27646,1,8
200,253,27849,2,8,B|184:293,2,35
264,200,28254,6,0,B|296:272|384:296,1,140,4|2
392,208,28863,1,0
352,136,29065,2,0,B|320:64|232:40,1,140,0|2
224,128,29673,1,0
144,152,29876,2,0,B|80:120|56:48,2,140,0|2|0
224,296,31092,1,2
336,168,31498,6,0,B|368:192|400:168,2,70,0|0|2
256,152,32106,2,0,B|168:160|144:80,1,140
232,64,32714,1,2
312,88,32917,2,0,B|344:72|384:88,2,70,0|0|0
256,152,33525,1,2
168,296,33930,6,0,B|176:344|232:352,1,70
272,288,34336,1,2
224,216,34538,2,0,B|192:144|224:80,1,140,2|0
272,16,35146,1,2
416,112,35552,6,0,B|384:88|350:114,1,70
344,200,35957,1,2
280,144,36160,2,0,B|208:168|142:146,1,140
280,64,36768,2,0,B|352:40|417:61,1,140,2|0
464,128,37376,6,0,B|480:208,1,70,0|2
408,248,37781,2,0,B|312:248|312:248|272:288,1,140
208,240,38390,1,2
248,168,38592,2,0,B|216:136|216:136|120:136,1,140
120,48,39200,1,2
208,48,39403,1,0
296,48,39606,1,2
408,176,40011,5,2
384,256,40214,1,0
304,232,40417,1,2
192,104,40822,1,0
110,123,41025,1,8
129,204,41227,6,0,B|170:279|254:270,1,140,4|2
328,272,41836,2,0,B|416:272,1,70,0|0
456,192,42241,2,0,B|386:192,1,70,0|2
384,104,42646,1,0
312,64,42849,6,0,B|264:64|248:104,1,70,0|0
256,176,43254,1,2
256,176,43457,1,0
256,264,43660,2,0,B|244:294|196:294,1,70,0|0
128,248,44065,1,8
96,80,44471,5,0
154,142,44673,1,0
234,111,44876,1,2
293,173,45079,2,0,B|372:183|416:120,1,140
462,190,45687,1,2
424,264,45890,2,0,B|344:272|311:337,1,140
312,336,46498,1,2
256,272,46700,5,0
200,208,46903,2,0,B|195:246|144:256,1,70
79,212,47309,1,8
80,128,47511,2,0,B|152:128,1,70,0|0
230,48,47917,2,0,B|160:48,1,70,0|2
344,168,48525,6,0,B|322:207|352:248,1,70
424,224,48930,1,2
376,296,49133,2,0,B|336:336|336:336|248:336,1,140
200,272,49741,2,0,B|176:240|176:240|176:128,1,140,2|0
184,56,50349,5,0
256,104,50552,1,8
296,176,50754,2,0,B|336:240|288:328,1,140
216,336,51363,1,2
152,280,51565,1,0
120,200,51768,2,0,B|80:208|56:256,1,70,0|0
115,120,52173,2,0,B|155:112|170:81,2,70,2|0|0
256,80,52782,5,0
336,104,52984,1,2
392,168,53187,1,8
392,256,53390,1,0
336,320,53593,1,0
256,344,53795,1,0
176,320,53998,5,0
168,304,54099,1,0
160,288,54200,2,0,B|128:216|64:168,1,140,4|8
240,152,55011,2,0,B|256:56|360:56,1,140,2|8
336,152,55619,2,0,B|360:240|456:240,1,140
434,239,56227,1,8
394,312,56430,1,0
320,272,56633,2,0,B|264:232|264:232|176:232,1,140,2|8
40,344,57241,6,0,B|112:344|112:344|168:304,1,140
168,304,57849,1,8
136,136,58254,2,0,B|224:160|224:256,1,140,2|8
256,312,58863,2,0,B|344:288|344:192,1,140,0|0
344,128,59471,1,8
280,72,59673,1,0
216,128,59876,1,2
216,128,60079,2,0,B|176:88|136:96,1,70,0|8
88,208,60484,5,0
88,208,60687,2,0,B|128:168|168:176,1,70,4|0
192,248,61092,2,0,B|248:304|336:272,2,140,8|2|8
152,168,62106,1,0
152,168,62309,1,0
152,88,62511,2,0,B|184:56|224:56,1,70,0|8
296,56,62917,1,0
376,56,63119,2,0,B|416:64|456:104,1,70,2|0
437,87,63525,1,4
440,168,63727,2,8,B|416:208,2,35,8|8|8
368,320,64336,5,0
215,249,64741,1,4
286,96,65146,1,0
438,167,65552,1,4
272,184,65957,5,0
175,46,66363,1,4
38,142,66768,1,0
134,280,67173,2,0,B|212:278|276:350,1,140,4|0
304,144,67984,6,0,B|304:256,1,104.999996870756,2|2
416,312,68795,2,0,B|416:200,1,104.999996870756,2|2
480,96,69606,1,2
432,136,69809,1,2
384,96,70011,1,2
336,136,70214,1,2
288,96,70417,1,4
227,206,70822,5,0
102,206,71227,1,2
102,332,71633,1,0
227,332,72038,5,8
227,332,72140,1,8
227,332,72241,1,0
291,276,72444,1,8
347,212,72646,2,8,B|395:212,1,35
176,240,73254,6,0,B|136:256|104:232,1,70
168,152,73660,2,0,B|240:80|352:128,1,168.000004005432,4|8
408,176,74268,1,0
408,176,74369,1,0
408,176,74471,2,0,B|416:224|392:264,1,83.9999974365235
304,296,74876,1,8
204,308,75079,2,0,B|144:240|168:152,1,167.999994873047
248,96,75687,5,8
343,127,75890,2,0,B|391:135|408:176,1,83.9999974365235
408,272,76295,2,0,B|400:320|359:336,1,83.9999974365235,0|8
272,288,76700,5,0
201,218,76903,2,0,B|216:177|200:136,1,83.9999974365235
120,80,77309,1,8
110,180,77511,1,0
200,136,77714,2,0,B|273:95,2,84.0000020027161,0|0|8
272,206,78322,2,0,B|288:246|272:288,1,83.9999974365235,0|4
184,336,78727,5,0
96,288,78930,1,8
144,200,79133,1,4
315,94,79538,1,0
392,160,79741,5,8
384,176,79842,1,0
376,192,79944,1,0
368,208,80045,1,0
360,224,80146,2,0,B|272:256|176:224,1,168.000004005432,4|8
120,304,80754,2,0,B|168:304|198:329,2,84.0000020027161
120,200,81363,1,8
144,104,81565,6,0,B|232:64|307:104,1,168.000004005432
302,204,82173,1,8
392,160,82376,2,0,B|440:168|480:160,1,83.9999974365235
448,256,82781,1,0
392,336,82984,1,8
296,312,83187,1,0
352,232,83390,6,0,B|392:152|344:72,1,168.000004005432,0|8
264,128,83998,2,0,B|224:176,2,42.0000010013581
168,88,84403,1,0
88,152,84606,1,8
112,248,84809,2,0,B|144:296|200:288,1,84.0000020027161,0|4
288,336,85214,5,0
344,232,85417,1,8
432,312,85619,2,0,B|504:264|488:160,1,167.999994873047,4|0
428,62,86227,1,0
372,166,86430,1,0
284,86,86633,1,4
176,256,87038,5,8
248,184,87241,1,0
152,160,87444,1,0
176,256,87646,1,0
264,312,87849,2,0,B|352:344|440:288,1,168.000004005432,8|4
420,95,88660,5,8
348,167,88863,1,0
419,237,89065,1,0
490,167,89268,1,0
420,95,89471,2,0,B|340:39|252:95,1,168.000004005432,8|4
64,40,90281,5,8
160,64,90484,1,0
160,64,90586,1,0
160,64,90687,1,0
128,160,90890,1,0
232,152,91092,2,0,B|344:152|400:248,1,168.000004005432,8|4
360,320,91700,2,0,B|248:320|192:232,1,168.000004005432,8|0
210,256,92309,1,4
296,72,92714,5,8
296,72,92917,1,0
296,72,93119,2,0,B|392:48|480:72,1,168.000004005432,4|8
448,168,93727,1,0
448,168,93829,1,0
448,168,93930,1,0
432,264,94133,5,0
432,264,94336,1,8
352,328,94538,2,0,B|264:368|160:296,1,168.000004005432
208,216,95146,1,8
224,120,95349,2,0,B|150:67|62:107,1,168.000004005432
24,200,95957,1,8
256,192,96363,12,0,97984
120,264,98592,6,0,B|88:224,2,41.9999987182618
152,360,98998,1,8
224,288,99200,2,0,B|248:248|286:235,2,84.0000020027161,0|8|4
312,336,99809,1,8
312,336,100011,1,4
