osu file format v9

[General]
AudioFilename: Killer Song.mp3
AudioLeadIn: 1500
PreviewTime: 108624
Countdown: 0
SampleSet: Soft
StackLeniency: 0.5
Mode: 0
LetterboxInBreaks: 0

[Editor]
DistanceSpacing: 1.5
BeatDivisor: 4
GridSize: 4

[Metadata]
Title:Killer Song (Short Ver.)
Artist:yanaginagi
Creator:terametis
Version:Insane
Source:
Tags:owari no hoshi no love song Maeda Jun Takahiro Furukawa flaming-june Yanagi Nagi winber1 nold_1702

[Difficulty]
HPDrainRate:7
CircleSize:4
OverallDifficulty:8
ApproachRate:9
SliderMultiplier:1.7
SliderTickRate:1

[Events]
//Background and Video events
0,0,"BGkl.jpg"
//Break Periods
2,64002,73503
//Storyboard Layer 0 (Background)
//Storyboard Layer 1 (Fail)
//Storyboard Layer 2 (Pass)
//Storyboard Layer 3 (Foreground)
//Storyboard Sound Samples
//Background Colour Transformations
3,100,163,162,255

[TimingPoints]
369,361.44578313253,4,2,1,20,1,0
1814,-100,4,2,1,30,0,0
2176,-100,4,2,1,35,0,0
2537,-100,4,2,1,40,0,0
2899,-100,4,2,1,45,0,0
3260,-100,4,2,1,50,0,0
3622,-100,4,2,1,55,0,0
3983,-100,4,2,1,65,0,0
16272,-100,4,2,2,50,0,0
27477,-100,4,2,1,50,0,0
27838,-100,4,2,2,50,0,0
30368,-100,4,2,1,50,0,0
30549,-100,4,2,2,50,0,0
33441,-100,4,2,1,50,0,0
33531,-100,4,2,2,50,0,0
36152,-100,4,2,1,50,0,0
36513,-100,4,2,2,50,0,0
37597,-100,4,2,1,50,0,0
37778,-100,4,2,2,50,0,0
39043,-100,4,2,1,50,0,0
39134,-100,4,2,2,50,0,0
42296,-100,4,2,1,50,0,0
43742,-100,4,2,2,50,0,0
44826,-100,4,2,1,50,0,0
45007,-100,4,2,2,50,0,0
47718,-100,4,2,1,50,0,0
47899,-100,4,2,2,50,0,0
49525,-100,4,2,1,50,0,0
50790,-100,4,2,1,60,0,1
63802,-100,4,2,1,5,0,0
74103,-100,4,2,2,50,0,0
84947,-100,4,2,1,50,0,0
85670,-100,4,2,2,50,0,0
95429,-100,4,2,1,50,0,0
95609,-100,4,2,2,50,0,0
96875,-100,4,2,1,50,0,0
97236,-100,4,2,2,50,0,0
99405,-100,4,2,1,50,0,0
101573,-100,4,2,2,50,0,0
102658,-100,4,2,1,50,0,0
103019,-100,4,2,2,50,0,0
105549,-100,4,2,1,50,0,0
108622,-100,4,2,1,60,0,1
133381,-100,4,2,1,5,0,0

[Colours]
Combo1 : 255,255,255
Combo2 : 128,255,128
Combo3 : 128,255,255
Combo4 : 255,128,128

[HitObjects]
256,192,730,12,8,3983
256,192,4164,5,8
96,192,4706,5,4
176,176,4887,1,0
256,192,5067,2,0,B|296:216|336:192,1,85,8|0
296,120,5429,1,0
256,192,5609,1,0
296,264,5790,2,0,B|320:304|296:344,1,85,8|4
400,192,6332,5,0
256,112,6513,1,8
112,192,6694,1,0
184,152,6875,5,0
256,192,7055,1,0
184,240,7236,1,8
112,192,7417,1,0
184,240,7597,5,4
328,144,7778,1,0
176,72,7959,1,8
184,240,8140,1,0
184,240,8501,1,0
184,240,8862,6,0,B|212:248|220:312|300:288|328:240,1,170,0|0
360,168,9405,1,8
400,240,9585,1,0
288,184,9766,1,4
400,240,9947,1,0
232,232,10128,1,8
400,240,10308,1,0
192,296,10489,6,0,B|168:336|120:336,1,85,4|0
232,232,10850,2,0,B|256:192|304:192,1,85,8|0
264,296,11212,1,0
120,336,11393,1,0
160,192,11573,1,8
304,152,11754,5,4
120,336,12115,1,0
56,88,12477,1,0
304,152,12838,5,0
304,248,13019,1,8
221,200,13200,1,0
256,192,13381,12,0,14284
256,192,14465,5,8
256,192,14646,1,0
432,192,15007,5,0
288,328,15188,1,8
360,192,15368,1,0
288,56,15549,1,0
432,192,15730,1,0
288,328,15911,1,8
360,192,16091,1,0
256,192,16272,6,0,B|216:264|112:264,1,170,4|8
120,176,16814,1,0
128,88,16995,2,0,B|168:16|272:16,1,170,8|8
264,104,17537,1,0
256,192,17718,6,0,B|272:232|320:240,1,85,8|0
312,128,18079,2,0,B|352:112|360:64,1,85,8|0
232,112,18441,1,8
320,240,18622,1,0
432,136,18802,1,8
428,157,18893,1,0
415,173,18983,1,0
397,184,19073,1,0
376,192,19164,6,0,B|400:264|328:352,1,170,8|8
288,272,19706,1,0
256,192,19887,2,0,B|176:240|88:224,1,170,8|8
112,144,20429,1,0
216,280,20609,5,8
288,128,20790,1,0
152,232,20971,1,8
320,200,21152,1,0
160,152,21332,1,8
280,272,21513,1,0
448,200,21694,5,8
440,200,21784,1,0
432,200,21875,1,0
424,200,21965,1,0
416,200,22055,5,4
256,356,22326,1,0
96,200,22597,1,0
148,336,22778,5,2
372,336,23049,1,0
256,144,23320,1,0
256,288,23501,5,4
144,92,23772,1,0
368,92,24043,1,0
256,28,24224,5,2
256,328,24585,1,8
360,112,24947,5,0
152,272,25308,1,8
416,192,25670,5,0
96,192,26031,1,8
360,112,26393,5,0
152,272,26754,1,8
256,56,27115,5,8
256,328,27477,1,8
304,144,27838,5,8
304,240,28019,1,0
208,240,28200,1,8
208,144,28381,1,0
304,240,28561,2,0,B|352:240|392:248,1,85,8|0
208,144,28923,2,0,B|160:144|120:136,1,85,8|0
392,144,29284,2,0,B|440:144|480:136,1,85,8|0
120,240,29646,2,0,B|72:240|32:248,1,85,8|0
304,144,30007,5,8
176,312,30188,1,0
336,312,30368,1,8
208,144,30549,1,0
256,224,30730,5,8
352,64,30911,1,0
160,64,31091,1,8
208,144,31272,1,0
304,144,31453,1,8
256,64,31634,1,0
160,224,31814,1,8
352,224,31995,1,0
304,144,32176,5,8
208,144,32356,1,0
160,224,32537,1,8
352,224,32718,1,0
256,64,32899,2,0,B|256:232,1,170,8|0
256,248,33350,1,0
256,264,33441,1,8
256,280,33531,1,0
256,296,33622,5,4
128,72,33893,1,0
384,72,34164,1,0
256,64,34344,5,2
128,288,34615,1,0
384,288,34887,1,0
464,184,35067,5,4
256,64,35338,1,0
48,184,35609,1,0
128,288,35790,5,2
384,288,36152,1,8
256,64,36513,5,0
200,160,36694,1,0
312,160,36875,1,8
256,64,37055,1,0
144,248,37236,1,0
368,248,37417,1,0
368,248,37507,1,0
368,248,37597,1,8
144,248,37778,1,0
200,160,37959,5,0
256,248,38140,1,0
144,248,38320,1,8
256,64,38501,1,0
368,248,38682,1,0
144,248,38862,1,0
144,248,38953,1,0
144,248,39043,1,8
256,248,39224,1,0
344,168,39405,6,0,B|344:216|368:248,1,85,8|0
168,168,39766,2,0,B|168:216|144:248,1,85,8|0
367,88,40128,2,0,B|344:120|344:168,1,85,8|0
144,88,40489,2,0,B|168:120|168:168,1,85,8|0
440,56,40850,2,0,B|375:56|367:88,1,85,2|0
72,56,41212,2,0,B|136:56|144:88,1,85,2|0
256,112,41573,6,0,B|256:64,2,42.5
256,272,41935,1,2
256,192,42115,1,0
256,112,42296,5,4
372,56,42477,1,0
140,56,42658,1,0
256,192,42838,1,8
256,32,43019,5,0
256,272,43200,1,8
256,192,43381,1,0
256,112,43561,1,8
184,72,43742,6,0,B|136:72|96:64,1,85,12|0
328,152,44103,2,0,B|376:152|416:144,1,85,8|0
184,232,44465,2,0,B|136:232|96:224,1,85,8|0
328,312,44826,2,0,B|376:312|416:304,1,85,8|0
184,312,45188,5,8
328,232,45369,1,0
184,152,45549,1,8
328,72,45730,1,0
184,72,45911,5,8
328,152,46091,1,0
184,232,46272,1,10
328,312,46453,1,0
256,192,46634,5,8
256,192,46814,1,0
184,152,46995,2,0,B|112:152|96:128,1,85,8|0
328,232,47356,2,0,B|400:232|416:256,1,85,8|0
184,232,47718,1,8
328,152,47899,1,0
256,296,48079,1,8
256,296,48260,1,0
136,64,48441,5,0
156,64,48531,1,0
176,64,48622,1,0
196,64,48712,1,0
216,64,48802,2,0,B|248:92,3,42.5
268,92,49164,1,0
288,92,49254,1,0
308,92,49344,1,0
328,92,49435,1,0
348,92,49525,6,0,B|372:92|372:92|432:160|372:224|372:224,1,170,0|8
272,224,50067,1,0
371,224,50248,2,0,B|460:224,1,85,4|4
176,224,50790,6,0,B|120:224|72:208,1,85,4|0
224,304,51152,1,0
272,224,51332,2,0,B|328:224|376:208,1,85,8|0
456,200,51694,1,0
392,120,51875,6,0,B|376:80|384:32,1,85,0|8
256,112,52236,1,0
128,36,52417,2,0,B|136:80|120:120,1,85,0|0
192,224,52778,1,8
320,224,52959,1,0
256,112,53140,5,0
256,96,53230,1,0
256,80,53320,1,0
256,208,53501,1,8
256,112,53682,1,0
256,96,53772,1,0
256,80,53862,1,0
256,208,54043,2,0,B|256:293,2,85,0|8|0
256,112,54585,6,0,B|256:16,1,85,0|0
336,160,54947,1,8
176,160,55128,1,0
336,232,55308,2,0,B|400:232|424:248,1,85,0|0
176,232,55670,2,0,B|112:232|88:248,1,85,8|0
256,336,56031,5,4
424,240,56212,1,0
256,272,56393,1,8
88,240,56573,1,4
256,144,56754,1,0
424,240,56935,1,0
256,336,57115,2,0,B|256:232,1,85,8|0
256,60,57477,6,0,B|256:172,1,85
256,336,57838,1,8
400,216,58019,1,0
112,216,58200,2,0,B|224:216,1,85
440,216,58561,2,0,B|328:216,1,85,8|0
72,216,58923,2,0,B|176:216,1,85,0|0
256,192,59284,5,8
256,192,59465,1,0
312,120,59646,2,0,B|288:96|224:96,1,85,0|0
200,264,60007,2,0,B|224:288|288:288,1,85,8|0
232,96,60369,2,0,B|184:104|144:104,1,85
280,288,60730,2,0,B|328:280|368:280,1,85,8|0
256,192,61091,5,4
256,192,61272,1,0
312,120,61453,2,0,B|244:72|152:128,1,170,0|8
256,192,61995,1,0
200,264,62176,2,0,B|268:312|360:256,1,170,0|4
256,192,62718,12,0,63802
312,192,74103,6,0,B|336:152|336:112,1,85,8|0
200,192,74465,2,0,B|176:232|176:272,1,85,0|0
256,136,74826,2,0,B|224:96|184:96,1,85,2|0
256,248,75188,2,0,B|288:288|328:288,1,85
312,192,75549,5,2
200,192,75730,1,0
344,168,75911,1,0
168,216,76091,1,0
352,128,76272,1,2
160,256,76453,1,0
336,96,76634,1,2
176,288,76814,1,0
296,72,76995,6,0,B|248:64|224:28,1,85,2|0
216,312,77356,2,0,B|264:320|288:356,1,85,8|0
216,144,77718,2,0,B|136:144|112:128,1,85,2|0
296,240,78079,2,0,B|376:240|400:256,1,85,8|0
216,144,78441,6,0,B|232:96|232:48,1,85,2|0
296,240,78802,2,0,B|280:288|280:336,1,85
304,64,79164,1,2
208,320,79344,1,0
464,192,79525,5,0
448,192,79615,1,0
432,192,79706,1,0
416,192,79796,1,0
400,192,79887,5,4
256,64,80158,1,0
112,192,80429,1,0
160,64,80609,5,2
352,64,80881,1,0
256,232,81152,1,0
256,148,81332,5,4
156,320,81603,1,0
356,320,81875,1,0
256,320,82055,5,2
256,64,82417,1,8
80,248,82778,6,0,B|80:296|56:328,1,85,8|0
144,184,83140,2,0,B|168:224|176:264,1,85,8|0
56,159,83501,1,2
256,64,84043,5,2
256,85,84134,1,0
266,103,84224,1,0
282,117,84314,1,0
301,125,84405,1,0
321,131,84495,1,0
340,139,84585,1,0
357,151,84676,1,0
370,167,84766,1,0
379,186,84856,1,0
380,207,84947,1,8
368,292,85128,1,2
208,144,85670,5,8
208,240,85850,1,0
304,240,86031,1,8
304,152,86212,1,0
304,136,86302,1,0
304,120,86393,1,0
304,240,86573,2,0,B|304:304|304:336,1,85,0|8
208,240,86935,1,0
304,152,87115,6,0,B|304:96|320:64,1,85
208,240,87477,2,0,B|208:296|192:328,1,85,8|0
184,344,87748,1,0
168,360,87838,1,0
304,240,88019,2,0,B|400:240,1,85,0|8
208,240,88381,1,0
384,128,88561,6,0,B|344:152|280:152,1,85
128,264,88923,2,0,B|168:240|232:240,1,85,8|0
232,240,89194,1,0
256,240,89284,1,0
360,240,89465,1,0
256,344,89646,1,8
128,264,89826,1,0
232,152,90007,6,0,B|226:96|184:88,1,85
280,232,90368,2,0,B|285:287|328:296,1,85,8|0
344,296,90640,1,0
360,296,90730,1,0
256,152,91091,1,8
256,136,91182,1,0
256,120,91272,1,0
256,104,91362,1,0
256,88,91453,5,4
128,312,91724,1,0
384,312,91995,1,0
256,320,92176,5,2
128,96,92447,1,0
384,96,92718,1,0
464,200,92899,5,4
256,320,93170,1,0
48,200,93441,1,0
128,96,93622,5,2
384,96,93983,1,0
184,264,94344,6,0,B|208:304|256:304,1,85,12|0
304,224,94706,2,0,B|352:216|376:176,1,85,8|0
312,112,95067,1,8
216,112,95248,1,0
200,112,95338,1,0
184,112,95429,1,8
312,112,95609,5,0
216,112,95790,2,0,B|176:136|176:184,1,85,8|0
256,232,96152,2,0,B|264:280|304:304,1,85,8|0
368,240,96513,1,8
368,144,96694,1,0
368,128,96784,1,0
368,112,96875,1,8
208,192,97236,6,0,B|208:240|192:280,1,85,8|0
304,192,97597,2,0,B|304:144|320:104,1,85,8|0
128,240,97959,2,0,B|120:280|96:320,1,85,8|0
384,144,98320,2,0,B|392:104|416:64,1,85,8|0
256,104,98682,5,2
256,280,98862,1,0
256,88,99043,1,2
256,296,99224,1,0
120,192,99405,2,0,B|64:192,2,42.5,0|0|0
392,192,99766,2,0,B|304:192,1,85,2|0
480,192,100128,5,8
336,32,100308,1,0
392,192,100489,1,0
336,352,100670,1,0
480,192,100850,1,0
320,136,101031,1,0
480,192,101212,1,4
320,248,101393,1,0
416,104,101573,6,0,B|456:88|480:48,1,85,4|0
264,152,101935,2,0,B|280:112|328:96,1,85,8|0
192,296,102296,2,0,B|232:280|256:240,1,85,8|0
32,328,102658,2,0,B|56:288|104:280,1,85,8|0
256,240,103019,5,8
296,88,103200,1,0
432,24,103381,1,8
400,176,103561,1,0
256,240,103742,1,8
216,88,103923,1,0
80,24,104103,1,10
112,176,104284,1,0
296,88,104465,6,0,B|344:88|384:72,1,85,8|0
112,176,104826,2,0,B|64:176|24:192,1,85,8|0
400,176,105188,2,0,B|448:176|488:192,1,85,8|0
216,88,105549,2,0,B|168:88|128:72,1,85,8|0
256,192,105911,5,4
256,192,106091,1,0
376,320,106272,5,0
356,320,106362,1,0
336,320,106453,1,0
316,320,106543,1,0
296,320,106634,2,0,B|264:292,3,42.5
244,292,106995,1,0
224,292,107085,1,0
204,292,107176,1,0
184,292,107266,1,0
164,292,107356,6,0,B|140:292|140:292|80:224|140:160|140:160,1,170,0|8
240,160,107899,1,0
344,160,108079,2,0,B|344:249,1,85,4|4
140,160,108622,6,0,B|84:160|60:136,1,85,4|0
184,56,108983,1,0
328,56,109164,1,8
256,184,109344,1,0
328,312,109525,6,0,B|384:312|408:336,1,85,0|0
400,192,109887,1,8
256,184,110067,1,0
184,312,110248,2,0,B|128:312|104:336,1,85,0|0
112,192,110609,1,8
256,184,110790,1,0
328,56,110971,5,0
344,56,111061,1,0
360,56,111152,1,0
256,184,111332,1,8
400,184,111513,1,0
416,184,111603,1,0
432,184,111694,1,0
112,184,111875,2,0,B|-8:184,2,85,0|8|0
304,144,112417,5,0
304,240,112597,1,0
208,240,112778,1,8
208,144,112959,1,0
384,192,113140,5,0
256,72,113320,1,0
136,192,113501,1,8
256,312,113682,1,0
256,72,113862,6,0,B|304:72|336:48,1,85,4|0
256,312,114224,2,0,B|208:312|176:336,1,85,8|0
256,192,114585,1,0
272,192,114676,1,0
288,192,114766,1,0
168,192,114947,2,0,B|80:192,1,85,8|0
384,192,115308,5,0
288,192,115489,1,0
80,192,115670,2,0,B|184:192,1,85,8|0
472,192,116031,2,0,B|376:192,1,85
40,192,116393,2,0,B|136:192,1,85,8|0
304,240,116754,5,4
208,144,116935,1,0
304,48,117115,1,8
208,336,117296,1,0
304,144,117477,1,0
208,240,117658,1,0
384,48,117838,1,8
128,336,118019,1,0
208,144,118200,6,0,B|168:148|160:140|120:144,1,85
304,240,118561,2,0,B|344:236|352:244|392:240,1,85,8|0
128,192,118923,5,4
256,72,119103,1,0
376,192,119284,1,8
256,312,119465,1,0
256,72,119646,5,0
240,72,119736,1,0
224,72,119826,1,0
208,72,119917,1,0
192,72,120007,1,0
176,72,120097,1,0
160,72,120188,1,4
376,192,120549,6,0,B|376:144|396:112,1,85,0|8
256,312,120911,2,0,B|304:312|336:332,1,85,0|0
136,192,121272,2,0,B|136:240|116:272,1,85,0|8
256,72,121634,5,0
304,240,121814,2,0,B|328:280|328:320,1,85
208,144,122176,2,0,B|184:104|184:64,1,85,8|0
384,96,122537,5,4
128,96,122718,1,0
256,312,122899,1,8
256,72,123079,1,4
128,288,123260,1,0
384,288,123441,1,4
384,96,123622,6,0,B|384:184,1,85,8|0
384,288,123983,1,0
256,72,124164,2,0,B|256:160,1,85,0|8
256,264,124525,1,0
384,96,124706,5,0
256,264,124887,1,0
256,72,125067,1,8
384,288,125248,1,0
128,288,125429,5,4
384,96,125609,1,0
128,96,125790,1,8
384,288,125971,1,4
128,288,126152,5,0
256,72,126332,1,0
384,288,126513,1,8
176,192,126694,6,0,B|176:144|152:112,1,85
256,72,127055,1,0
359,112,127236,2,0,B|336:144|336:192,1,85,8|0
256,272,127597,2,0,B|256:360,2,85,0|0|8
256,172,128140,1,0
256,72,128320,5,4
256,172,128501,1,0
168,224,128682,1,8
344,120,128862,5,4
256,172,129043,1,0
168,120,129224,1,0
344,224,129405,5,8
256,172,129585,1,0
256,72,129766,1,8
256,72,129947,1,0
256,172,130128,1,8
256,272,130308,1,0
168,320,130489,5,4
256,272,130670,1,0
344,320,130850,1,0
256,272,131031,1,0
168,320,131212,5,8
344,320,131393,1,0
344,320,131483,1,0
344,320,131573,1,0
256,172,131754,1,0
168,320,131935,1,4
256,192,132115,12,0,133381
