osu file format v9

[General]
AudioFilename: Killer Song.mp3
AudioLeadIn: 1500
PreviewTime: 108624
Countdown: 0
SampleSet: Soft
StackLeniency: 0.5
Mode: 0
LetterboxInBreaks: 0

[Editor]
DistanceSpacing: 1
BeatDivisor: 4
GridSize: 4

[Metadata]
Title:Killer Song (Short Ver.)
Artist:yanaginagi
Creator:terametis
Version:Easy
Source:
Tags:owari no hoshi no love song Maeda Jun Takahiro Furukawa flaming-june Yanagi Nagi winber1 nold_1702

[Difficulty]
HPDrainRate:2
CircleSize:3
OverallDifficulty:2
ApproachRate:2
SliderMultiplier:1.1
SliderTickRate:1

[Events]
//Background and Video events
0,0,"BGkl.jpg"
//Break Periods
2,64002,72543
//Storyboard Layer 0 (Background)
//Storyboard Layer 1 (Fail)
//Storyboard Layer 2 (Pass)
//Storyboard Layer 3 (Foreground)
//Storyboard Sound Samples
//Background Colour Transformations
3,100,163,162,255

[TimingPoints]
369,361.44578313253,4,2,1,60,1,0
730,-100,4,2,1,15,0,0
1453,-100,4,2,1,20,0,0
1814,-100,4,2,1,30,0,0
2176,-100,4,2,1,35,0,0
2537,-100,4,2,1,40,0,0
2899,-100,4,2,1,45,0,0
3260,-100,4,2,1,50,0,0
3622,-100,4,2,1,55,0,0
3983,-100,4,2,1,60,0,0
16272,-100,4,2,2,50,0,0
27477,-100,4,2,1,50,0,0
27838,-100,4,2,2,50,0,0
30368,-100,4,2,1,50,0,0
30549,-100,4,2,2,50,0,0
33441,-100,4,2,1,50,0,0
33531,-100,4,2,2,50,0,0
36152,-100,4,2,1,50,0,0
36513,-100,4,2,2,50,0,0
37597,-100,4,2,1,50,0,0
37778,-100,4,2,2,50,0,0
39043,-100,4,2,1,50,0,0
39134,-100,4,2,2,50,0,0
42296,-100,4,2,1,50,0,0
43742,-100,4,2,2,50,0,0
44826,-100,4,2,1,50,0,0
45007,-100,4,2,2,50,0,0
47718,-100,4,2,1,50,0,0
47899,-100,4,2,2,50,0,0
49525,-100,4,2,1,50,0,0
50790,-100,4,2,1,60,0,1
63802,-100,4,2,1,5,0,0
74103,-100,4,2,2,50,0,0
84947,-100,4,2,1,50,0,0
85670,-100,4,2,2,50,0,0
94344,-100,4,2,2,50,0,0
95429,-100,4,2,1,50,0,0
95609,-100,4,2,2,50,0,0
96875,-100,4,2,1,50,0,0
97236,-100,4,2,2,50,0,0
99405,-100,4,2,1,50,0,0
101573,-100,4,2,2,50,0,0
102658,-100,4,2,1,50,0,0
103019,-100,4,2,2,50,0,0
104103,-100,4,2,1,50,0,0
104194,-100,4,2,2,50,0,0
105549,-100,4,2,1,50,0,0
108622,-100,4,2,1,60,0,1
133381,-100,4,2,1,5,0,0

[Colours]
Combo1 : 255,255,255
Combo2 : 128,255,128
Combo3 : 128,255,255
Combo4 : 255,128,128

[HitObjects]
256,192,730,12,4,3983
256,224,4706,5,4
256,112,5067,1,8
160,168,5429,2,0,B|132:224|160:272,1,110,0|8
376,272,6513,5,8
376,160,6875,2,0,B|312:72,1,110,0|8
200,72,7597,1,0
256,168,7959,2,0,B|288:224|256:272,1,110,8|0
88,268,8862,6,0,B|36:196|80:112,1,165,0|8
164,184,9766,1,0
272,184,10128,1,8
344,104,10489,6,0,B|464:104,1,110,4|8
456,216,11212,1,0
392,312,11573,1,8
168,312,12296,6,0,B|96:200,1,110,8|0
108,109,13019,1,8
217,109,13381,1,4
256,192,13561,12,4,16272
368,256,16995,5,8
256,64,17718,1,8
144,256,18441,1,8
368,256,19164,5,8
320,40,19887,1,8
104,80,20609,1,8
144,296,21332,1,8
368,296,22055,6,0,B|432:192|368:88,1,220,4|8
152,96,23501,1,8
56,296,24224,1,8
272,280,24947,5,8
456,152,25670,1,8
240,104,26393,1,10
64,232,27115,1,4
136,312,27477,1,8
248,312,27838,5,8
424,192,28561,2,0,B|360:104,1,110,8|8
288,16,29284,1,8
152,192,30007,1,8
40,192,30368,2,0,B|48:256|104:288,1,110,8|8
312,280,31453,5,8
424,96,32176,2,0,B|488:96|512:40,2,110,8|8|8
312,96,33260,2,0,B|312:40,2,55,0|8|4
312,320,34344,5,8
104,248,35067,1,8
312,176,35790,2,0,B|376:176|408:128,1,110,8|8
312,72,36513,5,8
108,132,37236,2,0,B|144:180|204:180,1,110,0|8
312,176,37959,1,2
504,280,38682,2,0,B|468:328|408:328,1,110,4|8
304,328,39405,5,8
440,152,40128,1,8
248,40,40850,1,2
112,216,41573,1,2
336,216,42296,5,4
144,320,43019,1,8
112,216,43381,1,8
152,112,43742,6,0,B|260:52|360:116,1,220,4|8
440,192,44826,1,8
360,272,45188,2,0,B|252:332|152:268,1,220,8|8
256,80,46634,6,0,B|328:128|344:32|402:81|402:81|464:128,1,220,8|8
368,192,47718,1,8
451,265,48079,2,0,B|402:302|402:302|344:352|328:256|256:304|256:304|224:352|160:312|160:312|168:256|112:216,1,440,4|8
8,176,49887,1,8
96,104,50248,2,8,B|152:104,1,55,4|4
264,104,50790,6,0,B|336:64|432:104,1,165,4|8
368,200,51694,2,0,B|328:256|360:312,1,110,0|8
460,112,52778,5,8
352,96,53140,2,0,B|288:80|240:112|184:96,1,165,4|8
80,72,54043,1,8
104,184,54405,1,0
232,288,54947,6,0,B|312:256|360:256,1,110,8|0
440,224,55670,1,8
360,152,56031,2,0,B|416:112|424:48,2,110,4|8|0
192,152,57296,6,0,B|112:120|32:152,1,165,0|8
88,248,58200,2,0,B|56:296|80:352,1,110,0|8
184,312,58923,2,0,B|296:352|400:312,1,220,0|0
344,216,60007,5,8
232,216,60369,1,0
288,120,60730,2,0,B|232:120|176:120,1,110,8|0
120,216,61453,5,8
176,312,61814,2,0,B|224:280|272:344|344:312,1,165
256,192,62537,12,0,63802
256,56,74103,5,0
80,192,74826,1,0
256,328,75549,1,0
432,192,76272,1,0
256,56,76995,5,4
192,144,77356,2,0,B|180:176|164:192|164:192|180:212|192:240,1,110,8|0
256,328,78079,1,8
256,328,78441,5,0
320,238,78802,2,0,B|332:212|348:192|348:192|332:176|320:144,1,110,8|0
256,56,79525,1,8
256,56,79887,5,4
56,144,80609,1,8
256,232,81332,1,8
456,144,82055,1,8
256,56,82778,5,8
144,248,83501,1,8
368,248,84224,1,0
256,56,84947,1,4
48,136,85670,6,0,B|40:192|48:248,1,110,8|8
72,352,86393,1,8
256,232,87115,2,0,B|248:176|256:120,1,110,8|8
280,16,87838,1,8
448,160,88561,6,0,B|432:208|392:256,1,110,8|8
312,328,89284,1,8
96,304,90007,2,0,B|144:280|184:240,1,110,8|8
248,152,90730,1,8
48,64,91453,5,4
248,152,92176,1,8
464,192,92899,1,8
248,232,93622,1,8
48,320,94344,5,4
72,104,95067,1,8
176,152,95429,1,8
280,104,95790,1,8
384,296,96513,1,8
280,248,96875,1,8
176,296,97236,5,8
208,80,97959,1,8
424,112,98682,1,2
392,328,99405,1,2
216,192,100128,5,4
424,112,100850,1,8
344,192,101212,1,4
280,280,101573,6,0,B|192:328|144:256|64:280,1,220,0|0
0,192,102658,1,8
65,104,103019,2,0,B|144:128|192:56|280:104,1,220
344,192,104103,1,8
340,304,104465,6,0,B|308:384|204:384|172:304,1,220
137,195,105549,1,8
152,80,105911,6,0,B|256:140|176:232|256:260|256:260|336:232|256:140|360:80,1,440,4|8
416,176,107718,1,8
416,288,108079,2,8,B|376:328,1,55,4|4
264,328,108622,6,0,B|192:296|104:296,1,165,4|8
48,200,109525,2,0,B|56:136|104:112,1,110,0|8
320,72,110609,5,8
232,136,110971,2,0,B|272:216|368:224,1,165,4|8
472,224,111875,1,8
416,320,112236,1,0
248,320,112778,6,0,B|136:320,1,110,8|0
60,240,113501,1,8
136,160,113862,2,0,B|104:112|112:56,2,110,4|8|0
216,304,115128,6,0,B|304:304|368:248,1,165,0|8
440,168,116031,2,0,B|384:72,1,110,0|8
288,120,116754,2,0,B|184:160|72:104,1,220,0|0
8,192,117838,5,8
88,264,118200,2,0,B|144:256|200:272,1,110,0|8
280,344,118923,1,8
392,344,119284,1,8
448,248,119646,2,0,B|404:176|312:160,1,165,4|4
152,160,120730,5,8
80,240,121091,2,0,B|104:296|176:312,1,110,0|8
384,304,122176,5,8
384,192,122537,2,0,B|384:104|312:48,1,165,4|8
240,128,123441,1,8
128,128,123802,1,0
72,280,124344,6,0,B|184:280,1,110,8|0
292,280,125067,1,8
384,216,125429,2,0,B|424:272|504:232,2,110,4|8|0
272,96,126694,6,0,B|216:40|120:48,1,165,0|8
56,136,127597,1,0
120,224,127959,1,8
120,328,128320,6,4,B|248:328,1,110,4|8
296,240,129043,2,0,B|320:184|384:184,1,110,0|8
496,184,129766,2,0,B|496:72,1,110,8|8
384,72,130489,5,4
272,72,130850,1,0
192,144,131212,2,0,B|144:192|32:192,1,165,8|4
256,192,131935,12,0,133381
