osu file format v9

[General]
AudioFilename: Killer Song.mp3
AudioLeadIn: 2000
PreviewTime: 50605
Countdown: 0
SampleSet: Soft
StackLeniency: 0.7
Mode: 0
LetterboxInBreaks: 0

[Editor]
DistanceSpacing: 1.1
BeatDivisor: 4
GridSize: 4

[Metadata]
Title:Killer Song
Artist:yanaginagi
Creator:Ryafuka
Version:Hard
Source:
Tags:maeda jun owari no hoshi no love song climbb65588 KanaRin

[Difficulty]
HPDrainRate:6
CircleSize:4
OverallDifficulty:6
ApproachRate:7
SliderMultiplier:1.5
SliderTickRate:1

[Events]
//Background and Video events
0,0,"BG.jpg"
Video,0,"Killer Song.avi"
//Break Periods
2,64168,73188
2,135011,143159
2,172006,182653
2,195319,204339
//Storyboard Layer 0 (Background)
//Storyboard Layer 1 (Fail)
//Storyboard Layer 2 (Pass)
//Storyboard Layer 3 (Foreground)
//Storyboard Sound Samples
//Background Colour Transformations
3,100,163,162,255

[TimingPoints]
354,361.44578313253,4,2,1,60,1,0
715,-100,4,2,1,20,0,0
1799,-100,4,2,1,25,0,0
2161,-100,4,2,1,30,0,0
2522,-100,4,2,1,35,0,0
2884,-100,4,2,1,40,0,0
3245,-100,4,2,1,45,0,0
3607,-100,4,2,1,5,0,0
3787,-100,4,1,0,55,0,0
4510,-100,4,2,1,50,0,0
8847,-100,4,2,1,45,0,0
9751,-100,4,2,1,50,0,0
10474,-100,4,2,1,55,0,0
10655,-100,4,2,1,50,0,0
16076,-125,4,2,2,40,0,0
21860,-125,4,2,2,45,0,0
27643,-125,4,2,2,50,0,0
33426,-125,4,2,2,45,0,0
39209,-125,4,2,2,35,0,0
40655,-125,4,2,1,45,0,0
42281,-125,4,1,0,30,0,0
43275,-125,4,2,1,50,0,0
48155,-125,4,2,1,20,0,0
49510,-125,4,2,1,5,0,0
49872,-125,4,1,0,45,0,0
50052,-100,4,1,0,55,0,0
50504,-100,4,2,1,35,0,0
50775,-90.9090909090909,4,2,1,60,0,1
62161,-90.9090909090909,4,2,1,50,0,1
62341,-90.9090909090909,4,2,1,45,0,1
62522,-90.9090909090909,4,2,1,40,0,0
62703,-90.9090909090909,4,2,1,20,0,0
63968,-100,4,2,1,5,0,0
73908,-125,4,2,2,40,0,0
79691,-125,4,2,2,45,0,0
85474,-125,4,2,2,50,0,0
91257,-125,4,2,2,45,0,0
97221,-125,4,2,2,35,0,0
98486,-125,4,2,2,45,0,0
100113,-125,4,1,0,30,0,0
101107,-125,4,2,1,50,0,0
105986,-125,4,2,1,20,0,0
107341,-125,4,2,1,5,0,0
107703,-125,4,1,0,45,0,0
107884,-100,4,1,0,55,0,0
108335,-100,4,2,1,35,0,0
108607,-90.9090909090909,4,2,1,60,0,1
118727,-90.9090909090909,4,2,1,50,0,1
119450,-90.9090909090909,4,2,1,55,0,1
120082,-90.9090909090909,4,2,1,60,0,0
120173,-90.9090909090909,4,2,1,60,0,1
131558,-90.9090909090909,4,2,1,50,0,1
131739,-90.9090909090909,4,2,1,45,0,1
131920,-90.9090909090909,4,2,1,40,0,0
132010,-90.9090909090909,4,2,1,20,0,0
134811,-90.9090909090909,4,2,1,5,0,0
141659,600,4,2,1,60,1,0
144059,413.793103448276,4,2,2,35,1,1
144059,-125,4,2,2,35,0,1
144162,-125,4,2,2,35,0,0
156576,-125,4,2,2,15,0,0
157300,-100,4,2,1,45,0,1
157403,-100,4,2,1,45,0,0
168990,-100,4,2,1,20,0,0
170541,361.44578313253,4,1,0,20,1,0
171806,-100,4,1,0,40,0,1
171896,-100,4,1,0,40,0,0
183372,-100,4,2,1,40,0,0
194215,-100,4,1,0,35,0,0
205239,-100,4,2,1,35,0,0
206866,-100,4,2,1,20,0,0
208673,-100,4,1,0,55,0,0
209125,-100,4,2,1,35,0,0
209396,-90.9090909090909,4,2,1,60,0,1
219516,-90.9090909090909,4,2,1,50,0,1
220239,-90.9090909090909,4,2,1,55,0,1
220872,-90.9090909090909,4,2,1,60,0,0
220962,-90.9090909090909,4,2,1,60,0,1
230360,-90.9090909090909,4,2,1,65,0,1
231083,-90.9090909090909,4,2,1,70,0,1
231444,-90.9090909090909,4,2,1,80,0,1
231806,-90.9090909090909,4,2,1,70,0,1
232167,-90.9090909090909,4,2,1,60,0,1
232438,-90.9090909090909,4,2,1,60,0,0
232528,-90.9090909090909,4,2,1,70,0,1
244004,-90.9090909090909,4,2,1,70,0,0
244095,-90.9090909090909,4,2,1,70,0,1
255480,-90.9090909090909,4,2,1,50,0,1
255661,-90.9090909090909,4,2,1,45,0,1
255842,-90.9090909090909,4,2,1,40,0,0
256022,-90.9090909090909,4,2,1,20,0,0
258733,-90.9090909090909,4,2,1,5,0,0

[Colours]
Combo1 : 235,235,235
Combo2 : 254,211,112
Combo3 : 213,0,0

[HitObjects]
256,192,715,12,0,3607
464,192,3968,6,0,B|440:196|440:196|412:188|412:188|384:192,1,75
128,80,4691,6,0,B|108:128|164:184|228:160,1,150,4|8
280,108,5233,1,0
252,32,5414,2,0,B|196:96,1,75
216,164,5775,1,8
220,300,5956,6,0,B|184:344|107:324|100:272,1,150
172,232,6498,2,0,B|252:232,1,75,8|0
312,180,6860,1,0
384,220,7040,1,0
456,180,7221,1,8
396,338,7582,6,0,B|348:370|300:366|244:326,1,150,0|8
224,256,8125,2,0,B|192:232|156:228,1,75
100,288,8486,2,0,B|132:312|168:316,1,75,0|8
255,334,8847,6,0,B|328:288|304:188,1,150,4|0
264,136,9390,2,0,B|228:124|204:88,1,75,8|0
348,136,9751,2,0,B|384:148|408:184,1,75,4|0
308,204,10113,2,0,B|220:204,1,75,8|0
116,112,10474,5,4
72,180,10655,1,0
112,252,10835,1,8
64,320,11016,2,0,B|88:352|136:352,1,75
200,312,11378,2,0,B|232:288|284:292,2,75,0|8|0
228,148,12100,5,0
392,172,12462,1,0
356,332,12823,1,0
332,252,13004,1,8
312,172,13185,1,0
292,92,13366,6,0,B|236:32|144:60,1,150,4|8
96,116,13908,1,0
64,192,14088,2,0,B|120:252|212:224,1,150,0|8
264,172,14631,5,0
264,172,14811,1,0
332,128,14992,1,0
332,128,15173,2,0,B|424:116|464:200,1,150,8|0
360,324,15896,1,0
248,256,16257,6,0,B|224:316|148:304,1,120,4|0
104,248,16799,1,0
56,196,16980,2,0,B|88:136,1,60,2|0
184,76,17341,2,0,B|152:136,1,60
176,200,17703,6,0,B|180:232|212:256,2,60,0|0|0
248,192,18245,1,0
248,192,18426,2,0,B|280:132|348:132,1,120,2|0
300,268,19149,6,0,B|268:328|200:328,1,120,0|0
132,324,19691,1,0
100,260,19872,2,0,B|68:252|52:216,1,60,2|0
40,108,20233,6,0,B|104:132|124:200,1,120,0|0
192,176,20775,1,0
220,244,20956,2,0,B|232:276|268:292,1,60
324,256,21317,2,0,B|368:208|436:232,1,120,2|0
276,312,22040,6,0,B|256:288|256:288|200:288|200:288|176:260,1,120,2|0
128,128,22763,2,0,B|148:152|148:152|204:152|204:152|228:180,1,120,2|0
284,220,23305,1,0
284,220,23486,2,0,B|160:220,1,120,2|0
128,284,24028,1,0
55,142,24209,6,0,B|75:134|111:142|139:174|127:226,1,120,2|0
55,214,24751,1,0
55,214,24932,2,0,B|45:251|73:283|109:291|129:283,1,120,2|0
196,260,25474,1,0
196,260,25655,2,0,B|272:236,1,60,2|0
288,308,26016,2,0,B|364:284,1,60
412,316,26378,6,0,B|440:300|456:288|468:248|448:208,1,120,2|0
360,104,26920,1,0
360,104,27100,2,0,B|332:120|316:132|304:172|324:212,1,120,2|8
154,321,27823,6,0,B|204:288,1,60,4|0
228,220,28185,1,0
196,156,28366,1,0
128,132,28546,2,0,B|100:196|152:248,1,120,2|0
204,288,29088,1,0
260,332,29269,6,0,B|328:332,1,60,0|0
444,284,29631,2,0,B|376:284,1,60,0|0
280,212,29992,2,0,B|348:212,1,60,2|0
464,164,30353,2,0,B|396:164,1,60,8|0
236,148,30715,6,0,B|248:108|284:84|336:92,1,120,0|0
364,156,31257,1,0
360,228,31438,2,0,B|404:272,1,60,2|0
296,260,31799,2,0,B|252:216,1,60
236,148,32161,5,0
196,88,32341,1,0
124,84,32522,1,0
92,148,32703,1,0
120,216,32884,1,2
120,216,33245,2,0,B|184:216,1,60,8|8
264,92,33607,6,0,B|284:116|284:116|340:116|340:116|364:144,1,120,4|0
412,276,34329,2,0,B|392:252|392:252|336:252|336:252|312:224,1,120,2|0
256,184,34872,1,0
256,184,35052,2,0,B|380:184,1,120,2|0
416,244,35594,1,0
376,112,35775,6,0,B|396:104|432:112|460:144|448:196,1,120,2|8
416,244,36317,1,0
344,256,36498,2,0,B|268:248|240:316,2,120,2|0|2
356,328,37402,1,0
292,360,37582,2,0,B|236:404|180:348,2,120,8|2|0
204,264,38486,5,0
204,264,38667,2,0,B|164:208|88:236,1,120,2|8
84,304,39209,1,0
128,360,39390,6,0,B|181:333,1,60,2|0
252,324,39751,2,0,B|305:297,1,60,2|0
376,288,40113,2,0,B|440:256,1,60,2|0
456,192,40474,1,2
456,192,40655,1,0
420,132,40835,6,0,B|366:105,1,60,2|0
296,96,41197,2,0,B|242:69,1,60,2|0
172,60,41558,2,0,B|108:28,1,60,2|0
52,68,41920,1,2
52,68,42100,1,0
120,168,42281,6,0,B|148:204|132:244|132:244|168:288,2,120,0|0|0
96,312,43366,5,0
32,280,43546,1,0
68,216,43727,2,0,B|132:240|188:192,1,120,4|0
172,128,44269,2,0,B|220:85|284:109,2,120
156,200,45173,2,0,B|164:232|192:252,1,60,2|0
260,252,45534,2,0,B|284:269|292:301,1,60
248,356,45896,5,2
188,268,46076,1,0
236,172,46257,2,0,B|316:172,1,60
380,104,46619,6,0,B|300:104,1,60,2|0
440,64,46980,1,0
440,64,47161,2,0,B|464:96|456:152|408:172,1,120
356,208,47703,2,0,B|284:208,2,60,8|0|12
256,192,48155,12,0,49510
256,192,49872,5,0
48,192,50233,6,0,B|72:188|72:188|100:196|100:196|128:192,1,75
280,112,50775,6,0,B|264:156|216:168,1,82.4999975413085,4|2
204,256,51137,2,0,B|220:300|268:312,1,82.4999975413085,0|8
366,224,51498,2,0,B|284:224,1,82.4999975413085,0|2
192,224,51860,1,0
108,260,52040,1,8
48,192,52221,2,0,B|56:136|124:104|180:136,1,164.999995082617
192,224,52763,1,8
268,276,52944,1,0
476,264,53125,6,0,B|468:320|400:352|344:320,1,164.999995082617,2|8
268,276,53667,2,0,B|224:260|180:288,1,82.4999975413085,4|2
288,196,54028,2,0,B|328:212|376:188,1,82.4999975413085,0|8
444,144,54390,2,0,B|420:108|376:104,1,82.4999975413085,0|2
264,52,54751,5,0
176,140,54932,1,8
288,196,55113,2,0,B|240:276|144:248,1,164.999995082617
64,208,55655,6,0,B|84:168|128:160,1,82.4999975413085,8|0
216,152,56016,2,0,B|248:112,2,41.2499987706542,2|0|0
224,244,56378,1,8
288,308,56558,2,0,B|380:272|440:352,2,164.999995082617,4|0|0
200,332,57462,1,2
136,268,57643,2,0,B|84:184,1,82.4999975413085,0|8
120,52,58004,6,0,B|212:196,1,164.999995082617
296,216,58546,1,8
288,308,58727,1,0
368,348,58908,2,0,B|412:344|436:296,1,82.4999975413085,2|0
280,128,59269,5,8
280,128,59450,2,0,B|341:116|393:172|385:224,1,164.999995082617,4|0
380,316,59992,1,8
288,308,60173,1,0
296,216,60354,2,0,B|208:216,1,82.4999975413085,2|0
136,260,60715,1,8
216,300,60896,2,0,B|240:248|208:172|132:172,1,164.999995082617
60,184,61438,2,0,B|28:156|28:108,2,82.4999975413085,8|0|2
208,288,62161,5,0
128,248,62341,1,0
64,312,62522,1,4
256,192,62703,12,0,63968
320,80,74088,6,0,B|392:92|404:168,1,120,4|0
304,260,74811,2,0,B|292:332|216:344,1,120,2|0
136,228,75534,2,0,B|64:216|52:140,1,120,0|0
196,120,76257,2,0,B|272:120,2,60,2|0|0
252,212,76980,6,0,B|380:212,1,120,4|0
404,276,77522,1,0
448,216,77703,2,0,B|481:237|490:281|462:321,1,120,2|0
392,348,78245,1,0
336,300,78426,2,0,B|268:288|232:348,2,120,0|0|2
228,204,79510,1,0
72,100,79872,6,0,B|92:152|92:152|84:160|84:160|108:220,1,120,2|0
224,288,80594,2,0,B|204:236|204:236|212:228|212:228|188:168,1,120,2|0
172,108,81137,1,0
172,108,81317,2,0,B|208:108|208:108|252:132|252:132|296:132,1,120,2|0
428,140,81860,5,0
428,140,82040,2,0,B|428:104|376:60|324:88,1,120,2|0
356,152,82582,1,0
356,152,82763,2,0,B|356:188|304:232|252:204,1,120,2|0
220,264,83305,1,0
152,284,83486,2,0,B|180:352|256:328,2,120,2|0|2
112,224,84390,1,0
180,204,84570,2,0,B|152:136|76:160,1,120,0|8
112,224,85113,1,2
284,96,85655,6,0,B|304:164|396:152,1,120,4|0
424,100,86197,1,0
356,80,86378,2,0,B|288:188,1,120,2|0
320,248,86920,1,0
300,316,87100,6,0,B|240:352,2,60,0|0|0
248,264,87643,1,0
248,264,87823,2,0,B|216:204|140:216,1,120,2|0
280,160,88546,6,0,B|312:100|388:112,1,120,0|0
424,168,89088,1,0
356,188,89269,2,0,B|300:76,1,120,2|0
300,232,89811,6,0,B|264:240|232:216,2,60,0|0|0
332,296,90353,2,0,B|368:288|400:312,2,60,0|0|2
184,292,91076,1,4
48,248,91438,6,0,B|100:228|100:228|108:236|108:236|168:212,1,120,6|0
236,96,92161,2,0,B|184:116|184:116|176:108|176:108|116:132,1,120,2|0
56,108,92703,1,0
56,108,92884,2,0,B|56:144|56:144|80:188|80:188|80:232,1,120,2|0
188,296,93426,5,0
188,296,93607,2,0,B|248:336|304:272,1,120,2|0
360,180,94149,1,0
360,180,94329,2,0,B|296:140|248:200,2,120,4|0|2
388,248,95233,5,0
316,248,95414,2,0,B|188:248,2,120,0|2|0
352,312,96317,1,0
424,312,96498,2,0,B|460:284|472:240|440:200,1,120,2|0
400,68,97221,6,0,B|364:96|352:140|384:180,1,120,6|0
452,176,97763,1,0
452,176,97944,2,0,B|324:176,1,120,2|0
264,200,98486,1,0
232,264,98667,2,0,B|196:268|168:228,2,60,2|0|0
304,260,99209,1,0
272,324,99390,2,0,B|228:368|152:344,1,120,2|0
112,292,99932,1,0
52,188,100113,6,0,B|88:160|128:176|128:176|172:140,2,120
208,96,101197,1,0
244,160,101378,1,0
304,200,101558,6,0,B|336:144|416:156,1,120,4|0
424,224,102100,2,0,B|436:292|508:304,2,120
376,168,103004,2,0,B|308:168,1,60,2|0
280,104,103366,2,0,B|208:132,1,60
156,100,103727,2,0,B|120:176,1,60,2|0
32,256,104088,5,0
92,348,104269,1,0
176,280,104450,2,0,B|260:280,1,60,2|0
288,332,104811,1,0
432,328,104992,2,0,B|428:288|376:260|332:280,1,120
364,344,105534,5,8
488,268,105715,1,0
360,200,105896,1,4
256,192,105986,12,0,107341
256,192,107703,5,0
256,36,108064,6,0,B|260:60|260:60|252:88|252:88|256:116,1,75
88,272,108607,6,0,B|112:312|164:308,1,82.4999975413085,4|2
196,148,108968,2,0,B|156:172|160:224,1,82.4999975413085,0|8
240,264,109329,2,0,B|344:264,1,82.4999975413085,0|2
400,216,109691,5,0
468,276,109872,1,8
476,184,110052,2,0,B|460:128|380:104|332:164,1,164.999995082617
268,204,110594,1,8
200,264,110775,1,0
132,324,110956,2,0,B|88:328|56:288,2,82.4999975413085,2|0|8
184,176,111498,6,0,B|204:116|276:96|336:140,1,164.999995082617,4|0
268,204,112040,1,8
200,264,112221,2,0,B|164:296|100:276,1,82.4999975413085,0|2
32,276,112582,5,0
128,356,112763,1,8
248,328,112944,2,0,B|248:232,1,82.4999975413085,0|2
336,160,113305,2,0,B|336:76,2,82.4999975413085,0|8|0
424,176,113847,1,2
484,244,114028,1,0
452,328,114209,1,8
340,248,114390,6,0,B|283:231|269:149|317:112,1,164.999995082617,4|0
384,172,114932,1,8
424,256,115113,2,0,B|452:308|404:376|344:368,1,164.999995082617
260,336,115655,1,8
224,252,115835,6,0,B|176:172|60:212,1,164.999995082617
108,292,116378,2,0,B|180:356,1,82.4999975413085,8|0
260,336,116739,2,0,B|304:352|348:312,1,82.4999975413085,2|0
224,252,117100,1,8
224,252,117281,6,0,B|128:256|92:168,1,164.999995082617,4|0
140,92,117823,1,8
140,92,118004,1,0
272,176,118185,6,0,B|272:224|316:256,1,82.4999975413085,2|0
368,312,118546,1,8
456,284,118727,1,4
400,212,118908,6,0,B|316:212,1,82.4999975413085,2|0
248,272,119269,1,8
288,352,119450,1,4
368,312,119631,2,0,B|452:312,1,82.4999975413085,2|0
184,336,120173,6,0,B|136:252|32:276,2,164.999995082617,4|0|0
248,272,121076,1,2
232,180,121257,2,0,B|204:144|148:144,1,82.4999975413085,0|8
312,228,121619,6,0,B|376:296|472:248,1,164.999995082617
428,168,122161,1,8
368,100,122341,1,0
276,100,122522,2,0,B|260:56,2,41.2499987706542,2|0|0
232,180,122884,1,8
112,328,123064,6,0,B|156:368|236:328|232:264,1,164.999995082617,4|0
144,244,123607,1,8
76,184,123787,2,0,B|44:220|52:260,1,82.4999975413085,0|2
112,328,124149,5,0
144,244,124329,1,8
172,156,124510,2,0,B|232:136|296:176|288:248,1,164.999995082617
232,304,125052,2,0,B|256:344|308:348,1,82.4999975413085,8|0
384,316,125414,1,2
380,224,125594,2,0,B|388:180|436:156,2,82.4999975413085,0|8|4
248,100,126317,6,0,B|256:164|192:204|136:176,2,164.999995082617
156,92,127221,2,0,B|68:92,1,82.4999975413085,8|0
48,180,127582,1,2
208,264,127763,5,0
208,264,127944,1,8
188,352,128125,1,0
188,352,128305,2,0,B|232:364|272:332,1,82.4999975413085,2|0
296,252,128667,1,8
112,284,128847,6,0,B|56:272|36:192|84:152,1,164.999995082617,4|0
252,84,129390,2,0,B|160:84,1,82.4999975413085,8|0
168,176,129751,1,2
168,176,129932,1,0
244,224,130113,1,8
244,224,130293,2,0,B|296:192|376:248|356:308,1,164.999995082617
268,312,130835,2,0,B|172:312,2,82.4999975413085,8|0|2
496,340,131558,5,0
436,272,131739,1,0
360,320,131920,1,4
256,192,132010,12,0,134811
60,128,144059,6,0,B|32:192|76:244,2,120,2|0|2
188,168,145300,1,0
240,288,145714,2,0,B|290:336|354:312,2,120,2|0|2
348,216,146955,1,0
440,76,147369,6,0,B|392:84|352:64|352:64|324:84,1,120,2|0
236,176,148196,2,0,B|284:168|324:188|324:188|352:168,1,120,2|0
324,328,149024,2,0,B|432:244,2,120,2|0|2
200,288,150265,1,0
84,352,150679,6,0,B|44:344|24:284|52:240,1,120,2|0
88,56,151507,2,0,B|128:64|148:124|120:168,1,120,2|0
84,204,152127,1,0
84,204,152334,2,0,B|140:280,2,80,2|0|0
204,152,153162,6,0,B|236:136|264:136|264:136|280:116,2,80,2|0|0
204,240,153990,2,0,B|172:256|144:256|144:256|124:276,2,80,2|0|0
288,208,154817,2,0,B|368:208,2,80,2|0|0
268,296,155645,2,0,B|256:336|300:380|360:364,1,120,2|0
436,236,156472,5,2
456,148,156679,1,4
380,96,156886,1,4
94,181,157300,6,0,B|128:104|220:132,1,150,4|0
232,212,157921,1,0
168,264,158127,2,0,B|92:264,2,75,8|0|0
224,328,158748,1,0
380,228,158955,6,0,B|396:284|356:344|288:332,2,150,8|0|8
340,156,159990,1,0
340,156,160196,1,0
176,144,160610,6,0,B|84:164|56:68,2,150,8|0|8
208,220,161645,2,0,B|288:264,1,75
356,276,162058,5,0
356,276,162265,2,0,B|360:340|288:368|232:332,1,150,8|0
168,320,162886,1,0
92,352,163093,2,0,B|56:332|52:280,2,75,8|0|0
80,188,163921,6,0,B|104:160|104:160|104:120|132:80,2,112.5,8|0|0
156,220,164748,2,0,B|132:248|132:248|132:288|104:328,2,112.5,8|0|0
228,176,165576,6,0,B|260:232|336:208,2,112.5,8|0|0
268,104,166403,2,0,B|236:48|160:72,2,112.5,8|0|0
292,184,167231,6,0,B|272:224|280:256|280:256|256:288,2,112.5
428,96,168058,2,0,B|448:176|364:232,1,150
348,304,168679,1,0
348,304,168886,1,4
256,192,168990,12,0,170541
256,192,170721,12,4,171806
112,100,183553,6,0,B|56:96|12:152|36:220,2,150,4|8|0
120,188,184456,1,0
204,216,184637,1,8
200,308,184818,6,0,B|128:360,2,75
288,280,185360,1,8
316,192,185541,2,0,B|324:140|392:116|435:146,1,150,0|0
400,224,186083,1,8
316,192,186263,6,0,B|293:143|222:129|189:171,1,150,0|0
120,212,186806,1,8
96,132,186986,2,0,B|20:164,1,75
28,244,187348,5,0
148,308,187528,1,8
260,236,187709,2,0,B|292:184|264:120|200:116,1,150
140,68,188251,2,0,B|312:68,2,150,8|0|8
272,312,189336,6,0,B|328:316|372:260|348:192,2,150,4|8|0
180,308,190239,1,0
148,224,190420,1,8
208,156,190601,6,0,B|292:156,1,75
276,68,190962,1,0
192,32,191143,1,8
120,84,191324,2,0,B|36:84,1,75
56,172,191685,6,0,B|36:212|36:212|60:256|36:320,1,150
144,180,192227,2,0,B|208:116|296:160,1,150,0|8
252,240,192769,2,0,B|304:292,1,75
388,332,193131,1,0
464,280,193312,1,8
322,119,193492,6,0,B|412:112|436:196,1,150,4|0
464,280,194034,1,8
380,280,194215,2,0,B|340:280,8,37.5
464,280,195119,5,4
256,192,205239,12,2,206685
256,192,206866,12,0,208492
256,344,208854,6,0,B|252:320|252:320|260:292|260:292|256:264,1,75
188,104,209396,6,0,B|144:104|112:144,1,82.4999975413085,4|2
141,279,209757,2,0,B|175:251|176:208,1,82.4999975413085,0|8
44,160,210119,2,0,B|56:208|108:216,1,82.4999975413085,0|2
232,160,210480,1,0
284,236,210661,1,8
320,152,210842,2,0,B|344:112|404:104,1,82.4999975413085,0|2
488,284,211203,5,0
412,236,211384,1,8
336,288,211565,2,0,B|312:324|252:336,1,82.4999975413085,0|2
192,284,211926,2,0,B|168:248|108:236,1,82.4999975413085,0|8
36,216,212287,6,0,B|-1:261|38:333|106:325,2,164.999995082617,4|0|0
88,140,213191,1,2
204,240,213372,2,0,B|121:240,1,82.4999975413085,0|8
176,316,213733,2,0,B|232:336|292:292|280:224,1,164.999995082617
220,116,214275,5,8
220,116,214456,1,0
336,156,214637,1,8
336,156,214818,1,0
432,80,214998,1,8
432,80,215179,6,0,B|508:140|468:240,1,164.999995082617,4|0
416,300,215721,1,8
336,260,215902,2,0,B|252:304,1,82.4999975413085,0|2
172,280,216263,1,0
40,152,216444,5,8
40,152,216625,2,0,B|80:108|176:140|176:204,1,164.999995082617
172,280,217167,1,8
68,316,217348,1,0
10,228,217528,2,0,B|46:136,1,82.4999975413085,2|0
120,108,217890,1,8
341,108,218071,6,0,B|320:68|276:64,1,82.4999975413085,4|2
288,196,218432,2,0,B|309:236|353:240,1,82.4999975413085,0|8
392,156,218794,2,0,B|228:156,1,164.999995082617
152,208,219336,1,8
80,264,219516,2,0,B|92:308|152:320,1,82.4999975413085,0|6
228,296,219878,2,0,B|264:272|308:284,1,82.4999975413085,0|8
384,236,220239,1,0
420,320,220420,2,0,B|464:352,4,41.2499987706542,2|0|0|0|8
300,184,220962,6,0,B|260:160|260:104,1,82.4999975413085,4|2
312,40,221324,2,0,B|352:64|352:120,1,82.4999975413085,0|8
260,116,221685,2,0,B|172:116,1,82.4999975413085,0|2
104,180,222047,5,0
212,80,222227,1,8
256,224,222408,2,0,B|356:224,1,82.4999975413085,0|2
396,152,222769,1,0
428,236,222950,1,8
380,312,223131,1,0
288,320,223312,2,0,B|240:364|160:336|152:272,1,164.999995082617,2|8
20,160,223854,6,0,B|68:116|148:144|156:208,2,164.999995082617,4|0|0
72,232,224757,1,2
124,308,224938,2,0,B|48:360,2,82.4999975413085,0|8|0
212,280,225480,1,2
280,344,225661,2,0,B|328:352|364:304,2,82.4999975413085,0|8|0
416,224,226203,5,2
440,136,226384,1,0
368,80,226565,1,8
368,80,226745,5,4
264,228,227107,1,0
96,156,227468,1,0
60,240,227649,1,2
128,300,227830,6,0,B|216:300,1,82.4999975413085,0|8
348,228,228191,2,0,B|260:228,1,82.4999975413085,0|2
196,172,228553,1,0
252,100,228733,1,8
332,144,228914,2,0,B|352:104|408:92,1,82.4999975413085,0|2
412,180,229275,2,0,B|392:220|336:232,1,82.4999975413085,0|8
260,240,229637,6,0,B|96:240,1,164.999995082617,4|0
60,156,230179,1,8
148,184,230360,2,0,B|188:236|160:308|88:316,1,164.999995082617,4|0
44,240,230902,1,8
60,156,231083,6,0,B|156:156,1,82.4999975413085,4|2
148,64,231444,2,0,B|232:112,1,82.4999975413085,0|8
296,56,231806,2,0,B|328:148,1,82.4999975413085,0|8
412,112,232167,2,0,B|392:208,1,82.4999975413085,0|8
328,256,232528,6,0,B|348:308|444:304|460:240,2,164.999995082617,4|4|4
252,204,233432,1,2
284,120,233613,2,0,B|268:76|212:60,2,82.4999975413085,0|8|0
284,120,234155,1,2
344,188,234336,1,0
344,188,234516,1,8
360,272,234697,1,0
360,272,234878,2,0,B|344:320|292:332,1,82.4999975413085,2|0
80,332,235239,5,8
80,332,235420,2,0,B|108:232,1,82.4999975413085,4|2
228,156,235781,2,0,B|200:256,1,82.4999975413085,4|8
80,136,236143,2,0,B|108:36,1,82.4999975413085,4|2
24,208,236504,5,0
102,253,236685,1,8
172,196,236866,2,0,B|264:196,1,82.4999975413085,0|2
324,136,237227,1,0
324,136,237408,1,8
384,204,237589,1,0
384,204,237769,1,8
380,296,237950,1,0
380,296,238131,2,0,B|356:336|288:344,1,82.4999975413085,8|4
168,216,238492,5,2
168,216,238673,2,0,B|192:176|260:180,2,82.4999975413085,4|8|4
232,296,239215,1,2
160,352,239396,2,0,B|116:344|96:288,1,82.4999975413085,0|8
36,236,239757,2,0,B|28:188|72:152,2,82.4999975413085,0|2|0
40,68,240300,5,8
120,112,240480,1,0
200,68,240661,2,0,B|304:32|352:140,1,164.999995082617,2|8
280,184,241203,2,0,B|236:192|200:152,2,82.4999975413085,4|2|4
368,208,241745,1,8
420,284,241926,6,0,B|396:326|329:323,1,82.4999975413085,4|2
296,247,242287,2,0,B|248:238|207:291,1,82.4999975413085,0|8
168,348,242649,1,0
96,292,242830,2,0,B|72:336|16:332,2,82.4999975413085,12|0|8
68,204,243372,1,0
116,124,243553,2,0,B|80:80,4,41.2499987706542,2|0|0|0|8
208,120,244095,6,0,B|248:32|360:64,2,164.999995082617,4|4|4
260,192,244998,2,0,B|252:236|192:256,1,82.4999975413085,2|0
116,232,245360,1,8
128,320,245541,2,0,B|196:376|304:336,1,164.999995082617
360,292,246083,1,8
360,292,246263,1,0
444,140,246444,6,0,B|400:228,2,82.4999975413085,2|0|8
360,292,246986,2,0,B|268:332|212:232,2,164.999995082617,4|4|4
324,208,247890,1,2
288,124,248071,2,0,B|196:124,1,82.4999975413085,0|8
88,216,248432,2,0,B|176:216,1,82.4999975413085,0|2
224,292,248794,5,0
148,340,248974,1,8
64,304,249155,1,0
88,216,249336,1,2
40,140,249516,2,0,B|56:96|116:80,1,82.4999975413085,0|8
292,80,249878,6,0,B|296:144|220:176|172:140,2,164.999995082617,4|4|4
208,52,250781,1,2
208,52,250962,2,0,B|300:52,1,82.4999975413085,0|8
416,148,251324,2,0,B|252:148,1,164.999995082617
200,224,251866,1,8
248,300,252047,1,0
180,360,252227,6,0,B|240:296|336:336,1,164.999995082617,2|8
376,256,252769,2,0,B|416:280|464:264,1,82.4999975413085,4|2
336,176,253131,2,0,B|296:152|248:168,1,82.4999975413085,0|8
176,204,253492,1,0
96,160,253673,6,0,B|64:192|64:244,1,82.4999975413085
128,368,254034,2,0,B|160:336|160:284,1,82.4999975413085,8|0
176,204,254396,2,0,B|200:168|244:156,1,82.4999975413085,2|0
288,236,254757,2,0,B|316:272|372:272,2,82.4999975413085,8|0|2
392,140,255480,5,0
312,100,255661,1,0
242,157,255842,1,4
256,192,256022,12,0,258733
