osu file format v12

[General]
AudioFilename: Hero no Jouken.mp3
AudioLeadIn: 0
PreviewTime: 63197
Countdown: 0
SampleSet: Soft
StackLeniency: 0.7
Mode: 0
LetterboxInBreaks: 0
EpilepsyWarning: 1
WidescreenStoryboard: 0

[Editor]
Bookmarks: 89532
DistanceSpacing: 1.3
BeatDivisor: 4
GridSize: 4

[Metadata]
Title:Hero no Jouken
TitleUnicode:Heroの条件
Artist:yanaginagi
ArtistUnicode:やなぎなぎ
Creator:Heanday
Version:Hero
Source:
Tags:-Umi- Lanturn Maeda Jun Flaming June Owari no hoshi no love song
BeatmapID:259463
BeatmapSetID:96917

[Difficulty]
HPDrainRate:6
CircleSize:4
OverallDifficulty:6
ApproachRate:8
SliderMultiplier:1.6
SliderTickRate:1

[Events]
//Background and Video events
0,0,"hero no jouken BG x.jpg",0,0
//Break Periods
2,173802,185312
//Storyboard Layer 0 (Background)
//Storyboard Layer 1 (Fail)
//Storyboard Layer 2 (Pass)
//Storyboard Layer 3 (Foreground)
//Storyboard Sound Samples
//Background Colour Transformations
3,100,163,162,255

[TimingPoints]
258,483.870967741935,4,2,1,50,1,0
15741,-100,4,2,2,70,0,0
15983,-100,4,2,1,60,0,0
17677,-100,4,2,1,49,0,0
18645,-100,4,2,2,69,0,0
18887,-100,4,2,1,49,0,0
19612,-100,4,2,1,55,0,0
22032,-100,4,2,1,45,0,0
22274,-100,4,2,1,55,0,0
24451,-100,4,2,2,65,0,0
24693,-100,4,2,1,45,0,0
25419,-100,4,2,2,49,0,0
25661,-100,4,2,1,59,0,0
27596,-100,4,2,4,39,0,0
28322,-200,4,2,2,49,0,0
29290,-100,4,2,1,48,0,0
30499,-100,4,2,1,28,0,0
31225,-100,4,2,2,58,0,0
31467,-100,4,2,1,48,0,0
32193,-100,4,2,2,48,0,0
32435,-100,4,2,1,51,0,0
33161,-100,4,2,2,48,0,0
33645,-100,4,2,1,48,0,0
35096,-100,4,2,0,38,0,0
36790,-100,4,2,4,45,0,0
37516,-100,4,2,1,45,0,0
39935,-100,4,2,2,45,0,0
40177,-100,4,2,1,45,0,0
40903,-100,4,2,2,15,0,0
41145,-100,4,2,1,45,0,0
42354,-100,4,2,4,25,0,0
42838,-100,4,2,2,45,0,0
43080,-100,4,2,2,35,0,0
43806,-100,4,2,2,55,0,0
44048,-100,4,2,1,45,0,0
45741,-100,4,2,2,55,0,0
45983,-100,4,2,1,40,0,0
47677,-100,4,2,2,60,0,0
47919,-100,4,2,2,35,0,0
50338,-100,4,2,2,45,0,0
50580,-100,4,2,2,50,0,0
50822,-100,4,2,2,55,0,0
51064,-100,4,2,2,60,0,0
51548,483.870967741935,3,2,1,50,1,0
51548,-100,3,2,3,90,0,0
52031,-100,3,2,2,60,0,0
52999,-100,3,2,2,80,0,0
53483,-100,3,2,2,60,0,0
54451,-100,3,2,1,50,0,0
54693,-100,3,2,1,40,0,0
55902,-100,3,2,1,60,0,0
56386,-100,3,2,1,50,0,0
57354,-100,3,2,3,80,0,0
57596,-100,3,2,2,50,0,0
58080,-100,3,2,1,65,0,0
59289,-100,3,2,2,60,0,0
59652,-100,3,2,1,55,0,0
59894,-100,3,2,2,60,0,0
60136,-100,3,2,2,65,0,0
60620,-100,3,2,2,70,0,0
61588,-100,3,2,2,75,0,0
62314,-100,3,2,2,80,0,0
62556,-100,3,2,2,90,0,0
63160,483.870967741935,4,2,1,50,1,0
63160,-83.3333333333333,4,2,3,90,0,1
70176,-83.3333333333333,4,2,3,30,0,1
70297,-83.3333333333333,4,2,3,60,0,1
70418,-83.3333333333333,4,2,3,90,0,1
77071,-83.3333333333333,4,2,3,40,0,1
77192,-83.3333333333333,4,2,3,90,0,1
78401,-83.3333333333333,4,2,3,100,0,1
78643,-83.3333333333333,4,2,3,90,0,1
94127,-83.3333333333333,4,2,2,60,0,0
96063,-100,4,2,1,45,0,0
97030,-100,4,2,2,65,0,0
97514,-100,4,2,1,45,0,0
102837,-100,4,2,2,55,0,0
103079,-100,4,2,1,35,0,0
103805,-100,4,2,2,55,0,0
104047,-100,4,2,1,35,0,0
105740,-100,4,2,1,40,0,0
105982,-100,4,2,4,30,0,0
106345,-100,4,2,4,20,0,0
106708,-200,4,2,2,55,0,0
107676,-100,4,2,1,55,0,0
109611,-100,4,2,2,55,0,0
109853,-100,4,2,1,55,0,0
110458,-100,4,2,2,60,0,0
110821,-100,4,2,2,55,0,0
113482,-100,4,2,2,25,0,0
114934,-100,4,2,4,55,0,0
115901,-100,4,2,4,44,0,0
116143,-100,4,2,1,54,0,0
116385,-100,4,2,0,64,0,0
116627,-100,4,2,1,74,0,0
117353,-100,4,2,4,84,0,0
117595,-100,4,2,1,74,0,0
118321,-100,4,2,0,84,0,0
118563,-100,4,2,1,54,0,0
119289,-100,4,2,2,74,0,0
119530,-100,4,2,1,44,0,0
120256,-100,4,2,3,24,0,0
120498,-100,4,2,4,13,0,0
121224,-100,4,2,2,43,0,0
121466,-100,4,2,1,44,0,0
122192,-100,4,2,2,44,0,0
124127,-100,4,2,2,64,0,0
124369,-100,4,2,2,44,0,0
126063,-100,4,2,2,54,0,0
126547,-100,4,2,2,44,0,0
129934,483.870967741935,3,2,1,50,1,0
129934,-100,3,2,3,64,0,0
130175,-100,3,2,1,64,0,0
132837,-100,3,2,1,34,0,0
133079,-100,3,2,1,64,0,0
134288,-100,3,2,1,54,0,0
135740,-100,3,2,3,94,0,0
135982,-100,3,2,1,64,0,0
136950,-100,3,2,1,64,0,0
137192,-100,3,2,1,74,0,0
137434,-100,3,2,1,64,0,0
137917,-100,3,2,1,84,0,0
138159,-100,3,2,1,94,0,0
138401,-100,3,2,2,55,0,0
138885,-100,3,2,2,60,0,0
139369,-100,3,2,2,65,0,0
139853,-100,3,2,2,70,0,0
140095,-100,3,2,2,100,0,0
140337,-100,3,2,2,85,0,0
140821,-100,3,2,2,95,0,0
141546,483.870967741935,4,2,1,50,1,0
141546,-83.3333333333333,4,2,3,90,0,1
172513,-83.3333333333333,4,2,3,50,0,1
173239,-100,4,2,3,50,0,1
173602,-100,4,2,3,100,0,0
186062,-100,4,2,1,5,0,0
187997,-100,4,2,3,85,0,0
188239,-100,4,2,1,30,0,0
189691,-100,4,2,4,40,0,0
189933,-100,4,2,4,10,0,0
190416,-200,4,2,2,40,0,0
192110,-100,4,2,2,10,0,0
192594,-200,4,2,2,40,0,0
194287,-200,4,2,2,20,0,0
194771,-200,4,2,2,50,0,0
195013,-200,4,2,2,35,0,0
195255,-200,4,2,2,60,0,0
195497,-200,4,2,2,36,0,0
195739,-100,4,2,1,50,0,0
195981,-133.333333333333,4,2,2,50,0,0
196707,-133.333333333333,4,2,2,35,0,0
197433,-133.333333333333,4,2,4,30,0,0
197675,-133.333333333333,4,2,2,40,0,0
198400,-133.333333333333,4,2,4,30,0,0
198642,-133.333333333333,4,2,2,30,0,0
199610,-133.333333333333,4,2,2,50,0,0
200336,-133.333333333333,4,2,2,45,0,0
201545,-133.333333333333,4,2,2,50,0,0
203481,-200,4,2,3,70,0,0
203723,-100,4,2,1,60,0,0
203965,-100,4,2,1,60,0,0
206626,-100,4,2,1,30,0,0
206868,-100,4,2,1,60,0,0
211223,-100,4,2,4,60,0,0
211465,-100,4,2,1,70,0,0
211707,-100,4,2,4,60,0,0
211949,-100,4,2,1,80,0,0
212191,-100,4,2,4,60,0,0
212433,-100,4,2,1,70,0,0
213158,-100,4,2,1,40,0,0
213400,-100,4,2,1,70,0,0
214126,-100,4,2,1,40,0,0
214368,-100,4,2,1,70,0,0
215094,-100,4,2,2,60,0,0
217029,-100,4,2,3,90,0,0
217997,-100,4,2,3,15,0,0
218239,-100,4,2,3,35,0,0
218481,-100,4,2,3,55,0,0
218723,-100,4,2,3,75,0,0
218965,-83.3333333333333,4,2,3,90,0,1
247755,-83.3333333333333,4,2,3,80,0,1
249933,-83.3333333333333,4,2,3,5,0,1
250900,-83.3333333333333,4,2,3,15,0,1
251142,-83.3333333333333,4,2,3,35,0,1
251384,-83.3333333333333,4,2,3,55,0,1
251626,-83.3333333333333,4,2,3,75,0,1
251868,-83.3333333333333,4,2,3,85,0,0

[Colours]
Combo1 : 157,157,255
Combo2 : 255,143,32
Combo3 : 255,106,255
Combo4 : 176,176,176
Combo5 : 173,10,71
Combo6 : 33,163,36

[HitObjects]
184,64,15741,70,0,P|224:56|272:72,1,80,12|0,0:0|0:0,0:0:0:0:
212,188,16225,2,0,P|172:196|124:172,1,80
72,96,16709,1,8,0:0:0:0:
72,96,17677,53,2,0:0:0:0:
88,176,17919,1,0,0:0:0:0:
152,128,18161,1,0,0:0:0:0:
88,176,18403,1,0,0:0:0:0:
79,256,18645,21,4,0:0:0:0:
140,306,18887,1,0,0:0:0:0:
216,328,19128,1,2,0:0:0:0:
295,320,19370,1,0,0:0:0:0:
296,320,19612,1,8,0:0:0:0:
424,80,20580,53,8,0:0:0:0:
192,144,21306,21,0,0:0:0:0:
116,116,21548,2,0,P|124:188|208:220,1,160,2|8,0:0|0:0,0:0:0:0:
256,280,22274,1,0,0:0:0:0:
324,240,22516,1,2,0:0:0:0:
348,164,22757,2,0,L|356:76,2,80
324,240,23483,2,0,P|252:272|180:224,2,160,8|0|8,0:0|0:0|0:0,0:0:0:0:
348,164,24693,53,0,0:0:0:0:
324,240,24935,1,0,0:0:0:0:
440,184,25177,2,0,P|444:148|432:104,1,80,0|4,0:0|0:0,0:0:0:0:
348,164,25661,1,0,0:0:0:0:
324,240,25903,1,2,0:0:0:0:
376,304,26145,1,0,0:0:0:0:
448,268,26387,1,2,0:0:0:0:
148,232,27354,21,8,0:0:0:0:
133,153,27596,1,2,0:0:0:0:
176,84,27838,1,4,0:0:0:0:
248,48,28080,1,2,0:0:0:0:
273,126,28322,6,0,P|215:169|127:148,1,160,10|8,0:0|0:0,0:0:0:0:
176,84,29532,38,0,P|188:48|218:17,1,80,0|2,0:0|0:0,0:0:0:0:
273,126,30016,2,0,P|264:149|226:187,1,80,0|8,0:0|0:0,0:0:0:0:
273,126,30499,2,0,P|193:102|118:139,1,160
104,208,31225,1,12,0:0:0:0:
128,284,31467,1,0,0:0:0:0:
128,284,31709,2,0,P|196:316|272:284,1,160,0|12,0:0|0:0,0:0:0:0:
332,236,32435,1,0,0:0:0:0:
388,180,32677,2,0,P|416:120|384:36,2,160,0|12|0,0:0|0:0|0:0,0:0:0:0:
332,236,33887,21,0,0:0:0:0:
356,312,34128,2,0,P|392:292|404:244,1,80,8|2,0:0|0:0,0:0:0:0:
332,236,34612,1,2,0:0:0:0:
272,296,34854,1,0,0:0:0:0:
356,312,35096,1,2,0:0:0:0:
88,143,36790,53,0,0:0:0:0:
73,162,36911,1,0,0:0:0:0:
64,180,37032,2,0,P|96:244|177:242,1,160,6|2,0:0|0:0,0:0:0:0:
268,200,37757,1,0,0:0:0:0:
176,244,37999,1,2,0:0:0:0:
268,296,38241,1,0,0:0:0:0:
176,244,38483,1,8,0:0:0:0:
268,200,38725,1,0,0:0:0:0:
180,148,38967,1,10,0:0:0:0:
312,68,39209,22,0,L|412:68,1,80,0|2,0:0|0:0,0:0:0:0:
464,144,39693,2,0,L|372:144,1,80,8|12,0:0|0:0,0:0:0:0:
316,16,40177,2,0,L|412:16,1,80,0|0,0:0|0:0,0:0:0:0:
456,188,40661,2,0,L|364:188,1,80,2|12,0:0|0:0,0:0:0:0:
264,184,41145,1,0,0:0:0:0:
172,136,41387,1,8,0:0:0:0:
264,88,41628,1,0,0:0:0:0:
176,236,41870,1,2,0:0:0:0:
424,336,42354,53,2,0:0:0:0:
424,336,42838,21,12,0:0:0:0:
384,268,43080,1,0,0:0:0:0:
332,208,43322,1,2,0:0:0:0:
260,168,43564,1,0,0:0:0:0:
184,148,43806,1,12,0:0:0:0:
72,184,44048,54,0,P|68:224|78:273,1,80
148,228,44532,2,0,P|184:248|240:252,1,80,0|8,0:0|0:0,0:0:0:0:
304,304,45016,2,0,P|232:332|144:312,1,160,0|0,0:0|0:0,0:0:0:0:
60,300,45741,2,0,P|64:260|56:208,1,80,12|0,0:0|0:0,0:0:0:0:
68,140,46225,1,2,0:0:0:0:
4,92,46467,1,0,0:0:0:0:
68,140,46709,2,0,P|144:172|220:148,1,160,8|0,0:0|0:0,0:0:0:0:
256,80,47435,2,0,L|332:36,1,80,0|12,0:0|0:0,0:0:0:0:
368,108,47919,21,0,0:0:0:0:
422,166,48161,1,10,0:0:0:0:
426,245,48403,1,0,0:0:0:0:
379,309,48645,1,10,0:0:0:0:
305,340,48887,1,0,0:0:0:0:
224,316,49128,2,0,P|160:260|184:184,2,160,0|8|2,0:0|0:0|0:0,0:0:0:0:
244,236,50338,53,2,0:0:0:0:
224,316,50580,1,8,0:0:0:0:
148,344,50822,1,0,0:0:0:0:
72,316,51064,1,10,0:0:0:0:
44,240,51306,1,2,0:0:0:0:
151,252,51548,70,0,P|203:208|289:222,1,160,12|0,0:0|0:0,0:0:0:0:
374,280,52273,1,0,0:0:0:0:
396,178,52515,2,0,B|480:142|400:62|484:38,2,160,2|6|2,0:0|0:0|0:0,0:0:0:0:
226,251,53725,2,0,P|260:260|304:252,1,80,0|2,0:0|0:0,0:0:0:0:
107,144,54451,70,0,P|84:108|36:96,1,80,10|0,0:0|0:0,0:0:0:0:
36,200,54935,1,8,0:0:0:0:
72,296,55177,1,0,0:0:0:0:
160,352,55418,2,0,P|232:336|272:264,2,160,8|10|0,0:0|0:0|0:0,0:0:0:0:
72,216,56628,2,0,L|72:304,1,80,0|8,0:0|0:0,0:0:0:0:
256,92,57354,5,12,0:0:0:0:
324,172,57596,1,0,0:0:0:0:
224,200,57838,1,2,0:0:0:0:
168,288,58080,1,10,0:0:0:0:
244,360,58322,2,0,P|304:364|340:352,1,80,10|0,0:0|0:0,0:0:0:0:
356,260,58806,1,10,0:0:0:0:
460,284,59047,1,2,0:0:0:0:
368,180,59289,2,0,P|280:156|220:184,1,160,0|8,0:0|0:0,0:0:0:0:
324,312,60015,69,0,0:0:0:0:
158,231,60257,2,0,P|224:208|308:232,1,160,4|0,0:0|0:0,0:0:0:0:
220,312,60983,1,0,0:0:0:0:
116,312,61225,2,0,L|20:312,1,80,2|0,0:0|0:0,0:0:0:0:
220,312,61709,2,0,P|224:244|154:196,1,160,10|0,0:0|0:0,0:0:0:0:
116,312,62435,1,2,0:0:0:0:
116,312,62677,1,10,0:0:0:0:
232,76,63160,37,12,0:0:0:0:
232,172,63401,2,0,L|232:280,1,95.9999970703126,0|8,0:0|0:0,0:0:0:0:
304,332,63885,2,0,L|304:232,1,95.9999970703126
324,140,64369,1,0,0:0:0:0:
392,72,64611,1,8,0:0:0:0:
432,160,64853,1,0,0:0:0:0:
328,124,65095,37,0,0:0:0:0:
396,56,65337,1,0,0:0:0:0:
444,172,65579,1,8,0:0:0:0:
344,192,65821,2,0,L|144:192,1,191.999994140625,0|0,0:0|0:0,0:0:0:0:
160,112,66547,1,8,0:0:0:0:
160,272,66789,1,0,0:0:0:0:
212,340,67030,38,0,P|260:348|312:336,1,95.9999970703126
276,248,67514,2,0,P|186:220|96:258,2,191.999994140625,8|0|8,0:0|0:0|0:0,0:0:0:0:
344,180,68724,1,0,0:0:0:0:
276,248,68966,1,8,0:0:0:0:
204,312,69208,2,0,L|164:348,2,47.9999985351563,0|0|8,0:0|0:0|0:0,0:0:0:0:
276,248,69692,69,0,0:0:0:0:
344,180,69934,1,8,0:0:0:0:
468,232,70176,1,8,0:0:0:0:
468,232,70297,1,8,0:0:0:0:
468,232,70418,2,0,P|478:272|458:320,1,95.9999970703126,8|0,0:0|0:0,0:0:0:0:
392,271,70901,38,0,P|380:232|400:184,1,95.9999970703126,12|0,0:0|0:0,0:0:0:0:
384,88,71385,1,8,0:0:0:0:
312,152,71627,1,0,0:0:0:0:
240,216,71869,2,0,L|167:286,1,95.9999970703126
51,228,72353,38,0,L|131:156,1,95.9999970703126,8|0,0:0|0:0,0:0:0:0:
137,68,72837,1,0,0:0:0:0:
123,163,73079,1,0,0:0:0:0:
180,239,73321,1,8,0:0:0:0:
247,307,73563,2,0,P|337:347|432:298,1,191.999994140625
396,219,74289,37,8,0:0:0:0:
419,125,74530,1,0,0:0:0:0:
301,187,74772,1,8,0:0:0:0:
324,92,75014,1,0,0:0:0:0:
418,125,75256,2,0,P|449:207|385:284,1,191.999994140625,8|0,0:0|0:0,0:0:0:0:
269,247,75982,1,0,0:0:0:0:
144,255,76224,2,0,B|201:290|194:363|194:363|240:291,1,191.999994140625,8|0,0:0|0:0,0:0:0:0:
232,182,76950,38,0,L|232:135,2,47.9999985351563,0|8|8,0:0|0:0|0:0,0:0:0:0:
229,307,77434,1,8,0:0:0:0:
301,182,77676,2,0,L|301:133,2,47.9999985351563,8|0|0,0:0|0:0|0:0,0:0:0:0:
302,208,78039,1,8,0:0:0:0:
302,229,78159,1,8,0:0:0:0:
438,275,78401,5,12,0:0:0:0:
472,185,78643,1,12,0:0:0:0:
459,280,78885,1,0,0:0:0:0:
371,241,79127,1,8,0:0:0:0:
491,207,79369,1,0,0:0:0:0:
457,327,79611,2,0,P|365:349|271:323,1,191.999994140625,0|8,0:0|0:0,0:0:0:0:
348,224,80337,2,0,P|362:170|350:116,2,95.9999970703126
256,248,81063,1,8,0:0:0:0:
178,328,81305,38,0,P|86:294|78:200,1,191.999994140625,0|0,0:0|0:0,0:0:0:0:
0,240,82030,1,8,0:0:0:0:
140,240,82272,1,0,0:0:0:0:
0,240,82514,1,0,0:0:0:0:
140,240,82756,1,0,0:0:0:0:
193,124,82998,38,0,L|195:14,1,95.9999970703126,8|0,0:0|0:0,0:0:0:0:
85,65,83482,2,0,L|83:167,1,95.9999970703126
25,261,83966,1,8,0:0:0:0:
137,286,84208,1,0,0:0:0:0:
244,244,84450,1,8,0:0:0:0:
332,320,84692,70,0,L|369:352,2,47.9999985351563,0|0|8,0:0|0:0|0:0,0:0:0:0:
244,244,85176,1,8,0:0:0:0:
304,181,85418,1,8,0:0:0:0:
326,163,85539,1,0,0:0:0:0:
347,144,85659,1,0,0:0:0:0:
367,123,85780,1,0,0:0:0:0:
388,103,85901,2,0,B|420:59|357:18|357:18|257:26,1,191.999994140625,8|12,0:0|0:0,0:0:0:0:
252,120,86627,70,0,P|201:129|151:105,1,95.9999970703126,0|8,0:0|0:0,0:0:0:0:
208,44,87111,2,0,P|245:118|173:186,1,191.999994140625
88,213,87837,1,8,0:0:0:0:
39,129,88079,1,0,0:0:0:0:
129,96,88321,1,0,0:0:0:0:
177,185,88563,1,0,0:0:0:0:
89,212,88805,1,8,0:0:0:0:
32,293,89047,2,0,P|105:339|201:294,1,191.999994140625,0|0,0:0|0:0,0:0:0:0:
177,185,89772,1,8,0:0:0:0:
362,293,90014,54,0,P|393:220|379:186,1,95.9999970703126
259,241,90498,1,0,0:0:0:0:
390,208,90740,2,0,B|324:174|302:111|302:111|282:195,1,191.999994140625,8|0,0:0|0:0,0:0:0:0:
228,308,91466,2,0,P|285:311|315:288,1,95.9999970703126,0|8,0:0|0:0,0:0:0:0:
289,166,91950,1,0,0:0:0:0:
164,172,92192,1,12,0:0:0:0:
68,89,92434,6,0,L|28:47,2,47.9999985351563,0|8|8,0:0|0:0|0:0,0:0:0:0:
164,172,92918,1,4,0:0:0:0:
289,166,93159,2,0,L|324:133,4,47.9999985351563,8|8|0|8|8,0:0|0:0|0:0|0:0|0:0,0:0:0:0:
211,310,93885,1,8,0:0:0:0:
49,297,94127,69,12,0:0:0:0:
24,220,94369,1,0,0:0:0:0:
44,144,94611,1,0,0:0:0:0:
96,80,94853,1,0,0:0:0:0:
172,56,95095,1,2,0:0:0:0:
226,308,96063,37,10,0:0:0:0:
299,276,96305,1,0,0:0:0:0:
363,228,96547,1,2,0:0:0:0:
356,148,96789,1,0,0:0:0:0:
344,68,97030,38,0,P|289:96|289:192,1,160,6|0,0:0|0:0,0:0:0:0:
356,148,97756,1,0,0:0:0:0:
355,149,97998,1,2,0:0:0:0:
356,148,98966,69,8,0:0:0:0:
312,254,99692,2,0,P|273:269|237:261,1,80,0|8,0:0|0:0,0:0:0:0:
268,188,100176,2,0,P|308:252|260:324,1,160
192,312,100901,1,0,0:0:0:0:
112,248,101143,1,0,0:0:0:0:
192,184,101385,1,2,0:0:0:0:
180,288,101627,1,0,0:0:0:0:
104,216,101869,1,8,0:0:0:0:
121,118,102111,54,0,P|193:86|262:127,1,160
351,187,102837,1,12,0:0:0:0:
416,52,103079,2,0,P|388:64|360:104,2,80
492,136,103805,2,0,P|476:172|432:192,1,80,2|0,0:0|0:0,0:0:0:0:
287,240,104289,1,8,0:0:0:0:
352,188,104530,1,0,0:0:0:0:
308,320,104772,1,10,0:0:0:0:
256,28,105740,21,8,0:0:0:0:
176,44,105982,1,2,0:0:0:0:
140,116,106224,1,4,0:0:0:0:
184,184,106466,1,2,0:0:0:0:
236,252,106708,6,0,P|156:260|104:200,1,160,0|8,0:0|0:0,0:0:0:0:
156,132,107918,69,0,0:0:0:0:
232,172,108159,1,0,0:0:0:0:
236,252,108401,1,2,0:0:0:0:
188,316,108643,1,2,0:0:0:0:
120,276,108885,54,0,B|120:200|36:192|48:120,1,160
96,76,109611,1,6,0:0:0:0:
48,138,109853,1,0,0:0:0:0:
12,212,110095,1,0,0:0:0:0:
44,288,110337,1,0,0:0:0:0:
108,340,110579,1,12,0:0:0:0:
211,336,110821,21,0,0:0:0:0:
175,264,111063,1,0,0:0:0:0:
242,221,111305,1,0,0:0:0:0:
184,165,111547,1,12,0:0:0:0:
271,134,111789,2,0,P|295:98|343:70,2,80
328,192,112514,2,0,P|324:240|296:276,1,80,12|0,0:0|0:0,0:0:0:0:
188,320,112998,2,0,P|208:272|228:252,1,80
328,192,113482,1,2,0:0:0:0:
40,264,115176,53,0,0:0:0:0:
48,284,115297,1,0,0:0:0:0:
56,304,115418,2,0,P|136:324|208:303,1,160,4|12,0:0|0:0,0:0:0:0:
180,228,116143,53,0,0:0:0:0:
208,304,116385,1,6,0:0:0:0:
180,228,116627,1,0,0:0:0:0:
224,160,116869,1,2,0:0:0:0:
168,100,117111,1,0,0:0:0:0:
296,304,117353,5,6,0:0:0:0:
268,228,117595,1,0,0:0:0:0:
308,160,117837,1,2,0:0:0:0:
268,92,118079,1,0,0:0:0:0:
384,304,118321,21,4,0:0:0:0:
356,228,118563,1,0,0:0:0:0:
396,160,118805,1,2,0:0:0:0:
360,88,119047,1,0,0:0:0:0:
204,128,119289,69,12,0:0:0:0:
48,156,119530,2,0,P|40:124|48:76,1,80,0|8,0:0|0:0,0:0:0:0:
204,128,120014,2,0,P|212:168|204:220,1,80,0|2,0:0|0:0,0:0:0:0:
196,284,120498,2,0,P|260:264|288:176,1,160,0|0,0:0|0:0,0:0:0:0:
404,80,121224,21,12,0:0:0:0:
432,156,121466,1,0,0:0:0:0:
416,236,121708,1,2,0:0:0:0:
368,300,121950,1,2,0:0:0:0:
292,320,122192,1,12,0:0:0:0:
216,300,122434,1,4,0:0:0:0:
140,208,122676,2,0,P|124:152|136:112,1,80,6|0,0:0|0:0,0:0:0:0:
284,80,123159,53,2,0:0:0:0:
357,150,123401,2,0,P|280:180|212:152,1,160
284,80,124127,1,12,0:0:0:0:
408,84,124369,2,0,P|440:160|380:224,1,160
292,272,125095,1,2,0:0:0:0:
220,236,125337,1,0,0:0:0:0:
160,184,125579,1,2,0:0:0:0:
144,104,125821,21,8,0:0:0:0:
168,28,126063,2,0,P|84:44|60:116,1,160,12|0,0:0|0:0,0:0:0:0:
56,192,126789,1,0,0:0:0:0:
116,244,127030,1,2,0:0:0:0:
268,292,127514,2,0,P|308:300|364:288,2,80,2|0|2,0:0|0:0|0:0,0:0:0:0:
404,96,128482,53,8,0:0:0:0:
336,56,128724,1,0,0:0:0:0:
276,108,128966,1,10,0:0:0:0:
380,100,129208,5,2,0:0:0:0:
308,28,129450,1,10,0:0:0:0:
232,100,129692,1,6,0:0:0:0:
80,148,129934,53,12,0:0:0:0:
144,196,130175,1,2,0:0:0:0:
156,276,130417,1,8,0:0:0:0:
223,318,130659,1,2,0:0:0:0:
156,368,130901,2,0,P|76:324|76:256,1,160,8|8,0:0|0:0,0:0:0:0:
192,208,131627,2,0,P|180:248|155:277,1,80,0|0,0:0|0:0,0:0:0:0:
204,124,132111,2,0,P|217:88|252:52,1,80,0|8,0:0|0:0,0:0:0:0:
18,276,132837,69,8,0:0:0:0:
64,340,133079,1,0,0:0:0:0:
141,364,133321,1,2,0:0:0:0:
215,334,133563,1,0,0:0:0:0:
316,326,133804,2,0,P|280:254|208:238,1,160,8|10,0:0|0:0,0:0:0:0:
215,334,134530,2,0,L|347:226,1,160,2|2,0:0|0:0,0:0:0:0:
215,334,135256,1,10,0:0:0:0:
316,68,135740,38,0,P|272:60|220:68,1,80,12|0,0:0|0:0,0:0:0:0:
172,148,136224,2,0,P|208:156|260:148,1,80,8|0,0:0|0:0,0:0:0:0:
354,149,136708,1,8,0:0:0:0:
252,150,136950,1,10,0:0:0:0:
316,68,137192,1,12,0:0:0:0:
252,149,137434,1,2,0:0:0:0:
264,252,137675,1,8,0:0:0:0:
172,300,137917,1,10,0:0:0:0:
256,364,138159,1,14,0:0:0:0:
348,244,138401,54,0,L|408:184,1,80,0|10,0:0|0:0,0:0:0:0:
344,64,138885,2,0,L|284:124,1,80,0|0,0:0|0:0,0:0:0:0:
144,184,139369,2,0,L|208:252,1,80,0|2,0:0|0:0,0:0:0:0:
152,384,139853,70,8,L|95:327,1,80,0|12,0:0|0:0,0:0:0:0:
56,136,140337,2,0,L|80:60,1,80,0|0,0:0|0:0,0:0:0:0:
260,136,140821,2,0,L|232:48,1,80,0|6,0:0|0:0,0:0:0:0:
92,328,141546,69,12,0:0:0:0:
32,256,141787,1,0,0:0:0:0:
92,328,142029,2,0,P|184:352|280:320,1,191.999994140625,8|0,0:0|0:0,0:0:0:0:
348,260,142755,1,0,0:0:0:0:
284,152,142997,1,8,0:0:0:0:
216,256,143239,1,0,0:0:0:0:
348,260,143481,2,0,P|388:184|492:184,1,191.999994140625,0|8,0:0|0:0,0:0:0:0:
348,260,144207,38,0,L|240:260,1,95.9999970703126
80,188,144691,2,0,L|184:188,1,95.9999970703126,0|8,0:0|0:0,0:0:0:0:
272,108,145175,1,0,0:0:0:0:
364,24,145416,1,0,0:0:0:0:
272,108,145658,2,0,L|160:108,1,95.9999970703126,0|8,0:0|0:0,0:0:0:0:
68,44,146142,1,0,0:0:0:0:
56,168,146384,2,0,P|104:244|208:244,2,191.999994140625,0|8|0,0:0|0:0|0:0,0:0:0:0:
144,80,147594,38,0,L|144:24,2,47.9999985351563,0|0|8,0:0|0:0|0:0,0:0:0:0:
224,176,148078,1,0,0:0:0:0:
308,268,148320,1,8,0:0:0:0:
324,288,148441,1,8,0:0:0:0:
340,304,148562,1,0,0:0:0:0:
360,320,148683,1,8,0:0:0:0:
376,336,148804,2,0,P|432:260|408:172,1,191.999994140625,8|12,0:0|0:0,0:0:0:0:
340,200,149529,69,0,0:0:0:0:
408,352,149771,2,0,P|464:276|440:188,1,191.999994140625,8|0,0:0|0:0,0:0:0:0:
340,200,150497,2,0,L|340:96,1,95.9999970703126,0|8,0:0|0:0,0:0:0:0:
240,280,150981,1,0,0:0:0:0:
304,184,151223,2,0,L|304:88,1,95.9999970703126
216,256,151707,1,8,0:0:0:0:
272,168,151949,2,0,L|272:72,1,95.9999970703126
196,160,152433,37,0,0:0:0:0:
352,160,152675,1,8,0:0:0:0:
196,160,152916,1,0,0:0:0:0:
352,160,153158,1,8,0:0:0:0:
264,248,153400,2,0,L|176:300,1,95.9999970703126,0|8,0:0|0:0,0:0:0:0:
196,160,153884,1,0,0:0:0:0:
272,280,154126,2,0,L|180:336,1,95.9999970703126
224,188,154610,1,8,0:0:0:0:
280,312,154852,2,0,L|200:368,1,95.9999970703126
156,196,155336,54,0,L|156:244,2,47.9999985351563,0|0|8,0:0|0:0|0:0,0:0:0:0:
218,87,155820,1,0,0:0:0:0:
287,190,156062,1,8,0:0:0:0:
286,223,156183,1,8,0:0:0:0:
291,256,156304,1,0,0:0:0:0:
307,285,156425,1,0,0:0:0:0:
331,308,156545,1,8,0:0:0:0:
436,240,156787,1,8,0:0:0:0:
436,116,157029,5,12,0:0:0:0:
336,44,157271,1,0,0:0:0:0:
436,116,157513,2,0,P|448:196|356:236,1,191.999994140625,8|0,0:0|0:0,0:0:0:0:
392,352,158239,1,0,0:0:0:0:
292,276,158481,1,8,0:0:0:0:
192,352,158723,1,0,0:0:0:0:
160,164,158965,5,0,0:0:0:0:
112,280,159207,1,0,0:0:0:0:
24,192,159449,1,8,0:0:0:0:
112,280,159691,2,0,P|200:324|282:271,1,191.999994140625
508,248,160416,6,0,L|508:116,1,95.9999970703126,8|0,0:0|0:0,0:0:0:0:
428,36,160900,2,0,L|428:144,1,95.9999970703126,8|0,0:0|0:0,0:0:0:0:
344,248,161384,2,0,L|344:152,1,95.9999970703126,8|0,0:0|0:0,0:0:0:0:
256,40,161868,2,0,L|256:148,1,95.9999970703126
256,260,162352,1,8,0:0:0:0:
168,172,162594,1,0,0:0:0:0:
256,260,162836,54,0,P|160:296|76:256,1,191.999994140625,0|8,0:0|0:0,0:0:0:0:
168,172,163562,1,0,0:0:0:0:
136,52,163804,1,8,0:0:0:0:
104,52,163925,1,8,0:0:0:0:
72,64,164045,1,0,0:0:0:0:
52,92,164166,1,8,0:0:0:0:
48,124,164287,1,8,0:0:0:0:
64,248,164529,1,0,0:0:0:0:
128,320,164771,38,0,P|176:336|228:312,1,95.9999970703126,12|0,0:0|0:0,0:0:0:0:
244,228,165255,1,8,0:0:0:0:
388,352,165497,2,0,P|430:323|448:280,1,95.9999970703126
372,184,165981,1,0,0:0:0:0:
316,72,166223,2,0,P|284:104|276:156,2,95.9999970703126,8|0|0,0:0|0:0|0:0,0:0:0:0:
372,184,166949,37,0,0:0:0:0:
376,280,167191,2,0,P|450:224|448:132,1,191.999994140625,8|0,0:0|0:0,0:0:0:0:
372,184,167916,1,0,0:0:0:0:
376,356,168158,2,0,P|324:340|300:300,1,95.9999970703126,8|0,0:0|0:0,0:0:0:0:
276,212,168642,1,0,0:0:0:0:
152,196,168884,1,0,0:0:0:0:
236,104,169126,1,8,0:0:0:0:
164,280,169368,2,0,P|88:248|84:144,1,191.999994140625
240,256,170094,2,0,P|244:300|208:352,2,95.9999970703126,8|0|0,0:0|0:0|0:0,0:0:0:0:
240,160,170820,5,0,0:0:0:0:
240,160,170941,1,0,0:0:0:0:
240,160,171062,1,8,0:0:0:0:
356,48,171304,1,0,0:0:0:0:
240,160,171545,5,8,0:0:0:0:
248,192,171666,1,0,0:0:0:0:
268,220,171787,1,0,0:0:0:0:
296,236,171908,1,0,0:0:0:0:
328,244,172029,2,0,L|376:248,3,47.9999985351563,8|0|0|0,0:0|0:0|0:0|0:0,0:0:0:0:
420,316,172513,53,10,0:0:0:0:
356,48,172876,5,10,0:0:0:0:
152,56,173239,5,10,0:0:0:0:
420,316,173602,21,12,0:0:0:0:
256,192,186062,12,4,187513,0:0:0:0:
260,192,187997,53,12,0:0:0:0:
352,172,188239,2,0,P|328:112|240:100,2,160,0|0|0,0:0|0:0|0:0,0:0:0:0:
212,224,189691,21,4,0:0:0:0:
200,204,189933,1,4,0:0:0:0:
212,184,190175,1,4,0:0:0:0:
232,172,190416,1,8,0:0:0:0:
256,168,190658,1,0,0:0:0:0:
276,176,190900,2,0,P|316:160|320:124,1,80,10|2,0:0|0:0,0:0:0:0:
308,104,191626,53,0,0:0:0:0:
288,84,191868,1,14,0:0:0:0:
264,80,192110,1,0,0:0:0:0:
240,80,192352,1,0,0:0:0:0:
216,88,192594,2,0,B|168:136|196:200|196:200|224:272|124:328,1,280,0|2,0:0|0:0,0:0:0:0:
104,312,194529,21,0,0:0:0:0:
128,324,194771,1,2,0:0:0:0:
156,332,195013,1,0,0:0:0:0:
184,332,195255,1,2,0:0:0:0:
208,320,195497,1,2,0:0:0:0:
224,204,195739,53,6,0:0:0:0:
244,104,195981,2,0,P|320:116|332:212,1,180.000006866455
336,206,196949,2,0,P|288:250|220:234,1,120.000004577637,0|4,0:0|0:0,0:0:0:0:
220,236,197675,21,0,0:0:0:0:
212,220,197916,1,0,0:0:0:0:
224,204,198158,1,8,0:0:0:0:
236,192,198400,1,4,0:0:0:0:
232,176,198642,1,8,0:0:0:0:
224,160,198884,1,8,0:0:0:0:
232,144,199126,1,8,0:0:0:0:
240,128,199368,2,0,L|316:128,1,60.0000022888184,0|6,0:0|0:0,0:0:0:0:
404,192,199852,2,0,L|328:192,1,60.0000022888184,0|10,0:0|0:0,0:0:0:0:
328,204,200336,53,0,0:0:0:0:
316,220,200578,1,10,0:0:0:0:
308,240,200820,1,0,0:0:0:0:
316,260,201062,1,10,0:0:0:0:
328,276,201304,1,0,0:0:0:0:
340,292,201545,22,0,P|392:284|408:216,1,120.000004577637,14|0,0:0|0:0,0:0:0:0:
270,160,202513,54,0,P|314:264|414:224,1,240.000009155274,14|12,0:0|0:0,0:0:0:0:
388,116,203723,6,0,P|352:80|318:72,1,80,0|2,0:0|0:0,0:0:0:0:
248,88,204207,2,0,P|288:72|329:74,1,80
400,53,204691,2,0,P|364:55|325:73,1,80,8|0,0:0|0:0,0:0:0:0:
267,29,205175,2,0,P|307:42|327:80,1,80,8|0,0:0|0:0,0:0:0:0:
288,144,205658,1,0,0:0:0:0:
245,211,205900,1,2,0:0:0:0:
304,264,206142,1,0,0:0:0:0:
256,328,206384,1,0,0:0:0:0:
171,268,206626,53,4,0:0:0:0:
75,373,206868,1,8,0:0:0:0:
314,278,207352,22,0,L|388:228,1,80,10|0,0:0|0:0,0:0:0:0:
188,284,207836,2,0,L|120:220,1,80,2|0,0:0|0:0,0:0:0:0:
328,188,208320,2,0,L|403:137,1,80,2|0,0:0|0:0,0:0:0:0:
193,189,208804,2,0,L|123:136,1,80,10|0,0:0|0:0,0:0:0:0:
328,100,209287,2,0,L|403:45,1,80,2|0,0:0|0:0,0:0:0:0:
180,92,209771,2,0,L|108:40,1,80,10|0,0:0|0:0,0:0:0:0:
72,127,210255,38,0,P|32:194|74:267,1,160,2|0,0:0|0:0,0:0:0:0:
168,252,210981,1,0,0:0:0:0:
212,184,211223,1,12,0:0:0:0:
292,192,211465,1,0,0:0:0:0:
136,228,211707,5,12,0:0:0:0:
208,156,211949,1,0,0:0:0:0:
312,164,212191,1,12,0:0:0:0:
112,204,212433,21,0,0:0:0:0:
208,120,212675,1,8,0:0:0:0:
336,128,212916,1,0,0:0:0:0:
376,256,213158,53,12,0:0:0:0:
442,156,213400,2,0,L|447:69,1,80
312,204,213884,1,0,0:0:0:0:
412,108,214126,2,0,L|416:28,1,80,4|0,0:0|0:0,0:0:0:0:
416,224,214610,21,0,0:0:0:0:
328,344,214852,2,0,L|241:344,1,80,2|14,0:0|0:0,0:0:0:0:
80,240,215336,2,0,L|182:241,1,80,2|8,0:0|0:0,0:0:0:0:
328,168,215820,2,0,L|244:168,1,80,2|8,0:0|0:0,0:0:0:0:
80,108,216304,2,0,L|178:107,1,80,2|8,0:0|0:0,0:0:0:0:
92,20,216787,1,2,0:0:0:0:
92,192,217029,37,10,0:0:0:0:
256,332,217392,1,10,0:0:0:0:
416,188,217755,1,14,0:0:0:0:
256,192,217997,12,12,218965,0:0:0:0:
308,196,219207,6,0,L|416:196,1,95.9999970703126,0|8,0:0|0:0,0:0:0:0:
212,196,219691,2,0,L|104:196,1,95.9999970703126
104,292,220175,1,0,0:0:0:0:
212,196,220416,2,0,P|236:112|148:56,1,191.999994140625,8|0,0:0|0:0,0:0:0:0:
137,144,221142,1,0,0:0:0:0:
212,196,221384,2,0,L|296:264,1,95.9999970703126,8|0,0:0|0:0,0:0:0:0:
288,256,222110,53,0,0:0:0:0:
376,224,222352,1,8,0:0:0:0:
324,144,222594,1,0,0:0:0:0:
328,280,222836,1,0,0:0:0:0:
400,216,223078,1,0,0:0:0:0:
360,128,223320,53,8,0:0:0:0:
428,196,223562,2,0,P|456:112|388:48,1,191.999994140625,0|0,0:0|0:0,0:0:0:0:
360,72,224166,1,0,0:0:0:0:
336,100,224287,2,0,P|248:132|184:68,1,191.999994140625,8|0,0:0|0:0,0:0:0:0:
88,60,225013,2,0,L|52:16,2,47.9999985351563,0|0|8,0:0|0:0|0:0,0:0:0:0:
144,140,225497,1,0,0:0:0:0:
48,200,225739,69,8,0:0:0:0:
48,200,225860,1,8,0:0:0:0:
48,200,225981,1,0,0:0:0:0:
48,200,226102,1,8,0:0:0:0:
48,200,226223,2,0,B|123:208|162:257|162:257|212:221,1,191.999994140625,8|12,0:0|0:0,0:0:0:0:
272,76,226949,54,0,P|251:119|260:172,1,95.9999970703126,0|8,0:0|0:0,0:0:0:0:
347,251,227433,2,0,P|379:214|380:161,1,95.9999970703126,0|0,0:0|0:0,0:0:0:0:
241,88,227916,2,0,P|220:131|229:184,1,95.9999970703126,0|8,0:0|0:0,0:0:0:0:
378,270,228400,2,0,P|411:229|416:180,1,95.9999970703126,0|8,0:0|0:0,0:0:0:0:
420,70,228884,1,0,0:0:0:0:
421,70,229126,1,8,0:0:0:0:
420,70,229368,38,0,B|379:123|342:92|342:92|345:142|241:105,1,191.999994140625,0|0,0:0|0:0,0:0:0:0:
186,52,230094,1,8,0:0:0:0:
263,113,230336,1,0,0:0:0:0:
218,197,230578,1,8,0:0:0:0:
122,209,230820,1,0,0:0:0:0:
71,127,231062,2,0,P|164:124|220:208,1,191.999994140625,8|0,0:0|0:0,0:0:0:0:
71,127,231787,2,0,L|71:30,2,95.9999970703126,0|8|0,0:0|0:0|0:0,0:0:0:0:
152,178,232513,53,0,0:0:0:0:
223,114,232755,2,0,L|224:53,2,47.9999985351563,0|0|8,0:0|0:0|0:0,0:0:0:0:
295,177,233239,1,0,0:0:0:0:
360,106,233481,2,0,L|360:58,2,47.9999985351563,8|8|0,0:0|0:0|0:0,0:0:0:0:
360,135,233844,1,8,0:0:0:0:
359,163,233965,1,8,0:0:0:0:
450,191,234207,1,8,0:0:0:0:
391,267,234449,70,0,L|284:267,1,95.9999970703126,12|0,0:0|0:0,0:0:0:0:
408,188,234933,1,8,0:0:0:0:
334,306,235175,2,0,L|227:306,1,95.9999970703126
139,197,235658,2,0,L|247:197,1,95.9999970703126,0|8,0:0|0:0,0:0:0:0:
332,96,236142,2,0,L|235:96,1,95.9999970703126
326,190,236626,2,0,L|432:189,1,95.9999970703126,0|8,0:0|0:0,0:0:0:0:
507,304,237110,6,0,L|403:306,1,95.9999970703126
322,267,237594,1,0,0:0:0:0:
228,245,237836,1,8,0:0:0:0:
163,316,238078,1,0,0:0:0:0:
228,245,238320,2,0,P|163:174|74:181,1,191.999994140625,8|8,0:0|0:0,0:0:0:0:
72,276,239045,1,0,0:0:0:0:
74,181,239287,2,0,L|76:72,1,95.9999970703126
232,32,239771,2,0,L|229:143,1,95.9999970703126,8|0,0:0|0:0,0:0:0:0:
324,152,240255,22,0,L|362:187,3,47.9999985351563,8|0|0|0,0:0|0:0|0:0|0:0,0:0:0:0:
332,108,240739,2,0,L|359:48,3,47.9999985351563,8|0|0|0,0:0|0:0|0:0|0:0,0:0:0:0:
332,108,241223,2,0,P|425:101|469:194,1,191.999994140625,12|8,0:0|0:0,0:0:0:0:
460,272,241949,1,0,0:0:0:0:
372,280,242191,22,0,L|296:344,1,95.9999970703126,12|0,0:0|0:0,0:0:0:0:
448,240,242675,1,8,0:0:0:0:
320,280,242916,2,0,L|240:348,1,95.9999970703126
168,288,243400,1,0,0:0:0:0:
72,292,243642,2,0,P|72:208|168:164,1,191.999994140625,8|0,0:0|0:0,0:0:0:0:
168,288,244368,1,0,0:0:0:0:
32,276,244610,2,0,P|32:192|128:148,1,191.999994140625,8|0,0:0|0:0,0:0:0:0:
60,80,245336,5,0,0:0:0:0:
108,220,245578,1,8,0:0:0:0:
108,220,246062,2,0,P|176:248|272:180,1,191.999994140625,0|8,0:0|0:0,0:0:0:0:
176,152,246787,2,0,L|228:344,1,191.999994140625
108,219,247513,1,8,0:0:0:0:
256,192,247755,12,12,249449,0:0:0:0:
256,192,249933,12,12,251868,0:0:0:0:
