osu file format v14

[General]
AudioFilename: same.mp3
AudioLeadIn: 0
PreviewTime: 58761
Countdown: 0
SampleSet: Soft
StackLeniency: 0.4
Mode: 0
LetterboxInBreaks: 0
WidescreenStoryboard: 0

[Editor]
DistanceSpacing: 0.8
BeatDivisor: 4
GridSize: 8
TimelineZoom: 1.9

[Metadata]
Title:Haru Modoki
TitleUnicode:春擬き
Artist:yanaginagi
ArtistUnicode:やなぎなぎ
Creator:handsome
Version:SNAFU
Source:やはり俺の青春ラブコメはまちがっている。続
Tags:Yahari Ore no Seishun Love Comedy wa Machigatteiru Zoku My Teen Romantic SNAFU 2 oregairu opening season romcom too anime harumodoki
BeatmapID:671742
BeatmapSetID:298941

[Difficulty]
HPDrainRate:7.5
CircleSize:4.4
OverallDifficulty:8.5
ApproachRate:9.2
SliderMultiplier:2
SliderTickRate:1

[Events]
//Background and Video events
Video,-185,"omarkamal.avi"
0,0,"NARUTO-IS-MY-FAVOURITE-ANIME.jpg",0,0
//Break Periods
//Storyboard Layer 0 (Background)
//Storyboard Layer 1 (Fail)
//Storyboard Layer 2 (Pass)
//Storyboard Layer 3 (Foreground)
//Storyboard Sound Samples

[TimingPoints]
6434,344.827586206897,4,3,0,50,1,0
7640,-100,4,2,1,60,0,0
8158,-100,4,2,1,40,0,0
10399,-100,4,2,1,60,0,0
10916,-100,4,2,1,40,0,0
13158,-100,4,2,1,60,0,0
13675,-100,4,2,1,40,0,0
15916,-125,4,2,1,60,0,0
16434,-125,4,2,1,40,0,0
18158,-100,4,1,1,40,0,0
18675,-100,4,2,1,50,0,0
29709,-100,4,2,1,60,0,0
40916,-125,4,2,1,40,0,0
51951,-100,4,2,1,60,0,0
54709,-100,4,2,1,40,0,0
57468,-100,4,2,1,55,0,0
58158,-100,4,2,1,65,0,0
60227,-83.3333333333333,4,2,1,60,0,1
71261,-83.3333333333333,4,2,1,70,0,1
76778,-83.3333333333333,4,2,1,60,0,1
81089,-83.3333333333333,4,2,1,30,0,1
81606,-83.3333333333333,4,2,1,50,0,1
81951,-83.3333333333333,4,2,1,70,0,1
82296,-83.3333333333333,4,2,1,60,0,1
85744,-83.3333333333333,4,2,1,75,0,1
86261,-125,4,2,0,50,0,0
86778,-166.666666666667,4,2,0,50,0,0
87468,-166.666666666667,4,2,2,30,0,0

[Colours]
Combo1 : 209,86,89
Combo2 : 139,166,49
Combo3 : 241,146,148
Combo4 : 112,112,112

[HitObjects]
115,217,6434,5,2,0:3:0:0:
167,312,6606,1,0,0:0:0:0:
196,323,6692,1,0,0:0:0:0:
225,326,6778,1,0,0:0:0:0:
255,324,6864,1,0,0:0:0:0:
284,315,6950,1,0,0:0:0:0:
309,299,7037,1,0,0:0:0:0:
334,284,7123,5,8,0:0:0:0:
313,254,7209,1,0,0:0:0:0:
297,220,7296,1,0,0:0:0:0:
287,183,7382,1,0,0:0:0:0:
283,146,7468,1,0,0:0:0:0:
286,109,7554,1,0,0:0:0:0:
295,74,7640,6,0,L|177:84,1,100,4|0,0:0|0:0,0:0:0:0:
0,96,7985,1,8,0:0:0:0:
0,97,8158,1,8,0:0:0:0:
13,105,8244,1,0,0:0:0:0:
26,112,8330,1,0,0:0:0:0:
40,118,8416,1,0,0:0:0:0:
54,122,8502,1,8,0:0:0:0:
69,126,8589,1,0,0:0:0:0:
84,128,8675,1,0,0:0:0:0:
99,130,8761,1,0,0:0:0:0:
114,130,8847,1,8,0:0:0:0:
128,128,8933,1,0,0:0:0:0:
143,126,9020,1,0,0:0:0:0:
158,122,9106,1,0,0:0:0:0:
172,117,9192,5,8,0:0:0:0:
185,111,9278,1,0,0:0:0:0:
199,106,9364,1,0,0:0:0:0:
213,102,9450,1,0,0:0:0:0:
228,99,9537,1,8,0:0:0:0:
243,98,9623,1,0,0:0:0:0:
258,98,9709,1,0,0:0:0:0:
273,99,9795,1,0,0:0:0:0:
288,102,9881,1,8,0:0:0:0:
302,105,9968,1,0,0:0:0:0:
316,110,10054,1,0,0:0:0:0:
330,116,10140,1,0,0:0:0:0:
344,123,10226,1,8,0:0:0:0:
462,262,10399,6,0,L|442:142,1,100,4|0,0:0|0:0,0:0:0:0:
420,13,10744,1,8,0:0:0:0:
420,13,10916,1,8,0:0:0:0:
404,10,11002,1,0,0:0:0:0:
389,10,11088,1,0,0:0:0:0:
374,10,11174,1,0,0:0:0:0:
359,12,11260,1,8,0:0:0:0:
345,16,11347,1,0,0:0:0:0:
331,21,11433,1,0,0:0:0:0:
317,27,11519,1,0,0:0:0:0:
305,36,11605,1,8,0:0:0:0:
293,46,11691,1,0,0:0:0:0:
283,57,11778,1,0,0:0:0:0:
274,67,11864,1,0,0:0:0:0:
265,80,11950,5,8,0:0:0:0:
258,94,12036,1,0,0:0:0:0:
253,107,12122,1,0,0:0:0:0:
249,122,12209,1,0,0:0:0:0:
247,137,12295,1,8,0:0:0:0:
246,152,12381,1,0,0:0:0:0:
247,167,12467,1,0,0:0:0:0:
250,182,12553,1,0,0:0:0:0:
254,197,12640,1,8,0:0:0:0:
259,210,12726,1,0,0:0:0:0:
266,224,12812,1,0,0:0:0:0:
274,236,12898,1,0,0:0:0:0:
283,247,12984,1,8,0:0:0:0:
457,329,13158,6,0,L|328:344,1,100,4|0,0:0|0:0,0:0:0:0:
192,356,13502,1,8,0:0:0:0:
192,356,13675,1,8,0:0:0:0:
182,344,13761,1,0,0:0:0:0:
174,331,13847,1,0,0:0:0:0:
168,317,13933,1,0,0:0:0:0:
164,303,14019,1,8,0:0:0:0:
162,288,14106,1,0,0:0:0:0:
162,273,14192,1,0,0:0:0:0:
163,258,14278,1,0,0:0:0:0:
167,244,14364,1,8,0:0:0:0:
172,230,14450,1,0,0:0:0:0:
180,217,14537,1,0,0:0:0:0:
188,205,14623,1,0,0:0:0:0:
199,194,14709,5,8,0:0:0:0:
211,184,14795,1,0,0:0:0:0:
223,177,14881,1,0,0:0:0:0:
237,171,14968,1,0,0:0:0:0:
252,167,15054,1,8,0:0:0:0:
266,164,15141,1,0,0:0:0:0:
279,165,15227,1,0,0:0:0:0:
290,169,15313,1,0,0:0:0:0:
317,197,15399,5,8,0:0:0:0:
355,185,15485,1,0,0:0:0:0:
384,159,15571,1,8,0:3:0:0:
400,123,15657,1,0,0:0:0:0:
398,83,15743,1,8,0:3:0:0:
380,48,15830,1,0,0:0:0:0:
349,24,15916,6,0,L|164:15,1,160,4|2,0:0|0:0,0:0:0:0:
50,8,16434,1,2,0:0:0:0:
349,24,16778,1,2,0:0:0:0:
50,8,17123,1,2,0:0:0:0:
349,24,17468,1,2,0:0:0:0:
50,8,17813,5,2,0:0:0:0:
195,49,17985,1,0,0:0:0:0:
349,24,18158,1,8,0:0:0:0:
349,24,18330,2,0,B|366:65|339:91|339:91|373:111|385:177|330:176|303:159|332:140,1,200,8|4,0:0|0:0,0:0:0:0:
56,176,19020,5,0,0:0:0:0:
56,176,19192,2,0,L|168:185,1,100,8|0,0:0|0:0,0:0:0:0:
235,346,19537,1,0,0:0:0:0:
339,269,19709,2,0,L|189:257,1,150,8|0,0:3|0:0,0:0:0:0:
189,257,20054,6,0,P|131:236|105:195,1,100,8|0,0:0|0:0,0:0:0:0:
189,83,20399,1,0,0:0:0:0:
275,214,20571,2,0,P|286:273|263:316,1,100,8|0,0:0|0:0,0:0:0:0:
81,357,20916,1,2,0:2:0:0:
81,357,21089,2,0,P|133:380|228:352,1,150,2|0,0:2|0:0,0:0:0:0:
220,358,21434,6,0,L|271:249,1,100,12|0,0:0|0:0,0:0:0:0:
356,110,21778,1,0,0:0:0:0:
453,260,21951,2,0,L|333:270,1,100,8|0,0:0|0:0,0:0:0:0:
275,153,22296,1,0,0:0:0:0:
196,317,22468,2,0,L|183:152,1,150,8|0,0:3|0:0,0:0:0:0:
184,167,22813,6,0,P|163:100|107:59,1,100,8|0,0:0|0:0,0:0:0:0:
0,50,23158,1,0,0:0:0:0:
0,251,23330,2,8,P|67:266|131:239,1,100,8|0,0:0|0:0,0:0:0:0:
234,166,23675,1,2,0:2:0:0:
234,166,23847,2,0,P|219:228|265:301,1,150,2|0,0:2|0:0,0:0:0:0:
261,298,24192,6,0,L|145:327,1,100,12|0,0:0|0:0,0:0:0:0:
0,251,24537,1,0,0:0:0:0:
120,216,24709,2,0,L|236:244,1,100,8|0,0:0|0:0,0:0:0:0:
391,204,25054,1,0,0:0:0:0:
259,329,25227,2,0,L|404:292,1,150,8|0,0:3|0:0,0:0:0:0:
404,292,25571,6,0,P|463:257|482:207,1,100,8|0,0:0|0:0,0:0:0:0:
429,77,25916,1,0,0:0:0:0:
391,204,26089,2,0,P|328:224|283:210,1,100,8|0,0:0|0:0,0:0:0:0:
150,174,26434,1,2,0:2:0:0:
150,174,26606,2,0,P|102:96|160:49,1,150,2|0,0:2|0:0,0:0:0:0:
130,58,26951,6,0,B|15:62,1,100,4|0,0:0|0:0,0:0:0:0:
357,143,29020,5,0,0:0:0:0:
357,143,29106,1,0,0:0:0:0:
357,143,29192,1,8,0:0:0:0:
257,125,29365,2,0,B|234:120|213:99|213:99|194:129|188:169|245:216,1,150,8|0,0:0|0:0,0:0:0:0:
251,215,29709,6,0,L|371:210,1,100,4|0,0:0|0:0,0:0:0:0:
497,207,30054,1,0,0:0:0:0:
328,103,30227,2,0,P|312:161|342:223,1,100,8|0,0:0|0:0,0:0:0:0:
474,171,30571,1,0,0:0:0:0:
354,84,30744,2,0,L|254:88,2,100,0|8|0,0:0|0:0|0:0,0:0:0:0:
487,30,31261,6,0,P|505:89|490:145,1,100,0|0,0:0|0:0,0:0:0:0:
427,236,31606,2,0,P|409:295|424:351,1,100,8|0,0:0|0:0,0:0:0:0:
499,295,31951,1,2,0:2:0:0:
326,356,32123,2,0,L|165:345,1,150,2|0,0:2|0:0,0:0:0:0:
106,343,32468,6,0,P|160:309|172:246,1,100,4|0,0:0|0:0,0:0:0:0:
158,67,32813,1,0,0:0:0:0:
114,142,32985,2,0,L|6:150,1,100,8|0,0:0|0:0,0:0:0:0:
194,204,33330,2,0,L|293:196,1,100,0|0,0:0|0:0,0:0:0:0:
412,311,33675,1,8,0:0:0:0:
269,334,33847,6,0,P|246:261|257:213,1,100,0|0,0:0|0:0,0:0:0:0:
336,164,34192,1,0,0:0:0:0:
143,196,34365,1,8,0:0:0:0:
249,239,34537,1,0,0:0:0:0:
93,58,34709,1,2,0:2:0:0:
328,14,34882,2,0,L|338:197,1,150,2|0,0:2|0:0,0:0:0:0:
355,231,35227,6,0,P|308:216|261:231,1,100,4|0,0:0|0:0,0:0:0:0:
242,334,35571,1,0,0:0:0:0:
162,214,35744,1,8,0:0:0:0:
281,133,35916,1,0,0:0:0:0:
362,253,36089,1,0,0:0:0:0:
168,294,36261,2,0,P|119:306|56:290,1,100,0|8,0:0|0:0,0:0:0:0:
256,106,36606,6,0,L|256:214,1,100,0|0,0:0|0:0,0:0:0:0:
344,294,36951,1,0,0:0:0:0:
344,294,37123,2,0,P|392:306|456:290,1,100,8|0,0:0|0:0,0:0:0:0:
395,203,37468,1,0,0:0:0:0:
321,358,37640,2,0,P|400:374|476:357,1,150,2|0,0:2|0:0,0:0:0:0:
491,337,37985,6,0,P|499:287|477:221,1,100,4|0,0:0|0:0,0:0:0:0:
344,294,38330,1,0,0:0:0:0:
239,295,38502,2,0,L|125:297,1,100,8|0,0:0|0:0,0:0:0:0:
239,295,38847,1,0,0:0:0:0:
39,299,39020,2,0,L|138:297,1,100,0|8,0:0|0:0,0:0:0:0:
373,297,39365,6,0,L|473:299,1,100,0|0,0:0|0:0,0:0:0:0:
293,318,39709,1,0,0:0:0:0:
314,238,39882,2,0,L|310:124,1,100,8|0,0:0|0:0,0:0:0:0:
213,85,40227,5,8,0:3:0:0:
151,106,40342,1,8,0:3:0:0:
100,149,40456,1,4,0:3:0:0:
43,113,40571,1,4,0:3:0:0:
58,48,40686,1,4,0:3:0:0:
124,43,40801,1,4,0:3:0:0:
151,106,40916,6,0,L|163:277,1,160,4|0,0:0|0:0,0:0:0:0:
220,357,41434,1,0,0:0:0:0:
266,265,41606,2,0,L|373:273,1,80,8|0,0:0|0:0,0:0:0:0:
450,299,41951,2,0,L|343:307,1,80,0|0,0:0|0:0,0:0:0:0:
220,357,42296,6,0,L|48:369,1,160,0|0,0:0|0:0,0:0:0:0:
98,216,42813,1,0,0:0:0:0:
0,298,42985,2,0,L|79:292,1,80,8|0,0:0|0:0,0:0:0:0:
220,357,43330,2,0,P|232:318|213:254,1,80,0|0,0:0|0:0,0:0:0:0:
144,230,43675,6,0,L|315:242,1,160,4|0,0:0|0:0,0:0:0:0:
407,310,44192,1,0,0:0:0:0:
512,210,44365,2,0,L|340:222,1,160,8|0,0:0|0:0,0:0:0:0:
299,115,44882,1,0,0:0:0:0:
473,126,45054,6,0,L|460:297,1,160,0|0,0:0|0:0,0:0:0:0:
461,285,45571,1,0,0:0:0:0:
310,280,45744,2,0,P|326:232|366:207,1,80,8|0,0:0|0:0,0:0:0:0:
390,286,46089,2,0,P|423:323|425:370,1,80,8|0,0:3|0:0,0:0:0:0:
344,352,46434,6,0,P|295:359|234:255,1,160,4|0,0:0|0:0,0:0:0:0:
267,203,46951,1,0,0:0:0:0:
198,270,47123,2,0,L|91:262,1,80,8|0,0:0|0:0,0:0:0:0:
14,236,47468,2,0,L|121:228,1,80,0|0,0:0|0:0,0:0:0:0:
267,202,47813,6,0,L|97:191,1,160,0|0,0:0|0:0,0:0:0:0:
44,82,48330,1,0,0:0:0:0:
153,145,48502,2,0,L|323:134,1,160,8|0,0:0|0:0,0:0:0:0:
365,204,49020,1,0,0:0:0:0:
365,204,49192,6,0,L|354:34,1,160,4|0,0:0|0:0,0:0:0:0:
457,75,49709,1,0,0:0:0:0:
457,75,49882,2,0,L|451:154,1,80,8|0,0:0|0:0,0:0:0:0:
370,283,50227,2,0,L|365:204,1,80,0|0,0:0|0:0,0:0:0:0:
455,308,50571,6,0,L|241:321,1,160,0|0,0:0|0:0,0:0:0:0:
295,317,51089,1,0,0:0:0:0:
132,326,51261,2,0,L|212:322,1,80,8|0,0:0|0:0,0:0:0:0:
375,313,51606,2,0,L|295:317,1,80,8|0,0:0|0:0,0:0:0:0:
455,307,51951,6,0,B|464:238|464:238|434:178|434:178|445:81,1,200,4|8,0:0|0:0,0:0:0:0:
412,31,52468,1,0,0:0:0:0:
375,256,52640,2,0,L|359:381,1,100,0|0,0:0|0:0,0:0:0:0:
251,252,52985,2,0,B|179:181|179:181|283:183,1,200,8|0,0:0|0:0,0:0:0:0:
375,256,53502,5,0,0:0:0:0:
412,340,53675,2,0,P|452:305|466:258,1,100,8|0,0:0|0:0,0:0:0:0:
282,245,54020,2,0,P|291:297|325:333,1,100,0|0,0:0|0:0,0:0:0:0:
430,180,54365,2,0,P|379:162|331:173,1,100,8|0,0:0|0:0,0:0:0:0:
101,259,54709,5,4,0:0:0:0:
115,279,54796,1,0,0:0:0:0:
132,297,54882,1,0,0:0:0:0:
152,312,54968,1,0,0:0:0:0:
176,321,55054,1,8,0:0:0:0:
200,326,55140,1,0,0:0:0:0:
225,327,55227,1,0,0:0:0:0:
249,321,55313,1,0,0:0:0:0:
273,312,55399,1,0,0:0:0:0:
293,297,55485,1,0,0:0:0:0:
309,279,55571,1,0,0:0:0:0:
323,258,55658,1,0,0:0:0:0:
339,237,55744,1,8,0:0:0:0:
360,227,55830,1,0,0:0:0:0:
386,227,55916,1,0,0:0:0:0:
409,237,56002,1,0,0:0:0:0:
425,257,56089,5,0,0:0:0:0:
430,281,56175,1,0,0:0:0:0:
426,306,56261,1,8,0:0:0:0:
410,325,56347,1,0,0:0:0:0:
388,336,56434,1,0,0:0:0:0:
362,336,56520,1,0,0:0:0:0:
340,325,56606,1,0,0:0:0:0:
324,306,56692,1,0,0:0:0:0:
318,282,56778,1,8,0:0:0:0:
318,256,56865,1,0,0:0:0:0:
311,232,56951,1,0,0:0:0:0:
299,210,57037,1,0,0:0:0:0:
281,192,57123,1,8,0:0:0:0:
260,179,57209,1,0,0:0:0:0:
237,171,57296,1,0,0:0:0:0:
212,169,57382,1,0,0:0:0:0:
187,173,57468,5,8,0:0:0:0:
164,182,57554,1,0,0:0:0:0:
144,197,57640,1,0,0:0:0:0:
128,216,57727,1,0,0:0:0:0:
117,238,57813,1,8,0:0:0:0:
111,263,57899,1,0,0:0:0:0:
112,288,57985,1,0,0:0:0:0:
118,312,58071,1,0,0:0:0:0:
108,351,58158,5,8,0:0:0:0:
157,334,58244,1,8,0:0:0:0:
206,324,58330,1,8,0:0:0:0:
256,320,58416,1,8,0:0:0:0:
304,324,58502,1,8,0:0:0:0:
353,334,58589,1,8,0:0:0:0:
402,351,58675,1,12,0:0:0:0:
136,97,59709,5,0,0:0:0:0:
161,124,59796,1,0,0:0:0:0:
183,154,59882,2,0,P|198:186|196:230,1,50,4|0,0:2|0:0,0:0:0:0:
136,247,60054,2,0,P|121:215|123:171,1,50,4|0,0:2|0:0,0:0:0:0:
209,278,60227,6,0,L|335:247,1,119.999996337891,4|0,0:0|0:0,0:0:0:0:
455,97,60571,2,0,P|378:96|314:146,1,119.999996337891,8|0,0:0|0:0,0:0:0:0:
325,249,60916,1,0,0:0:0:0:
235,46,61089,1,4,0:3:0:0:
207,184,61261,2,0,P|119:193|63:158,1,119.999996337891,8|0,0:0|0:0,0:0:0:0:
7,32,61606,6,0,L|25:157,1,119.999996337891,4|0,0:3|0:0,0:0:0:0:
0,272,61951,2,0,P|88:281|144:246,1,119.999996337891,8|0,0:0|0:0,0:0:0:0:
281,140,62296,1,4,0:3:0:0:
101,186,62468,1,4,0:3:0:0:
312,226,62640,2,0,P|400:217|456:252,1,119.999996337891,8|0,0:0|0:0,0:0:0:0:
512,378,62985,6,0,L|494:253,1,119.999996337891,4|0,0:3|0:0,0:0:0:0:
372,168,63330,2,0,B|432:154|461:71,1,119.999996337891,8|0,0:0|0:0,0:0:0:0:
289,20,63675,1,4,0:3:0:0:
372,168,63847,1,4,0:3:0:0:
255,96,64020,2,0,P|181:84|109:102,1,119.999996337891,8|0,0:0|0:0,0:0:0:0:
0,249,64365,5,2,0:2:0:0:
71,118,64537,1,0,0:0:0:0:
148,244,64709,1,8,0:0:0:0:
0,249,64882,2,0,L|295:217,1,239.999992675781,2|4,0:2|0:3,0:0:0:0:
431,204,65399,1,8,0:0:0:0:
239,223,65571,1,0,0:0:0:0:
431,204,65744,6,0,P|502:276|419:380,1,239.999992675781,4|8,0:2|0:0,0:0:0:0:
243,343,66261,2,0,B|238:223,1,119.999996337891,0|4,0:0|0:3,0:0:0:0:
314,3,66606,2,0,B|319:149,1,119.999996337891,4|8,0:3|0:0,0:0:0:0:
92,153,66951,6,0,B|121:124|198:86|290:106|337:130,1,239.999992675781,4|0,0:0|0:0,0:0:0:0:
462,214,67468,1,8,0:0:0:0:
341,275,67640,1,0,0:0:0:0:
353,72,67813,2,0,L|214:74,1,119.999996337891,4|4,0:3|0:3,0:0:0:0:
16,76,68158,2,0,L|135:74,1,119.999996337891,8|0,0:0|0:0,0:0:0:0:
353,72,68502,6,0,P|399:136|370:310,1,239.999992675781,4|8,0:2|0:0,0:0:0:0:
247,384,69020,1,0,0:0:0:0:
68,326,69192,1,8,0:3:0:0:
80,287,69278,1,0,0:0:0:0:
100,253,69365,1,0,0:0:0:0:
128,225,69451,1,0,0:0:0:0:
162,204,69537,1,0,0:0:0:0:
200,192,69623,1,0,0:0:0:0:
240,189,69709,6,0,B|263:222|368:244|412:210|412:210|382:186|350:197,1,239.999992675781,4|4,0:0|0:3,0:0:0:0:
44,181,70227,1,8,0:0:0:0:
161,265,70399,2,0,L|177:403,1,119.999996337891,4|0,0:0|0:0,0:0:0:0:
291,336,70744,1,4,0:3:0:0:
234,152,70916,1,8,0:0:0:0:
193,109,71002,1,0,0:0:0:0:
137,92,71089,1,8,0:0:0:0:
80,107,71175,1,0,0:0:0:0:
34,145,71261,5,12,0:0:0:0:
117,11,71434,1,0,0:0:0:0:
83,213,71606,5,8,0:0:0:0:
200,24,71778,1,0,0:0:0:0:
166,227,71951,5,8,0:0:0:0:
249,95,72123,1,0,0:0:0:0:
222,262,72296,5,8,0:0:0:0:
236,178,72468,1,0,0:0:0:0:
271,330,72640,5,8,0:0:0:0:
305,129,72813,1,0,0:0:0:0:
355,344,72985,5,8,0:0:0:0:
389,143,73158,1,0,0:0:0:0:
424,296,73330,5,8,0:0:0:0:
305,129,73502,1,0,0:0:0:0:
437,212,73675,5,8,0:0:0:0:
236,178,73847,1,0,0:0:0:0:
389,143,74020,5,8,0:0:0:0:
166,227,74192,1,0,0:0:0:0:
305,129,74365,5,8,0:0:0:0:
83,213,74537,1,0,0:0:0:0:
236,178,74709,5,8,0:0:0:0:
34,145,74882,1,0,0:0:0:0:
222,262,75054,5,8,0:0:0:0:
48,61,75227,1,0,0:0:0:0:
271,330,75399,5,8,0:0:0:0:
117,11,75571,1,0,0:0:0:0:
355,344,75744,5,8,0:0:0:0:
200,24,75916,1,0,0:0:0:0:
424,296,76089,5,8,0:0:0:0:
249,95,76261,1,0,0:0:0:0:
437,212,76434,5,8,0:0:0:0:
236,178,76606,1,0,0:0:0:0:
424,296,76778,6,0,L|281:271,1,119.999996337891,12|0,0:0|0:0,0:0:0:0:
319,61,77123,5,8,0:0:0:0:
319,256,77296,1,0,0:0:0:0:
213,74,77468,5,8,0:0:0:0:
212,244,77640,1,0,0:0:0:0:
112,211,77813,5,8,0:0:0:0:
274,159,77985,1,0,0:0:0:0:
112,106,78158,5,8,0:0:0:0:
212,244,78330,1,0,0:0:0:0:
19,159,78502,5,8,0:0:0:0:
132,317,78675,1,0,0:0:0:0:
274,159,78847,5,8,0:0:0:0:
112,211,79020,1,0,0:0:0:0:
133,0,79192,5,8,0:0:0:0:
212,244,79365,1,0,0:0:0:0:
274,159,79537,5,12,0:1:0:0:
303,162,79623,1,0,0:0:0:0:
331,174,79709,1,0,0:0:0:0:
355,192,79796,1,0,0:0:0:0:
373,215,79882,1,8,0:0:0:0:
386,242,79968,1,0,0:0:0:0:
389,333,80054,5,12,0:1:0:0:
359,327,80140,1,0,0:0:0:0:
330,325,80227,1,0,0:0:0:0:
300,324,80313,1,0,0:0:0:0:
270,327,80399,1,0,0:0:0:0:
240,332,80485,1,0,0:0:0:0:
211,340,80571,1,8,0:0:0:0:
185,355,80658,1,0,0:0:0:0:
108,322,80744,6,0,B|77:298|33:311|33:311|56:284|87:312|149:319|195:277|177:216,1,239.999992675781,12|8,0:1|0:0,0:0:0:0:
193,238,81175,1,8,0:0:0:0:
210,213,81261,1,8,0:0:0:0:
232,193,81347,1,8,0:0:0:0:
257,176,81434,1,8,0:0:0:0:
284,164,81520,1,8,0:0:0:0:
314,158,81606,1,8,0:0:0:0:
344,156,81692,1,8,0:0:0:0:
373,160,81778,1,8,0:0:0:0:
402,169,81865,1,8,0:0:0:0:
449,203,81951,5,10,0:0:0:0:
452,143,82037,1,10,0:0:0:0:
432,87,82123,1,10,0:0:0:0:
393,42,82209,1,10,0:0:0:0:
339,16,82296,6,0,B|304:39|304:39|181:60,1,119.999996337891,12|0,0:0|0:0,0:0:0:0:
25,157,82640,2,0,P|82:128|154:150,1,119.999996337891,8|0,0:0|0:0,0:0:0:0:
336,253,82985,2,0,L|356:379,1,119.999996337891,8|0,0:0|0:0,0:0:0:0:
462,204,83330,2,0,B|436:188|436:188|396:186|357:200|313:236,1,119.999996337891,8|0,0:0|0:0,0:0:0:0:
176,253,83675,6,0,L|156:379,1,119.999996337891,8|0,0:0|0:0,0:0:0:0:
50,204,84020,2,0,B|76:188|76:188|116:186|155:200|199:236,1,119.999996337891,8|0,0:0|0:0,0:0:0:0:
324,300,84365,2,0,B|297:285|297:285|275:251|268:211|277:154,1,119.999996337891,8|0,0:0|0:0,0:0:0:0:
270,14,84709,2,0,B|270:44|270:44|252:80|220:106|167:127,1,119.999996337891,8|0,0:0|0:0,0:0:0:0:
0,234,85054,6,0,L|133:278,1,119.999996337891,12|0,0:0|0:0,0:0:0:0:
274,230,85399,2,0,L|160:190,1,119.999996337891,8|0,0:0|0:0,0:0:0:0:
70,350,85744,5,8,0:3:0:0:
75,336,85830,1,0,0:0:0:0:
80,322,85916,1,0,0:0:0:0:
85,308,86002,1,0,0:0:0:0:
90,294,86089,1,0,0:0:0:0:
95,280,86175,1,0,0:0:0:0:
100,266,86261,6,0,P|123:239|238:267,1,160,4|0,0:0|0:0,0:0:0:0:
295,300,86778,2,0,L|398:319,1,59.9999981689454,0|0,0:0|0:0,0:0:0:0:
300,222,87123,2,0,L|197:203,1,59.9999981689454,0|0,0:0|0:0,0:0:0:0:
246,109,87468,6,0,B|285:137|288:184|241:211|241:211|300:206|352:273|307:330|260:350|230:334|210:312,1,359.999989013672,0|0,0:0|0:0,0:0:0:0:
