osu file format v14

[General]
AudioFilename: harumodoki.mp3
AudioLeadIn: 0
PreviewTime: 58491
Countdown: 0
SampleSet: Soft
StackLeniency: 0.7
Mode: 0
LetterboxInBreaks: 0
WidescreenStoryboard: 0

[Editor]
Bookmarks: 54361
DistanceSpacing: 0.5
BeatDivisor: 4
GridSize: 4
TimelineZoom: 3.199999

[Metadata]
Title:Haru Modoki
TitleUnicode:春擬き
Artist:yanaginagi
ArtistUnicode:やなぎなぎ
Creator:eINess
Version:Springtime of Life
Source:やはり俺の青春ラブコメはまちがっている。続
Tags:opening 2nd season yahari ore no seishun love comedy wa machigatteiru zoku Oregairu my teen romantic snafu [_Zzz_] Kawaiwkyik IamKwaN kakifly Nozhomi
BeatmapID:672494
BeatmapSetID:299805

[Difficulty]
HPDrainRate:7.5
CircleSize:4.5
OverallDifficulty:8.3
ApproachRate:9.3
SliderMultiplier:1.98
SliderTickRate:1

[Events]
//Background and Video events
Video,-420,"video-0.avi"
0,0,"extra.jpg",0,0
//Break Periods
//Storyboard Layer 0 (Background)
//Storyboard Layer 1 (Fail)
//Storyboard Layer 2 (Pass)
//Storyboard Layer 3 (Foreground)
//Storyboard Sound Samples

[TimingPoints]
560,344.827586206897,4,2,2,30,1,0
5042,-166.666666666667,4,2,1,50,0,0
7284,-83.3333333333333,4,2,1,70,0,0
15560,-100,4,2,2,40,0,0
17973,-100,4,2,1,50,0,0
40560,-125,4,2,1,40,0,0
50560,-166.666666666667,4,2,1,30,0,0
50904,-142.857142857143,4,2,1,35,0,0
51249,-125,4,2,1,40,0,0
51594,-100,4,2,1,50,0,0
57973,-76.9230769230769,4,2,1,45,0,0
59353,-76.9230769230769,4,2,1,60,0,0
59870,-83.3333333333333,4,2,1,85,0,1
70818,-83.3333333333333,4,2,1,85,0,0
70904,-83.3333333333333,4,2,1,85,0,1
79180,-83.3333333333333,4,2,1,85,0,0
81939,-83.3333333333333,4,2,1,85,0,1
85904,-83.3333333333333,4,2,2,60,0,0
87111,-166.666666666667,4,2,2,40,0,0
88146,-166.666666666667,4,2,2,20,0,0

[Colours]
Combo1 : 232,0,0
Combo2 : 255,164,209
Combo3 : 255,103,30
Combo4 : 192,192,192

[HitObjects]
168,288,560,5,2,0:0:0:0:
344,96,1939,5,2,0:0:0:0:
380,272,3318,5,2,0:0:0:0:
132,112,4697,5,2,0:0:0:0:
64,152,5042,6,0,B|84:200|64:236|64:236|128:200|152:244|152:244|192:228|192:228|220:248|252:224|252:224|232:212|228:188|228:188,1,326.699990029908
272,140,6077,2,0,L|280:104,3,29.699999093628
310,88,6422,2,0,L|362:72,3,29.699999093628
368,60,6766,5,2,0:0:0:0:
404,64,6853,1,2,0:0:0:0:
440,76,6939,1,2,0:0:0:0:
468,100,7025,1,2,0:0:0:0:
480,136,7111,1,2,0:0:0:0:
484,172,7197,1,2,0:0:0:0:
484,208,7284,6,0,B|452:288|360:264|360:264|340:316|260:324,1,237.599992749024,6|2,0:0|0:0,0:0:0:0:
120,348,7801,1,2,0:0:0:0:
80,340,7887,1,0,0:0:0:0:
44,316,7973,1,0,0:0:0:0:
24,280,8060,1,0,0:0:0:0:
20,240,8146,5,2,0:0:0:0:
60,248,8232,1,0,0:0:0:0:
100,252,8318,1,0,0:0:0:0:
140,248,8404,1,0,0:0:0:0:
180,236,8491,5,2,0:0:0:0:
218,215,8577,1,0,0:0:0:0:
248,184,8663,1,0,0:0:0:0:
264,144,8749,1,0,0:0:0:0:
272,104,8835,6,0,L|276:32,1,59.3999981872559,2|0,0:0|0:0,0:0:0:0:
368,128,9008,2,0,L|404:72,1,59.3999981872559
424,212,9180,2,0,L|484:188,1,59.3999981872559,2|0,0:0|0:0,0:0:0:0:
412,304,9353,2,0,L|472:324,1,59.3999981872559
308,332,9525,2,0,L|184:320,1,118.799996374512,2|0,0:0|0:0,0:0:0:0:
116,316,9784,1,0,0:0:0:0:
116,316,9870,1,2,0:0:0:0:
8,104,10042,6,0,P|84:100|132:124,1,118.799996374512,6|0,0:0|0:0,0:0:0:0:
224,256,10387,1,2,0:0:0:0:
224,256,10473,1,0,0:0:0:0:
224,256,10560,1,0,0:0:0:0:
272,80,10732,1,2,0:0:0:0:
360,248,10904,6,0,L|364:312,1,59.3999981872559,2|0,0:0|0:0,0:0:0:0:
432,140,11077,2,0,L|428:76,1,59.3999981872559
336,156,11249,2,0,L|272:160,1,59.3999981872559,2|0,0:0|0:0,0:0:0:0:
452,228,11422,2,0,L|511:231,1,59.3999981872559
408,344,11594,5,2,0:0:0:0:
378,348,11680,1,0,0:0:0:0:
350,352,11766,2,0,L|290:360,1,59.3999981872559
236,296,11939,5,2,0:0:0:0:
206,292,12025,1,0,0:0:0:0:
178,288,12111,2,0,L|118:280,1,59.3999981872559
40,324,12284,5,2,0:0:0:0:
32,296,12370,1,0,0:0:0:0:
28,268,12456,1,0,0:0:0:0:
40,240,12542,1,0,0:0:0:0:
56,216,12628,5,2,0:0:0:0:
168,92,12801,2,0,P|108:80|40:100,1,118.799996374512,6|2,0:0|0:0,0:0:0:0:
192,220,13146,1,0,0:0:0:0:
200,224,13232,1,0,0:0:0:0:
208,228,13318,1,2,0:0:0:0:
324,96,13491,1,0,0:0:0:0:
316,100,13577,1,0,0:0:0:0:
308,104,13663,1,2,0:0:0:0:
344,304,13835,5,0,0:0:0:0:
352,308,13922,1,0,0:0:0:0:
360,312,14008,1,2,0:0:0:0:
468,184,14180,1,0,0:0:0:0:
460,188,14266,1,0,0:0:0:0:
452,192,14353,5,2,0:0:0:0:
408,188,14439,1,0,0:0:0:0:
368,184,14525,1,0,0:0:0:0:
328,180,14611,1,0,0:0:0:0:
288,176,14697,5,2,0:0:0:0:
292,220,14784,1,0,0:0:0:0:
276,260,14870,1,0,0:0:0:0:
240,284,14956,1,0,0:0:0:0:
200,296,15042,5,2,0:0:0:0:
160,300,15128,1,0,0:0:0:0:
116,296,15215,1,0,0:0:0:0:
76,280,15301,1,0,0:0:0:0:
48,248,15387,5,2,0:0:0:0:
56,208,15473,1,0,0:0:0:0:
64,168,15560,1,6,0:0:0:0:
68,148,15904,6,0,L|60:24,1,99,0|2,0:0|0:0,0:0:0:0:
160,300,16422,1,2,0:0:0:0:
184,304,16766,1,2,0:0:0:0:
208,308,17111,5,0,3:0:0:0:
224,304,17197,1,0,3:0:0:0:
240,300,17284,1,0,3:0:0:0:
256,296,17370,1,0,3:0:0:0:
272,292,17456,6,0,L|344:304,1,49.5,0|0,3:0|0:0,0:0:0:0:
456,220,17628,2,0,L|404:224,1,33,4|8,0:3|0:3,0:0:0:0:
328,156,17801,1,8,3:0:0:0:
420,352,17973,1,8,0:0:0:0:
420,352,18318,5,6,0:0:0:0:
420,352,18663,1,2,0:0:0:0:
328,156,18835,1,8,0:0:0:0:
272,292,19008,1,0,0:0:0:0:
456,220,19180,1,2,0:0:0:0:
456,220,19266,1,0,0:0:0:0:
456,220,19353,6,0,B|452:168|452:168|432:136|432:136|428:64,1,148.5,2|2,0:0|0:0,0:0:0:0:
364,32,19697,2,0,P|304:24|260:36,1,99,8|0,0:0|0:0,0:0:0:0:
208,80,19956,1,0,0:0:0:0:
208,80,20042,1,2,0:0:0:0:
104,248,20215,2,0,B|132:200|40:172|96:88,1,148.5,8|0,0:0|0:0,0:0:0:0:
112,40,20560,5,6,0:0:0:0:
28,232,20732,1,8,0:0:0:0:
28,232,21077,5,6,0:0:0:0:
28,232,21422,1,2,0:0:0:0:
157,140,21594,1,8,0:0:0:0:
176,332,21766,1,0,0:0:0:0:
104,248,21939,1,2,0:0:0:0:
256,304,22111,6,0,B|304:316|304:316|440:296,1,148.5,2|0,0:0|0:0,0:0:0:0:
432,224,22456,2,0,L|304:244,1,99,8|0,0:0|0:0,0:0:0:0:
484,352,22801,1,2,0:0:0:0:
488,152,22973,1,8,0:0:0:0:
334,239,23146,1,0,0:0:0:0:
232,88,23318,5,6,0:0:0:0:
180,332,23491,1,8,0:0:0:0:
160,328,23835,1,6,0:0:0:0:
140,324,24180,5,2,0:0:0:0:
80,184,24353,1,8,0:0:0:0:
240,264,24525,1,0,0:0:0:0:
32,312,24697,1,2,0:0:0:0:
37,117,24870,6,0,P|109:109|155:163,1,148.5,2|2,0:0|0:0,0:0:0:0:
149,242,25215,2,0,P|212:220|232:184,1,99,8|0,0:0|0:0,0:0:0:0:
220,56,25560,1,2,0:0:0:0:
384,136,25732,2,0,B|388:176|388:176|368:244|368:244|376:296,1,148.5,8|0,0:0|0:0,0:0:0:0:
392,352,26077,1,6,0:0:0:0:
308,180,26249,1,8,0:0:0:0:
308,180,26594,5,6,0:0:0:0:
264,264,28663,6,0,L|260:320,1,33,4|8,0:3|0:3,0:0:0:0:
348,168,28835,1,8,0:0:0:0:
152,72,29008,1,8,0:0:0:0:
140,64,29353,6,0,B|128:120|128:120|152:160|136:212|136:212|148:268,1,198,6|2,0:0|0:0,0:0:0:0:
52,172,29870,1,8,0:0:0:0:
244,136,30042,1,0,0:0:0:0:
152,280,30215,1,2,0:0:0:0:
4,108,30387,2,0,P|44:92|108:120,1,99,2|8,0:0|0:0,0:0:0:0:
292,199,30732,6,0,P|252:215|188:187,1,99,0|2,0:0|0:0,0:0:0:0:
152,56,31077,1,2,0:0:0:0:
48,248,31249,1,8,0:0:0:0:
4,108,31422,1,0,0:0:0:0:
152,280,31594,1,6,0:0:0:0:
292,199,31766,2,0,L|404:203,1,99,2|8,0:0|0:0,0:0:0:0:
220,320,32111,6,0,P|132:356|72:280,1,198,6|2,0:0|0:0,0:0:0:0:
208,140,32628,1,8,0:0:0:0:
152,280,32801,1,0,0:0:0:0:
36,168,32973,1,2,0:0:0:0:
244,68,33146,2,0,P|276:100|280:176,1,99,2|8,0:0|0:0,0:0:0:0:
148,260,33491,5,0,0:0:0:0:
40,136,33663,1,2,0:0:0:0:
28,324,33835,1,2,0:0:0:0:
144,240,34008,2,0,L|160:104,1,99,8|0,0:0|0:0,0:0:0:0:
224,312,34353,1,6,0:0:0:0:
168,52,34525,1,2,0:0:0:0:
40,136,34697,1,8,0:0:0:0:
264,80,34870,6,0,P|360:84|400:180,1,198,6|2,0:0|0:0,0:0:0:0:
220,288,35387,1,8,0:0:0:0:
308,164,35560,1,0,0:0:0:0:
392,300,35732,2,0,L|516:292,1,99,2|2,0:0|0:0,0:0:0:0:
296,188,36077,1,8,0:0:0:0:
252,356,36249,5,0,0:0:0:0:
188,220,36422,1,2,0:0:0:0:
32,288,36594,1,0,0:0:0:0:
172,96,36766,2,0,B|180:144|180:144|169:193,1,99,8|0,0:0|0:0,0:0:0:0:
68,32,37111,1,6,0:0:0:0:
252,116,37284,1,2,0:0:0:0:
328,24,37456,1,8,0:0:0:0:
432,160,37628,6,0,P|456:252|344:284,1,198,6|2,0:0|0:0,0:0:0:0:
304,172,38146,1,8,0:0:0:0:
240,360,38318,1,0,0:0:0:0:
176,224,38491,1,2,0:0:0:0:
100,336,38663,2,0,L|-4:332,1,99,2|8,0:0|0:0,0:0:0:0:
184,252,39008,6,0,L|288:248,1,99,2|0,0:0|0:0,0:0:0:0:
432,136,39353,1,2,0:0:0:0:
372,328,39525,1,8,0:0:0:0:
304,172,39697,1,0,0:0:0:0:
428,248,39870,6,0,L|496:244,1,66,2|4,0:0|0:3,0:0:0:0:
372,328,40100,1,2,0:0:0:0:
304,172,40215,2,0,L|372:168,1,66,8|4,0:3|3:0,0:0:0:0:
260,288,40445,1,2,0:0:0:0:
156,160,40560,5,6,0:0:0:0:
156,160,40904,2,0,L|148:72,1,79.2,0|2,0:0|0:0,0:0:0:0:
252,212,41249,2,0,L|244:124,1,79.2,8|0,0:0|0:0,0:0:0:0:
288,56,41594,1,2,0:0:0:0:
288,56,41766,1,2,0:0:0:0:
384,120,41939,5,0,0:0:0:0:
320,260,42111,1,8,0:0:0:0:
392,304,42284,2,0,L|500:296,1,79.2,0|2,0:0|0:0,0:0:0:0:
316,344,42628,1,8,0:0:0:0:
324,352,42973,2,0,L|232:344,1,79.2,0|2,0:0|0:0,0:0:0:0:
88,292,43318,6,0,L|180:284,2,79.2,6|0|0,0:0|0:0|0:0,0:0:0:0:
16,224,43835,1,2,0:0:0:0:
72,128,44008,1,8,0:0:0:0:
72,128,44180,1,0,0:0:0:0:
192,212,44353,1,2,0:0:0:0:
216,48,44525,1,2,0:0:0:0:
352,88,44697,6,0,P|356:132|344:184,1,79.2,0|8,0:0|0:0,0:0:0:0:
456,152,45042,2,0,P|448:200|416:244,1,79.2,2|0,0:0|0:0,0:0:0:0:
280,240,45387,2,0,P|340:240|380:252,1,79.2,8|0,0:0|0:0,0:0:0:0:
440,368,45732,2,0,P|419:334|411:295,1,79.2,2|2,0:0|0:0,0:0:0:0:
456,152,46077,5,6,0:0:0:0:
280,348,46422,1,0,0:0:0:0:
188,288,46594,1,2,0:0:0:0:
92,324,46766,2,0,L|0:312,1,79.2,8|0,0:0|0:0,0:0:0:0:
196,260,47111,2,0,L|288:248,1,79.2,2|2,0:0|0:0,0:0:0:0:
96,180,47456,6,0,L|4:168,2,79.2,6|8|0,0:0|0:0|0:0,0:0:0:0:
188,104,47973,1,2,0:0:0:0:
304,248,48146,2,0,P|356:256|416:172,1,158.4,8|0,0:0|0:0,0:0:0:0:
336,88,48663,1,2,0:0:0:0:
176,212,48835,6,0,L|168:108,1,79.2,6|0,0:0|0:0,0:0:0:0:
244,308,49180,1,0,0:0:0:0:
96,272,49353,2,0,L|88:168,2,79.2,2|8|0,0:0|0:0|0:0,0:0:0:0:
48,352,49870,1,2,0:0:0:0:
88,152,50042,1,2,0:0:0:0:
240,324,50215,6,0,L|340:328,1,79.2,0|8,0:0|0:0,0:0:0:0:
424,328,50560,6,0,P|420:304|400:272,1,59.3999981872559,0|2,0:0|0:0,0:0:0:0:
480,244,50904,6,0,P|444:204|404:192,1,69.2999978851319,8|2,0:0|0:0,0:0:0:0:
488,124,51249,6,0,P|444:108|384:124,1,79.2,8|0,0:0|0:0,0:0:0:0:
344,144,51508,1,0,0:0:0:0:
344,144,51594,6,0,L|212:140,1,99,6|0,0:0|0:0,0:0:0:0:
104,32,51939,2,0,P|100:96|132:156,1,99,8|0,0:0|0:0,0:0:0:0:
200,232,52284,2,0,P|150:232|104:250,1,99,2|2,0:0|0:0,0:0:0:0:
224,336,52628,1,8,0:0:0:0:
352,268,52801,6,0,B|330:114|330:114|368:160,1,198
432,308,53318,2,0,P|384:352|276:316,1,148.5,8|0,0:0|0:0,0:0:0:0:
240,304,53663,2,0,L|128:312,1,99,2|2,0:0|0:0,0:0:0:0:
80,200,54008,1,8,0:0:0:0:
28,364,54180,1,0,0:0:0:0:
16,144,54353,5,2,0:0:0:0:
40,124,54439,1,2,0:0:0:0:
72,116,54525,1,2,0:0:0:0:
104,120,54611,1,2,0:0:0:0:
132,136,54697,1,2,0:0:0:0:
156,160,54784,1,2,0:0:0:0:
164,192,54870,1,2,0:0:0:0:
160,224,54956,1,2,0:0:0:0:
144,252,55042,5,2,0:0:0:0:
160,280,55128,1,2,0:0:0:0:
184,304,55215,1,2,0:0:0:0:
212,324,55301,1,2,0:0:0:0:
244,336,55387,1,2,0:0:0:0:
276,340,55473,1,2,0:0:0:0:
308,340,55560,1,2,0:0:0:0:
340,332,55646,1,2,0:0:0:0:
372,324,55732,6,0,L|448:336,1,49.5,2|2,0:0|0:0,0:0:0:0:
416,248,55904,2,0,L|488:248,1,49.5,2|2,0:0|0:0,0:0:0:0:
428,160,56077,2,0,L|504:140,1,49.5,2|2,0:0|0:0,0:0:0:0:
404,76,56249,2,0,L|464:32,1,49.5,2|2,0:0|0:0,0:0:0:0:
320,84,56422,5,2,0:0:0:0:
304,80,56508,1,2,0:0:0:0:
288,76,56594,1,2,0:0:0:0:
272,72,56680,1,2,0:0:0:0:
256,68,56766,1,2,0:0:0:0:
240,64,56853,1,2,0:0:0:0:
224,60,56939,1,2,0:0:0:0:
208,56,57025,1,2,0:0:0:0:
192,52,57111,5,2,0:0:0:0:
152,40,57197,1,2,0:0:0:0:
112,40,57284,1,2,0:0:0:0:
72,52,57370,1,2,0:0:0:0:
40,80,57456,1,2,0:0:0:0:
24,120,57542,1,2,0:0:0:0:
24,160,57628,1,2,0:0:0:0:
44,196,57715,1,2,0:0:0:0:
76,224,57801,5,2,0:0:0:0:
124,216,57887,1,2,0:0:0:0:
172,224,57973,2,0,L|164:300,1,64.3499970542909,2|2,0:0|0:0,0:0:0:0:
279,135,58146,2,0,L|271:71,1,64.3499970542909,2|2,0:0|0:0,0:0:0:0:
356,264,58318,1,6,0:0:0:0:
356,264,59353,6,0,L|408:268,1,42.8999980361939,4|8,0:3|0:3,0:0:0:0:
200,344,59525,1,8,0:0:0:0:
196,356,59870,6,0,B|180:304|180:304|184:220|184:220|160:152,1,178.199994561768,6|0,0:0|0:0,0:0:0:0:
124,124,60215,2,0,B|80:104|44:144|0:112,1,118.799996374512,8|0,0:0|0:0,0:0:0:0:
172,32,60560,1,2,0:0:0:0:
256,208,60732,1,2,0:0:0:0:
380,100,60904,2,0,P|464:92|500:68,1,118.799996374512,8|0,0:0|0:0,0:0:0:0:
264,44,61249,6,0,L|276:244,1,178.199994561768,6|0,0:0|0:0,0:0:0:0:
320,296,61594,2,0,P|360:240|352:180,1,118.799996374512,8|0,0:0|0:0,0:0:0:0:
176,272,61939,1,2,0:0:0:0:
236,128,62111,1,2,0:0:0:0:
36,72,62284,1,8,0:0:0:0:
104,180,62456,1,0,0:0:0:0:
316,120,62628,6,0,P|276:60|160:100,1,178.199994561768,6|0,0:0|0:0,0:0:0:0:
132,136,62973,2,0,L|132:264,1,118.799996374512,8|0,0:0|0:0,0:0:0:0:
72,68,63318,1,2,0:0:0:0:
224,192,63491,1,2,0:0:0:0:
56,328,63663,1,8,0:0:0:0:
104,180,63835,1,0,0:0:0:0:
248,316,64008,6,0,L|424:300,1,118.799996374512,6|0,0:0|0:0,0:0:0:0:
444,212,64353,1,8,0:0:0:0:
484,356,64525,1,0,0:0:0:0:
312,172,64697,1,2,0:0:0:0:
344,288,64870,1,2,0:0:0:0:
440,76,65042,1,8,0:0:0:0:
472,192,65215,1,0,0:0:0:0:
264,104,65387,6,0,B|220:148|240:204|240:204|204:186|164:216,1,178.199994561768,6|0,0:0|0:0,0:0:0:0:
104,236,65732,1,8,0:0:0:0:
312,172,65904,2,0,P|312:240|244:284,1,118.799996374512,0|2,0:0|0:0,0:0:0:0:
128,132,66249,1,2,0:0:0:0:
172,332,66422,1,8,0:0:0:0:
336,324,66594,6,0,B|396:276|392:204|392:204|392:204|392:204|448:180|440:112,1,237.599992749024,6|2,0:0|0:0,0:0:0:0:
280,36,67111,2,0,L|412:28,1,118.799996374512,8|0,0:0|0:0,0:0:0:0:
120,100,67456,1,2,0:0:0:0:
90,98,67542,1,0,0:0:0:0:
60,96,67628,1,0,0:0:0:0:
232,184,67801,1,8,0:0:0:0:
168,24,67973,1,0,0:0:0:0:
40,152,68146,6,0,B|56:180|36:204|36:204|48:224|48:224|40:296|120:312,1,178.199994561768,6|0,0:0|0:0,0:0:0:0:
160,331,68491,2,0,P|160:273|119:231,1,118.799996374512,8|0,0:0|0:0,0:0:0:0:
32,356,68835,1,2,0:0:0:0:
32,356,68922,1,2,0:0:0:0:
32,356,69008,1,2,0:0:0:0:
168,168,69180,1,8,0:0:0:0:
312,312,69353,6,0,P|400:312|436:172,1,237.599992749024,6|2,0:0|0:0,0:0:0:0:
256,64,69870,1,8,0:0:0:0:
67,186,70042,2,0,P|89:296|200:312,1,237.599992749024,6|2,0:0|0:0,0:0:0:0:
356,228,70560,2,0,P|362:184|360:148,1,59.3999981872559,6|2,0:0|0:0,0:0:0:0:
228,64,70732,2,0,P|228:93|234:122,1,59.3999981872559,8|2,0:0|0:0,0:0:0:0:
312,312,70904,6,0,P|232:280|132:316,1,178.199994561768,6|0,0:0|0:0,0:0:0:0:
72,320,71249,2,0,P|48:256|60:192,1,118.799996374512,8|0,0:0|0:0,0:0:0:0:
228,64,71594,2,0,P|252:128|240:192,1,118.799996374512,8|2,0:0|0:0,0:0:0:0:
0,80,71939,2,0,L|148:92,1,118.799996374512,8|2,0:0|0:0,0:0:0:0:
216,232,72284,5,6,0:0:0:0:
188,364,72456,1,0,0:0:0:0:
300,192,72628,1,8,0:0:0:0:
272,60,72801,1,0,0:0:0:0:
468,96,72973,1,12,0:0:0:0:
320,172,73146,1,2,0:0:0:0:
396,296,73318,1,8,0:0:0:0:
368,72,73491,1,2,0:0:0:0:
120,224,73663,6,0,P|144:296|268:312,1,178.199994561768,6|0,0:0|0:0,0:0:0:0:
296,292,74008,2,0,L|414:298,1,118.799996374512,8|0,0:0|0:0,0:0:0:0:
349,102,74353,2,0,L|468:96,1,118.799996374512,6|2,0:0|0:0,0:0:0:0:
220,224,74697,2,0,L|216:105,1,118.799996374512,12|2,0:0|0:0,0:0:0:0:
504,204,75042,6,0,L|508:344,1,118.799996374512,6|0,0:0|0:0,0:0:0:0:
508,360,75301,1,0,0:0:0:0:
508,360,75387,1,8,0:0:0:0:
280,288,75560,1,0,0:0:0:0:
349,101,75732,1,8,0:0:0:0:
408,256,75904,1,2,0:0:0:0:
141,299,76077,1,8,0:0:0:0:
199,144,76249,2,0,P|170:148|142:139,1,59.3999981872559,2|0,0:0|0:0,0:0:0:0:
177,68,76422,6,0,L|321:60,1,118.799996374512,6|0,0:0|0:0,0:0:0:0:
412,164,76766,1,8,0:0:0:0:
280,288,76939,1,0,0:0:0:0:
349,101,77111,2,0,B|367:139|367:139|359:215,1,118.799996374512,2|2,0:0|0:0,0:0:0:0:
136,232,77456,1,8,0:0:0:0:
288,312,77628,1,2,0:0:0:0:
232,60,77801,5,6,0:0:0:0:
152,256,77973,1,0,0:0:0:0:
320,136,78146,2,0,L|460:144,1,118.799996374512,8|0,0:0|0:0,0:0:0:0:
268,220,78491,1,6,0:0:0:0:
188,68,78663,1,2,0:0:0:0:
136,232,78835,2,0,L|148:356,1,118.799996374512,8|0,0:0|0:0,0:0:0:0:
248,148,79180,5,6,0:0:0:0:
400,284,79353,2,0,L|396:348,1,59.3999981872559,2|2,0:0|0:0,0:0:0:0:
464,200,79525,2,0,L|460:136,1,59.3999981872559,2|2,0:0|0:0,0:0:0:0:
512,296,79697,1,6,0:0:0:0:
408,76,79870,1,2,0:0:0:0:
408,76,79956,1,2,0:0:0:0:
300,212,80128,1,2,0:0:0:0:
300,212,80215,1,2,0:0:0:0:
176,52,80387,6,0,P|104:44|32:152,1,178.199994561768,6|0,0:0|0:0,0:0:0:0:
36,196,80732,1,2,0:0:0:0:
84,192,80818,1,2,0:0:0:0:
132,188,80904,1,2,0:0:0:0:
180,184,80991,1,2,0:0:0:0:
228,180,81077,1,2,0:0:0:0:
276,176,81163,1,2,0:0:0:0:
324,172,81249,6,0,L|420:164,1,59.3999981872559,2|2,0:0|0:0,0:0:0:0:
452,296,81422,2,0,L|460:224,1,59.3999981872559,2|2,0:0|0:0,0:0:0:0:
324,352,81594,2,0,L|383:356,1,59.3999981872559,8|8,0:0|0:0,0:0:0:0:
256,224,81766,2,0,L|249:283,1,59.3999981872559,8|8,0:0|0:0,0:0:0:0:
92,356,81939,6,0,L|84:232,1,118.799996374512,6|0,0:0|0:0,0:0:0:0:
40,68,82284,1,8,0:0:0:0:
228,180,82456,1,0,0:0:0:0:
188,24,82628,1,8,0:0:0:0:
82,204,82801,1,2,0:0:0:0:
244,100,82973,1,8,0:0:0:0:
350,280,83146,1,2,0:0:0:0:
392,144,83318,5,12,0:0:0:0:
204,256,83491,1,0,0:0:0:0:
293,62,83663,1,8,0:0:0:0:
332,276,83835,1,0,0:0:0:0:
184,120,84008,1,8,0:0:0:0:
279,172,84180,1,2,0:0:0:0:
108,200,84353,1,8,0:0:0:0:
168,40,84525,1,2,0:0:0:0:
360,128,84697,6,0,P|364:204|272:264,1,178.199994561768,6|0,0:0|0:0,0:0:0:0:
220,276,85042,1,8,0:0:0:0:
152,111,85215,1,0,0:0:0:0:
44,280,85387,2,0,L|36:356,1,59.3999981872559,8|0,3:0|3:0,0:0:0:0:
144,200,85560,2,0,L|136:124,1,59.3999981872559,4|0,3:0|3:0,0:0:0:0:
220,276,85732,2,0,L|213:335,1,59.3999981872559,8|0,3:0|3:0,0:0:0:0:
288,144,85904,5,6,0:0:0:0:
360,128,86422,1,2,0:0:0:0:
424,168,86767,1,2,0:0:0:0:
400,240,87111,6,0,B|376:256|376:284|376:284|328:256|284:292|284:292|248:288|248:288|196:320|144:280|152:220|204:200,1,356.399989123536,2|2,0:0|0:0,0:0:0:0:
