osu file format v14

[General]
AudioFilename: harumodoki.mp3
AudioLeadIn: 0
PreviewTime: 58410
Countdown: 0
SampleSet: Normal
StackLeniency: 0.7
Mode: 1
LetterboxInBreaks: 0
WidescreenStoryboard: 0

[Editor]
Bookmarks: 25128,25301,25387,39697,40560,79697
DistanceSpacing: 2
BeatDivisor: 4
GridSize: 32
TimelineZoom: 2.3

[Metadata]
Title:Haru Modoki
TitleUnicode:春擬き
Artist:yanaginagi
ArtistUnicode:やなぎなぎ
Creator:Labyr
Version:Oni
Source:やはり俺の青春ラブコメはまちがっている。続
Tags:Yahari Ore no Seishun Love Comedy wa Machigatteiru. Zoku My Teen Romantic Comedy SNAFU TV Size oregairu chaica Lundlerol
BeatmapID:734082
BeatmapSetID:331376

[Difficulty]
HPDrainRate:5
CircleSize:5
OverallDifficulty:5
ApproachRate:5
SliderMultiplier:1.4
SliderTickRate:1

[Events]
//Background and Video events
0,0,"BG.jpg",0,85
//Break Periods
//Storyboard Layer 0 (Background)
//Storyboard Layer 1 (Fail)
//Storyboard Layer 2 (Pass)
//Storyboard Layer 3 (Foreground)
//Storyboard Sound Samples

[TimingPoints]
566,344.827586206897,4,1,0,70,1,0
7290,-100,4,1,0,80,0,0
17807,-100,4,1,0,70,0,0
28669,-100,4,1,0,80,0,0
41083,-100,4,1,0,70,0,0
51600,-100,4,1,0,80,0,0
59359,-100,4,1,0,90,0,0
59876,-100,4,1,0,90,0,1
81945,-100,4,1,0,90,0,0
86476,344.827586206897,4,1,0,60,1,8
86820,-100,4,1,0,50,0,0
87165,-100,4,1,0,40,0,0

[HitObjects]
256,192,566,5,0,0:0:0:0:
256,192,910,1,8,0:0:0:0:
256,192,1255,1,0,0:0:0:0:
256,192,1600,1,0,0:0:0:0:
256,192,1945,1,8,0:0:0:0:
256,192,2290,1,0,0:0:0:0:
256,192,2634,1,0,0:0:0:0:
256,192,2979,1,8,0:0:0:0:
256,192,3669,1,0,0:0:0:0:
256,192,4014,1,0,0:0:0:0:
256,192,4359,1,8,0:0:0:0:
256,192,4703,12,0,5910,0:0:0:0:
256,192,6083,5,8,0:0:0:0:
256,192,6255,1,8,0:0:0:0:
256,192,6341,1,8,0:0:0:0:
256,192,6428,1,0,0:0:0:0:
256,192,6600,1,0,0:0:0:0:
256,192,6772,1,8,0:0:0:0:
256,192,6859,1,8,0:0:0:0:
256,192,6945,1,0,0:0:0:0:
256,192,7031,1,0,0:0:0:0:
256,192,7117,1,8,0:0:0:0:
256,192,7290,1,12,0:0:0:0:
256,192,7634,1,0,0:0:0:0:
256,192,7807,1,8,0:0:0:0:
256,192,7979,1,0,0:0:0:0:
256,192,8066,1,0,0:0:0:0:
256,192,8152,1,8,0:0:0:0:
256,192,8324,1,0,0:0:0:0:
256,192,8497,1,8,0:0:0:0:
256,192,8669,1,0,0:0:0:0:
256,192,8755,1,8,0:0:0:0:
256,192,8841,1,0,0:0:0:0:
256,192,9014,1,0,0:0:0:0:
256,192,9186,1,8,0:0:0:0:
256,192,9359,1,0,0:0:0:0:
256,192,9531,1,0,0:0:0:0:
256,192,9617,1,0,0:0:0:0:
256,192,9703,1,0,0:0:0:0:
256,192,9876,1,8,0:0:0:0:
256,192,10048,1,4,0:0:0:0:
256,192,10393,1,0,0:0:0:0:
256,192,10566,1,8,0:0:0:0:
256,192,10738,1,0,0:0:0:0:
256,192,10824,1,0,0:0:0:0:
256,192,10910,1,8,0:0:0:0:
256,192,11083,1,0,0:0:0:0:
256,192,11255,1,8,0:0:0:0:
256,192,11428,1,0,0:0:0:0:
256,192,11600,1,8,0:0:0:0:
256,192,11772,1,8,0:0:0:0:
256,192,11859,1,8,0:0:0:0:
256,192,11945,1,0,0:0:0:0:
256,192,12117,1,8,0:0:0:0:
256,192,12290,1,8,0:0:0:0:
256,192,12462,1,0,0:0:0:0:
256,192,12634,1,0,0:0:0:0:
256,192,12807,1,12,0:0:0:0:
256,192,13152,1,0,0:0:0:0:
256,192,13324,1,8,0:0:0:0:
256,192,13497,1,0,0:0:0:0:
256,192,13669,1,8,0:0:0:0:
256,192,13755,1,8,0:0:0:0:
256,192,13841,1,0,0:0:0:0:
256,192,14014,1,8,0:0:0:0:
256,192,14186,1,8,0:0:0:0:
256,192,14359,1,0,0:0:0:0:
256,192,14531,1,0,0:0:0:0:
256,192,14617,1,0,0:0:0:0:
256,192,14703,1,8,0:0:0:0:
256,192,14876,1,0,0:0:0:0:
256,192,15048,1,8,0:0:0:0:
256,192,15134,1,8,0:0:0:0:
256,192,15221,1,0,0:0:0:0:
256,192,15307,1,0,0:0:0:0:
256,192,15393,1,0,0:0:0:0:
256,192,15566,1,12,0:0:0:0:
256,192,15910,1,0,0:0:0:0:
256,192,16083,1,8,0:0:0:0:
256,192,16428,1,8,0:0:0:0:
256,192,16772,1,0,0:0:0:0:
256,192,17117,1,8,0:0:0:0:
256,192,17462,1,0,0:0:0:0:
256,192,17807,1,4,0:0:0:0:
256,192,17979,1,4,0:0:0:0:
256,192,18324,1,12,0:0:0:0:
256,192,18669,1,0,0:0:0:0:
256,192,18841,1,8,0:0:0:0:
256,192,19014,1,0,0:0:0:0:
256,192,19100,1,0,0:0:0:0:
256,192,19186,1,0,0:0:0:0:
256,192,19359,1,8,0:0:0:0:
256,192,19617,1,0,0:0:0:0:
256,192,19703,1,8,0:0:0:0:
256,192,20048,1,0,0:0:0:0:
256,192,20221,1,8,0:0:0:0:
256,192,20566,1,0,0:0:0:0:
256,192,20738,1,0,0:0:0:0:
256,192,21083,1,8,0:0:0:0:
256,192,21428,1,0,0:0:0:0:
256,192,21600,1,8,0:0:0:0:
256,192,21772,1,0,0:0:0:0:
256,192,21859,1,0,0:0:0:0:
256,192,21945,1,8,0:0:0:0:
256,192,22117,1,0,0:0:0:0:
256,192,22462,1,8,0:0:0:0:
256,192,22807,1,0,0:0:0:0:
256,192,22979,1,8,0:0:0:0:
256,192,23324,1,0,0:0:0:0:
256,192,23497,1,0,0:0:0:0:
256,192,23841,1,8,0:0:0:0:
256,192,24186,1,0,0:0:0:0:
256,192,24359,1,8,0:0:0:0:
256,192,24703,1,8,0:0:0:0:
256,192,24876,1,0,0:0:0:0:
256,192,25048,1,0,0:0:0:0:
256,192,25221,1,8,0:0:0:0:
256,192,25307,1,8,0:0:0:0:
256,192,25393,1,0,0:0:0:0:
256,192,25566,1,0,0:0:0:0:
256,192,25738,1,8,0:0:0:0:
256,192,26083,1,0,0:0:0:0:
256,192,26255,1,0,0:0:0:0:
256,192,26600,1,12,0:0:0:0:
256,192,28841,1,4,0:0:0:0:
256,192,29014,1,4,0:0:0:0:
256,192,29359,1,12,0:0:0:0:
256,192,29703,1,0,0:0:0:0:
256,192,29876,1,8,0:0:0:0:
256,192,30221,1,0,0:0:0:0:
256,192,30393,1,0,0:0:0:0:
256,192,30566,1,8,0:0:0:0:
256,192,30738,1,0,0:0:0:0:
256,192,30824,1,0,0:0:0:0:
256,192,30910,1,0,0:0:0:0:
256,192,31083,1,0,0:0:0:0:
256,192,31255,1,8,0:0:0:0:
256,192,31600,1,4,0:0:0:0:
256,192,31772,1,4,0:0:0:0:
256,192,32117,1,12,0:0:0:0:
256,192,32462,1,0,0:0:0:0:
256,192,32634,1,8,0:0:0:0:
256,192,32979,1,0,0:0:0:0:
256,192,33152,1,0,0:0:0:0:
256,192,33238,1,0,0:0:0:0:
256,192,33324,1,8,0:0:0:0:
256,192,33497,1,8,0:0:0:0:
256,192,33669,1,0,0:0:0:0:
256,192,33841,1,0,0:0:0:0:
256,192,34014,1,8,0:0:0:0:
256,192,34359,1,4,0:0:0:0:
256,192,34531,1,4,0:0:0:0:
256,192,34876,1,12,0:0:0:0:
256,192,35221,1,0,0:0:0:0:
256,192,35393,1,8,0:0:0:0:
256,192,35738,1,0,0:0:0:0:
256,192,35910,1,0,0:0:0:0:
256,192,36083,1,8,0:0:0:0:
256,192,36255,1,8,0:0:0:0:
256,192,36341,1,8,0:0:0:0:
256,192,36428,1,0,0:0:0:0:
256,192,36600,1,0,0:0:0:0:
256,192,36772,1,8,0:0:0:0:
256,192,37117,1,4,0:0:0:0:
256,192,37290,1,4,0:0:0:0:
256,192,37634,1,12,0:0:0:0:
256,192,37979,1,0,0:0:0:0:
256,192,38152,1,8,0:0:0:0:
256,192,38324,1,0,0:0:0:0:
256,192,38497,1,0,0:0:0:0:
256,192,38583,1,0,0:0:0:0:
256,192,38669,1,0,0:0:0:0:
256,192,38841,1,8,0:0:0:0:
256,192,39014,1,8,0:0:0:0:
256,192,39100,1,8,0:0:0:0:
256,192,39186,1,0,0:0:0:0:
256,192,39359,1,0,0:0:0:0:
256,192,39531,1,8,0:0:0:0:
256,192,39703,1,0,0:0:0:0:
256,192,39876,1,8,0:0:0:0:
256,192,39991,1,0,0:0:0:0:
256,192,40106,1,0,0:0:0:0:
256,192,40221,1,8,0:0:0:0:
256,192,40336,1,0,0:0:0:0:
256,192,40451,1,0,0:0:0:0:
256,192,40566,1,8,0:0:0:0:
256,192,41083,1,0,0:0:0:0:
256,192,41255,1,8,0:0:0:0:
256,192,41600,1,0,0:0:0:0:
256,192,41772,1,8,0:0:0:0:
256,192,41945,1,0,0:0:0:0:
256,192,42117,1,0,0:0:0:0:
256,192,42290,1,8,0:0:0:0:
256,192,42462,1,0,0:0:0:0:
256,192,42634,1,8,0:0:0:0:
256,192,42979,1,0,0:0:0:0:
256,192,43324,1,0,0:0:0:0:
256,192,43497,1,8,0:0:0:0:
256,192,43841,1,0,0:0:0:0:
256,192,44014,1,8,0:0:0:0:
256,192,44186,1,8,0:0:0:0:
256,192,44359,1,0,0:0:0:0:
256,192,44703,1,0,0:0:0:0:
256,192,44876,1,8,0:0:0:0:
256,192,45048,1,0,0:0:0:0:
256,192,45221,1,0,0:0:0:0:
256,192,45393,1,8,0:0:0:0:
256,192,45566,1,0,0:0:0:0:
256,192,45738,1,0,0:0:0:0:
256,192,46083,1,4,0:0:0:0:
256,192,46600,1,0,0:0:0:0:
256,192,46772,1,8,0:0:0:0:
256,192,47117,1,0,0:0:0:0:
256,192,47290,1,8,0:0:0:0:
256,192,47462,1,0,0:0:0:0:
256,192,47634,1,0,0:0:0:0:
256,192,47807,1,8,0:0:0:0:
256,192,47979,1,8,0:0:0:0:
256,192,48152,1,0,0:0:0:0:
256,192,48497,1,8,0:0:0:0:
256,192,48841,1,0,0:0:0:0:
256,192,49186,1,0,0:0:0:0:
256,192,49359,1,0,0:0:0:0:
256,192,49531,1,8,0:0:0:0:
256,192,49876,1,0,0:0:0:0:
256,192,50048,1,0,0:0:0:0:
256,192,50393,1,8,0:0:0:0:
256,192,50566,1,0,0:0:0:0:
256,192,50910,1,8,0:0:0:0:
256,192,51083,1,0,0:0:0:0:
256,192,51255,1,8,0:0:0:0:
256,192,51600,1,4,0:0:0:0:
256,192,51945,1,8,0:0:0:0:
256,192,52290,1,0,0:0:0:0:
256,192,52462,1,0,0:0:0:0:
256,192,52634,1,8,0:0:0:0:
256,192,52807,1,0,0:0:0:0:
256,192,52893,1,0,0:0:0:0:
256,192,52979,1,0,0:0:0:0:
256,192,53152,1,0,0:0:0:0:
256,192,53324,1,8,0:0:0:0:
256,192,53669,1,0,0:0:0:0:
256,192,53841,1,0,0:0:0:0:
256,192,54014,1,8,0:0:0:0:
256,192,54186,1,0,0:0:0:0:
256,192,54359,1,8,0:0:0:0:
256,192,54531,1,8,0:0:0:0:
256,192,54617,1,8,0:0:0:0:
256,192,54703,1,0,0:0:0:0:
256,192,54876,1,8,0:0:0:0:
256,192,55048,1,0,0:0:0:0:
256,192,55221,1,8,0:0:0:0:
256,192,55307,1,8,0:0:0:0:
256,192,55393,1,0,0:0:0:0:
256,192,55479,1,0,0:0:0:0:
256,192,55566,1,8,0:0:0:0:
256,192,55738,1,0,0:0:0:0:
256,192,55910,1,8,0:0:0:0:
256,192,55997,1,8,0:0:0:0:
256,192,56083,1,0,0:0:0:0:
256,192,56169,1,0,0:0:0:0:
256,192,56255,1,0,0:0:0:0:
256,192,56428,1,8,0:0:0:0:
256,192,56600,1,8,0:0:0:0:
256,192,56772,1,0,0:0:0:0:
256,192,57117,1,8,0:0:0:0:
256,192,57203,1,0,0:0:0:0:
256,192,57290,1,8,0:0:0:0:
256,192,57376,1,8,0:0:0:0:
256,192,57462,1,0,0:0:0:0:
256,192,57634,1,8,0:0:0:0:
256,192,57807,1,0,0:0:0:0:
256,192,57893,1,0,0:0:0:0:
256,192,57979,1,0,0:0:0:0:
256,192,58066,1,0,0:0:0:0:
256,192,58152,1,8,0:0:0:0:
256,192,58324,1,4,0:0:0:0:
256,192,59359,1,0,0:0:0:0:
256,192,59445,1,0,0:0:0:0:
256,192,59531,1,8,0:0:0:0:
256,192,59876,1,4,0:0:0:0:
256,192,60221,1,8,0:0:0:0:
256,192,60393,1,0,0:0:0:0:
256,192,60479,1,0,0:0:0:0:
256,192,60566,1,0,0:0:0:0:
256,192,60738,1,0,0:0:0:0:
256,192,60910,1,8,0:0:0:0:
256,192,61083,1,8,0:0:0:0:
256,192,61169,1,8,0:0:0:0:
256,192,61255,1,0,0:0:0:0:
256,192,61428,1,0,0:0:0:0:
256,192,61600,1,8,0:0:0:0:
256,192,61772,1,0,0:0:0:0:
256,192,61859,1,0,0:0:0:0:
256,192,61945,1,0,0:0:0:0:
256,192,62117,1,0,0:0:0:0:
256,192,62290,1,8,0:0:0:0:
256,192,62634,1,0,0:0:0:0:
256,192,62807,1,0,0:0:0:0:
256,192,62893,1,0,0:0:0:0:
256,192,62979,1,8,0:0:0:0:
256,192,63152,1,8,0:0:0:0:
256,192,63238,1,8,0:0:0:0:
256,192,63324,1,0,0:0:0:0:
256,192,63497,1,0,0:0:0:0:
256,192,63669,1,8,0:0:0:0:
256,192,63841,1,0,0:0:0:0:
256,192,63928,1,8,0:0:0:0:
256,192,64014,1,0,0:0:0:0:
256,192,64100,1,0,0:0:0:0:
256,192,64186,1,0,0:0:0:0:
256,192,64359,1,8,0:0:0:0:
256,192,64531,1,8,0:0:0:0:
256,192,64617,1,8,0:0:0:0:
256,192,64703,1,0,0:0:0:0:
256,192,64876,1,0,0:0:0:0:
256,192,65048,1,8,0:0:0:0:
256,192,65221,1,0,0:0:0:0:
256,192,65393,1,4,0:0:0:0:
256,192,65738,1,8,0:0:0:0:
256,192,65910,1,0,0:0:0:0:
256,192,65997,1,0,0:0:0:0:
256,192,66083,1,8,0:0:0:0:
256,192,66255,1,0,0:0:0:0:
256,192,66428,1,8,0:0:0:0:
256,192,66600,1,12,0:0:0:0:
256,192,66945,1,0,0:0:0:0:
256,192,67117,1,8,0:0:0:0:
256,192,67290,1,0,0:0:0:0:
256,192,67376,1,8,0:0:0:0:
256,192,67462,1,0,0:0:0:0:
256,192,67634,1,0,0:0:0:0:
256,192,67807,1,8,0:0:0:0:
256,192,67979,1,0,0:0:0:0:
256,192,68152,1,8,0:0:0:0:
256,192,68324,1,8,0:0:0:0:
256,192,68410,1,8,0:0:0:0:
256,192,68497,1,0,0:0:0:0:
256,192,68583,1,0,0:0:0:0:
256,192,68669,1,8,0:0:0:0:
256,192,68841,1,0,0:0:0:0:
256,192,69014,1,0,0:0:0:0:
256,192,69100,1,8,0:0:0:0:
256,192,69186,1,8,0:0:0:0:
256,192,69359,1,12,0:0:0:0:
256,192,69703,1,0,0:0:0:0:
256,192,69876,1,8,0:0:0:0:
256,192,70048,1,4,0:0:0:0:
256,192,70393,1,0,0:0:0:0:
256,192,70566,1,8,0:0:0:0:
256,192,70652,1,8,0:0:0:0:
256,192,70738,1,8,0:0:0:0:
256,192,70824,1,8,0:0:0:0:
256,192,70910,1,0,0:0:0:0:
256,192,71083,1,0,0:0:0:0:
256,192,71255,1,8,0:0:0:0:
256,192,71428,1,0,0:0:0:0:
256,192,71514,1,0,0:0:0:0:
256,192,71600,1,8,0:0:0:0:
256,192,71772,1,0,0:0:0:0:
256,192,71945,1,8,0:0:0:0:
256,192,72290,1,8,0:0:0:0:
256,192,72462,1,0,0:0:0:0:
256,192,72548,1,0,0:0:0:0:
256,192,72634,1,8,0:0:0:0:
256,192,72807,1,0,0:0:0:0:
256,192,72979,1,8,0:0:0:0:
256,192,73066,1,8,0:0:0:0:
256,192,73152,1,0,0:0:0:0:
256,192,73238,1,0,0:0:0:0:
256,192,73324,1,8,0:0:0:0:
256,192,73497,1,0,0:0:0:0:
256,192,73669,1,8,0:0:0:0:
256,192,74014,1,8,0:0:0:0:
256,192,74186,1,0,0:0:0:0:
256,192,74272,1,0,0:0:0:0:
256,192,74359,1,8,0:0:0:0:
256,192,74445,1,8,0:0:0:0:
256,192,74531,1,0,0:0:0:0:
256,192,74703,1,8,0:0:0:0:
256,192,74876,1,0,0:0:0:0:
256,192,74962,1,0,0:0:0:0:
256,192,75048,1,8,0:0:0:0:
256,192,75221,1,0,0:0:0:0:
256,192,75393,1,0,0:0:0:0:
256,192,75566,1,8,0:0:0:0:
256,192,75910,1,0,0:0:0:0:
256,192,76083,1,8,0:0:0:0:
256,192,76255,1,8,0:0:0:0:
256,192,76428,1,0,0:0:0:0:
256,192,76600,1,8,0:0:0:0:
256,192,76772,1,0,0:0:0:0:
256,192,76945,1,0,0:0:0:0:
256,192,77117,1,8,0:0:0:0:
256,192,77462,1,8,0:0:0:0:
256,192,77634,1,0,0:0:0:0:
256,192,77807,1,8,0:0:0:0:
256,192,77979,1,8,0:0:0:0:
256,192,78152,1,0,0:0:0:0:
256,192,78497,1,0,0:0:0:0:
256,192,78669,1,8,0:0:0:0:
256,192,78841,1,8,0:0:0:0:
256,192,78928,1,8,0:0:0:0:
256,192,79014,1,0,0:0:0:0:
256,192,79186,1,4,0:0:0:0:
256,192,79531,1,8,0:0:0:0:
256,192,79703,1,0,0:0:0:0:
256,192,79876,1,8,0:0:0:0:
256,192,79962,1,8,0:0:0:0:
256,192,80048,1,0,0:0:0:0:
256,192,80134,1,0,0:0:0:0:
256,192,80221,1,8,0:0:0:0:
256,192,80393,1,4,0:0:0:0:
256,192,80738,1,0,0:0:0:0:
256,192,80910,1,8,0:0:0:0:
256,192,80997,1,8,0:0:0:0:
256,192,81083,1,8,0:0:0:0:
256,192,81169,1,8,0:0:0:0:
256,192,81255,1,0,0:0:0:0:
256,192,81428,1,0,0:0:0:0:
256,192,81514,1,0,0:0:0:0:
256,192,81600,1,8,0:0:0:0:
256,192,81772,1,0,0:0:0:0:
256,192,81859,1,8,0:0:0:0:
256,192,81945,1,0,0:0:0:0:
256,192,82117,1,0,0:0:0:0:
256,192,82290,1,8,0:0:0:0:
256,192,82462,1,0,0:0:0:0:
256,192,82548,1,0,0:0:0:0:
256,192,82634,1,8,0:0:0:0:
256,192,82721,1,8,0:0:0:0:
256,192,82807,1,0,0:0:0:0:
256,192,82979,1,8,0:0:0:0:
256,192,83152,1,0,0:0:0:0:
256,192,83497,1,0,0:0:0:0:
256,192,83669,1,8,0:0:0:0:
256,192,83755,1,0,0:0:0:0:
256,192,83841,1,8,0:0:0:0:
256,192,83928,1,8,0:0:0:0:
256,192,84014,1,0,0:0:0:0:
256,192,84186,1,0,0:0:0:0:
256,192,84359,1,8,0:0:0:0:
256,192,84703,1,0,0:0:0:0:
256,192,84876,1,0,0:0:0:0:
256,192,84962,1,0,0:0:0:0:
256,192,85048,1,8,0:0:0:0:
256,192,85221,1,0,0:0:0:0:
256,192,85393,1,8,0:0:0:0:
256,192,85479,1,8,0:0:0:0:
256,192,85566,1,0,0:0:0:0:
256,192,85652,1,0,0:0:0:0:
256,192,85738,1,0,0:0:0:0:
256,192,85910,1,12,0:0:0:0:
256,192,86476,1,8,0:0:0:0:
256,192,86820,1,0,0:0:0:0:
256,192,87165,1,8,0:0:0:0:
