osu file format v14

[General]
AudioFilename: yanaginagi - Harumodoki.mp3
AudioLeadIn: 2000
PreviewTime: 60250
Countdown: 0
SampleSet: Soft
StackLeniency: 0.7
Mode: 0
LetterboxInBreaks: 0
WidescreenStoryboard: 0

[Editor]
Bookmarks: 28440,60250
DistanceSpacing: 2
BeatDivisor: 4
GridSize: 4
TimelineZoom: 3.230005

[Metadata]
Title:Haru Modoki
TitleUnicode:春擬き
Artist:yanaginagi
ArtistUnicode:やなぎなぎ
Creator:Kyle Y
Version:Hard
Source:やはり俺の青春ラブコメはまちがっている。続
Tags:yahari ore no seishun love comedy wa machigatteiru zoku Oregairu my teen romantic snafu opening 2nd season StarForYou walaowey Del05 TV Size Nardoxyribonucleic
BeatmapID:684590
BeatmapSetID:305737

[Difficulty]
HPDrainRate:5
CircleSize:3.5
OverallDifficulty:6
ApproachRate:7
SliderMultiplier:1.4
SliderTickRate:1

[Events]
//Background and Video events
0,0,"Bg Image.jpg",0,0
Video,0,"yanaginagi - Haru Modoki.avi"
//Break Periods
2,27174,28315
//Storyboard Layer 0 (Background)
//Storyboard Layer 1 (Fail)
//Storyboard Layer 2 (Pass)
//Storyboard Layer 3 (Foreground)
//Storyboard Sound Samples

[TimingPoints]
940,344.827586206897,4,2,1,30,1,0
940,-133.333333333333,4,2,1,30,0,0
7664,-100,4,2,1,50,0,0
17146,-100,4,2,1,20,0,0
17491,-100,4,2,1,50,0,0
17836,-100,4,2,1,20,0,0
18181,-100,4,2,1,40,0,0
18871,-133.333333333333,4,2,1,50,0,0
29215,-133.333333333333,4,2,1,30,0,0
29733,-100,4,2,1,50,0,0
40250,-100,4,2,1,30,0,0
40940,-133.333333333333,4,2,1,50,0,0
44733,-133.333333333333,4,2,1,30,0,0
45077,-133.333333333333,4,2,1,50,0,0
51974,-100,4,2,1,50,0,0
60250,-100,4,2,1,60,0,1
70940,-100,4,2,1,40,0,1
71284,-100,4,2,1,60,0,1
82319,-100,4,2,1,60,0,0
85077,-133.333333333333,4,2,1,60,0,0
86802,-133.333333333333,4,2,1,35,0,0
87577,-133.333333333333,4,2,1,40,0,0
89215,-133.333333333333,4,2,1,10,0,0

[Colours]
Combo1 : 255,255,0
Combo2 : 255,128,128
Combo3 : 158,0,93

[HitObjects]
91,123,940,6,0,P|102:72|135:29,1,105.000004005432,6|0,2:0|2:0,2:0:0:0:
215,123,1629,2,0,L|314:156,1,105.000004005432,0|0,2:0|2:0,2:0:0:0:
420,223,2319,6,0,P|365:233|318:269,1,105.000004005432,6|0,0:0|0:0,0:0:0:0:
221,328,3008,2,0,L|182:228,1,105.000004005432,0|0,2:0|2:0,2:0:0:0:
137,113,3698,5,4,2:0:0:0:
137,113,4043,2,0,P|185:81|253:81,1,105.000004005432,0|0,2:0|2:0,2:0:0:0:
360,82,4733,1,0,2:0:0:0:
476,134,5077,5,4,2:0:0:0:
476,134,5422,2,0,L|476:245,1,105.000004005432,0|0,2:0|2:0,2:0:0:0:
379,320,6112,1,0,2:0:0:0:
258,282,6457,6,0,B|214:275|178:285|178:285|147:256|140:214,1,157.500006008148,0|0,2:0|2:0,2:0:0:0:
130,126,7146,2,2,L|128:84,5,26.2500010013581,8|2|10|2|10|2,2:0|2:0|2:0|2:0|2:0|2:0,2:0:0:0:
129,64,7664,6,0,P|197:39|276:51,1,140,4|0,2:0|2:0,2:0:0:0:
346,32,8181,2,0,L|358:111,1,70,10|0,2:0|2:0,2:0:0:0:
403,171,8526,2,0,L|471:222,2,70,2|0|10,2:0|2:0|2:0,2:0:0:0:
320,180,9043,1,0,2:0:0:0:
246,220,9215,6,0,P|208:230|167:216,1,70,2|0,2:0|2:0,2:0:0:0:
131,153,9560,1,10,2:0:0:0:
50,126,9733,1,2,2:0:0:0:
50,126,9905,2,0,L|18:219,1,70
44,274,10250,1,10,2:0:0:0:
147,317,10422,6,0,P|211:341|295:329,1,140,4|0,2:0|2:0,2:0:0:0:
259,253,10940,2,0,P|223:257|187:241,1,70,10|0,2:0|2:0,2:0:0:0:
150,172,11284,2,0,L|71:153,2,70,2|0|10,2:0|2:0|2:0,2:0:0:0:
234,157,11802,1,0,2:0:0:0:
274,83,11974,6,0,L|255:3,2,70,2|0|10,2:0|2:0|2:0,2:0:0:0:
329,146,12491,1,0,2:0:0:0:
388,84,12664,2,0,L|404:-8,2,70,2|0|10,2:0|2:0|2:0,2:0:0:0:
407,188,13181,6,0,P|430:255|392:319,1,140,4|0,2:0|2:0,2:0:0:0:
348,247,13698,2,0,L|279:231,1,70,10|0,2:0|2:0,2:0:0:0:
165,286,14043,2,0,L|234:302,1,70,2|0,2:0|2:0,2:0:0:0:
200,210,14388,2,0,L|131:194,1,70,10|0,2:0|2:0,2:0:0:0:
46,190,14733,6,0,P|54:156|77:130,1,70,2|0,2:0|2:0,2:0:0:0:
155,102,15077,2,0,L|224:118,1,70,10|0,2:0|2:0,2:0:0:0:
302,144,15422,1,2,2:0:0:0:
319,155,15508,1,0,2:0:0:0:
335,168,15595,2,0,P|338:206|325:239,1,70,8|10,2:0|2:0,2:0:0:0:
231,317,15940,1,0,0:0:0:0:
155,102,16284,5,0,0:0:0:0:
210,5,16457,1,0,0:0:0:0:
396,44,16802,1,2,2:0:0:0:
416,234,17146,1,10,2:0:0:0:
243,313,17491,1,2,2:0:0:0:
114,171,17836,1,10,2:0:0:0:
210,5,18181,5,0,2:2:0:0:
241,132,18353,1,10,2:2:0:0:
241,132,18698,2,0,L|373:64,1,140,0|2,2:0|2:0,2:0:0:0:
402,143,19215,6,0,L|338:178,1,52.5000020027161,10|2,2:0|2:0,2:0:0:0:
285,212,19560,1,2,2:0:0:0:
267,294,19733,2,0,P|306:296|341:278,1,78.7500030040742,0|2,2:0|2:0,2:0:0:0:
364,243,20077,1,10,2:0:0:0:
197,220,20422,2,0,L|189:272,2,52.5000020027161,0|10|0,2:0|2:0|2:0,2:0:0:0:
219,134,20940,5,2,2:2:0:0:
279,51,21112,1,2,2:2:0:0:
279,51,21457,2,0,P|315:96|320:156,1,105.000004005432,10|0,2:0|2:0,2:0:0:0:
276,208,21974,6,0,L|251:254,1,52.5000020027161,10|0,2:0|2:0,2:0:0:0:
324,296,22319,2,0,L|299:342,2,52.5000020027161,2|0|2,2:0|2:0|2:0,2:0:0:0:
404,320,22836,6,0,L|454:219,1,105.000004005432,10|2,2:0|2:0,2:0:0:0:
428,144,23353,2,0,P|396:136|356:136,1,52.5000020027161,10|0,2:0|2:0,2:0:0:0:
292,136,23698,1,0,0:0:0:0:
269,233,23871,1,0,0:0:0:0:
269,233,24215,6,0,P|215:243|170:221,1,105.000004005432,8|0,2:0|2:0,2:0:0:0:
227,158,24733,2,0,L|235:105,1,52.5000020027161,10|0,2:0|2:0,2:0:0:0:
243,23,25077,1,2,2:0:0:0:
161,45,25250,1,2,2:0:0:0:
48,183,25595,1,2,2:0:0:0:
219,235,25940,5,2,2:0:0:0:
288,290,26112,2,0,B|262:323|224:332|179:315,1,105.000004005432,10|2,2:0|2:0,2:0:0:0:
122,238,26629,1,10,2:0:0:0:
259,79,26974,1,2,2:0:0:0:
206,106,29215,5,10,2:2:0:0:
305,176,29387,1,2,2:2:0:0:
305,176,29733,2,0,P|251:219|182:226,1,140,6|0,2:0|2:0,2:0:0:0:
114,176,30250,6,0,L|96:260,1,70,10|0,2:0|2:0,2:0:0:0:
54,315,30595,2,0,L|-17:253,2,70,0|0|10,2:0|2:0|2:0,2:0:0:0:
137,325,31112,1,0,2:0:0:0:
220,321,31284,6,0,P|283:342|361:311,1,140,2|10,2:0|2:0,2:0:0:0:
368,236,31802,1,0,2:0:0:0:
283,229,31974,2,0,L|235:147,1,70,2|0,2:0|2:0,2:0:0:0:
258,84,32319,1,10,2:0:0:0:
164,24,32491,6,0,B|112:51|63:45|63:45|37:103,1,140,4|2,2:0|2:0,2:0:0:0:
31,161,33008,1,10,2:0:0:0:
69,235,33181,1,0,2:0:0:0:
121,169,33353,2,0,P|160:164|205:149,1,70,2|0,2:0|2:0,2:0:0:0:
265,119,33698,2,0,L|336:161,1,70,10|0,2:0|2:0,2:0:0:0:
314,238,34043,5,2,2:0:0:0:
346,315,34215,2,8,P|377:291|395:255,2,70,0|10|0,2:0|2:0|2:0,2:0:0:0:
261,323,34733,2,0,B|223:304|187:320,1,70,2|0,2:0|2:0,2:0:0:0:
111,337,35077,1,10,2:0:0:0:
38,247,35250,6,0,P|28:180|70:127,1,140,6|2,2:0|2:0,2:0:0:0:
108,202,35767,2,0,L|183:211,1,70,10|0,2:0|2:0,2:0:0:0:
243,134,36112,2,0,L|174:126,1,70,0|0,2:0|2:0,2:0:0:0:
258,217,36457,1,10,2:0:0:0:
308,284,36629,6,0,L|384:252,1,70,0|2,2:0|2:0,2:0:0:0:
447,219,36974,1,0,2:0:0:0:
472,139,37146,2,0,L|459:70,1,70,10|2,2:0|2:0,2:0:0:0:
390,21,37491,2,0,L|321:33,1,70,2|2,2:0|2:0,2:0:0:0:
237,45,37836,1,10,2:0:0:0:
132,88,38008,6,0,B|85:97|46:86|46:86|30:109|31:141,1,140,4|0,2:0|2:0,2:0:0:0:
36,220,38526,2,0,L|72:285,1,70,10|0,2:0|2:0,2:0:0:0:
175,298,38871,2,0,L|142:237,1,70,2|0,2:0|2:0,2:0:0:0:
189,168,39215,1,10,2:0:0:0:
261,210,39388,6,0,L|294:271,2,70,0|2|0,2:0|2:0|2:0,2:0:0:0:
289,130,39905,1,10,2:0:0:0:
367,158,40077,1,0,2:0:0:0:
429,101,40250,2,0,L|454:38,2,46.6666666666667,2|2|2,2:0|2:0|2:0,2:0:0:0:
449,183,40595,2,0,L|507:232,2,46.6666666666667,10|2|2,2:0|2:0|2:0,2:0:0:0:
376,249,40940,5,4,0:0:0:0:
91,72,41629,2,0,P|52:107|39:157,1,105.000004005432,2|2,2:0|2:0,2:0:0:0:
75,234,42146,1,0,2:0:0:0:
145,280,42319,6,0,P|199:286|256:260,1,105.000004005432,2|0,2:0|2:0,2:0:0:0:
275,189,42836,1,0,2:0:0:0:
349,227,43008,2,0,L|368:275,1,52.5000020027161,2|0,2:0|2:0,2:0:0:0:
435,204,43353,2,0,L|415:155,1,52.5000020027161,2|0,2:0|2:0,2:0:0:0:
367,61,43698,6,0,B|307:37|258:78,1,105.000004005432,2|2,2:0|2:0,2:0:0:0:
188,101,44215,1,0,2:0:0:0:
144,172,44388,2,0,P|192:185|244:164,1,105.000004005432,2|2,2:0|2:0,2:0:0:0:
325,152,44905,1,0,2:0:0:0:
367,61,45077,6,0,B|399:112,1,52.5000020027161,2|0,2:0|2:0,2:0:0:0:
468,173,45422,2,0,B|449:222,1,52.5000020027161,2|0,2:0|2:0,2:0:0:0:
353,252,45767,2,0,B|334:301,1,52.5000020027161,2|0,2:0|2:0,2:0:0:0:
248,248,46112,2,0,B|220:203,1,52.5000020027161,2|0,2:0|2:0,2:0:0:0:
159,315,46457,6,0,P|110:333|58:324,1,105.000004005432,6|2,2:0|2:0,2:0:0:0:
18,250,46974,1,0,2:0:0:0:
100,231,47146,2,0,P|116:175|172:139,1,105.000004005432,2|10,2:0|2:0,2:0:0:0:
316,113,47836,6,0,B|368:128|425:96,1,105.000004005432,2|10,2:0|2:0,2:0:0:0:
460,28,48353,1,0,0:0:0:0:
512,96,48526,2,0,L|508:212,1,105.000004005432
492,284,49043,1,2,2:0:0:0:
409,303,49215,6,0,P|339:316|284:308,1,105.000004005432,2|10,2:0|2:0,2:0:0:0:
241,258,49733,1,0,2:0:0:0:
146,287,49905,2,0,L|159:237,1,52.5000020027161,2|0,2:0|2:0,2:0:0:0:
186,352,50250,2,0,P|136:363|91:339,1,105.000004005432,10|0,2:0|2:0,2:0:0:0:
45,268,50767,5,0,2:0:0:0:
21,187,50940,1,10,2:0:0:0:
176,46,51284,1,10,2:0:0:0:
385,61,51629,1,10,2:0:0:0:
471,252,51974,6,0,L|394:302,1,70,2|0,2:0|2:0,2:0:0:0:
340,333,52319,2,0,P|298:272|219:255,1,140,10|2,2:0|2:0,2:0:0:0:
167,300,52836,1,0,2:0:0:0:
98,251,53008,2,0,P|88:172|134:101,1,140,10|2,2:0|2:0,2:0:0:0:
188,79,53526,5,0,2:0:0:0:
281,72,53698,2,0,L|359:111,1,70,10|0,2:0|2:0,2:0:0:0:
295,172,54043,2,0,L|343:244,1,70,10|0,2:0|2:0,2:0:0:0:
257,265,54388,2,0,L|262:352,1,70,10|0,2:0|2:0,2:0:0:0:
177,326,54733,5,6,2:0:0:0:
256,192,54819,12,6,57146,2:0:0:0:
183,71,57491,5,2,2:0:0:0:
172,156,57664,1,0,2:0:0:0:
188,240,57836,2,8,P|151:238|115:218,2,70,10|0|2,2:0|2:0|2:0,2:0:0:0:
268,212,58353,1,0,2:0:0:0:
328,306,58526,1,10,2:0:0:0:
400,194,58698,5,4,2:0:0:0:
374,39,59733,2,0,L|290:43,1,70,0|0,2:0|2:0,2:0:0:0:
136,56,60250,6,0,P|100:68|72:96,1,70,6|0,2:0|2:0,2:0:0:0:
60,172,60595,1,8,2:0:0:0:
60,172,60767,1,0,2:0:0:0:
136,204,60940,2,0,P|163:239|171:279,1,70,2|0,2:0|2:0,2:0:0:0:
136,340,61284,1,10,2:0:0:0:
136,340,61457,1,0,2:0:0:0:
220,344,61629,6,0,L|304:312,1,70,2|0,2:0|2:0,2:0:0:0:
368,336,61974,1,10,2:0:0:0:
372,252,62146,1,0,2:0:0:0:
449,220,62319,2,0,P|396:172|327:182,1,140,2|10,2:0|2:0,2:0:0:0:
244,246,62836,1,0,2:0:0:0:
226,267,62922,1,0,2:0:0:0:
207,287,63008,6,0,L|131:262,1,70,2|0,2:0|2:0,2:0:0:0:
109,166,63353,2,0,L|176:188,1,70,8|0,2:0|2:0,2:0:0:0:
279,134,63698,2,0,L|212:112,1,70,2|0,2:0|2:0,2:0:0:0:
309,55,64043,1,10,2:0:0:0:
365,116,64215,1,0,2:0:0:0:
323,220,64388,6,0,L|363:277,2,70,2|0|8,2:0|2:0|2:0,2:0:0:0:
210,205,64905,2,0,L|250:262,1,70,0|2,2:0|2:0,2:0:0:0:
198,328,65250,1,0,2:0:0:0:
114,319,65422,2,0,L|74:262,1,70,10|0,2:0|2:0,2:0:0:0:
45,153,65767,6,0,P|55:82|119:45,1,140,6|8,2:0|2:0,2:0:0:0:
188,72,66284,1,0,2:0:0:0:
272,65,66457,2,0,L|359:87,1,70,0|10,2:0|2:0,2:0:0:0:
473,143,66802,1,0,0:0:0:0:
473,143,66974,6,0,B|424:132|424:132|317:188,1,140,6|2,2:0|2:0,2:0:0:0:
266,206,67491,2,0,L|300:269,1,70,10|0,2:0|2:0,2:0:0:0:
240,327,67836,2,0,L|173:203,1,140,2|10,2:0|2:0,2:0:0:0:
89,193,68353,1,0,2:0:0:0:
113,112,68526,6,0,L|173:77,1,70,6|0,2:0|2:0,2:0:0:0:
296,97,68871,2,0,L|236:132,1,70,10|0,2:0|2:0,2:0:0:0:
216,240,69215,2,0,L|276:205,1,70,2|0,2:0|2:0,2:0:0:0:
351,243,69560,1,10,2:0:0:0:
285,334,69733,6,0,P|340:304|444:322,1,140,6|2,2:0|2:0,2:0:0:0:
472,245,70250,2,0,L|458:176,1,70,8|6,2:0|2:0,2:0:0:0:
369,67,70595,2,0,L|383:136,1,70,8|2,2:0|2:0,2:0:0:0:
351,243,70940,1,10,2:0:0:0:
330,260,71026,1,2,2:0:0:0:
303,270,71112,1,10,2:0:0:0:
275,271,71198,1,2,2:0:0:0:
247,268,71284,6,0,P|219:252|182:248,1,70,10|0,2:0|2:0,2:0:0:0:
97,243,71629,1,10,2:0:0:0:
39,305,71802,1,0,2:0:0:0:
14,224,71974,2,0,L|17:154,1,70,8|0,2:0|2:0,2:0:0:0:
88,109,72319,2,0,L|91:39,1,70,10|0,2:0|2:0,2:0:0:0:
175,39,72664,6,0,L|171:108,1,70,10|0,2:0|2:0,2:0:0:0:
233,165,73008,1,10,2:0:0:0:
233,165,73181,1,0,2:0:0:0:
311,249,73353,2,0,L|315:180,1,70,10|0,2:0|2:0,2:0:0:0:
252,310,73698,2,0,B|283:344|343:346|379:302,1,140,10|0,2:0|2:0,2:0:0:0:
396,138,74388,6,0,P|353:131|300:145,1,70
202,182,74733,1,10,2:0:0:0:
202,182,75077,6,0,L|148:136,1,70,10|0,2:0|2:0,2:0:0:0:
194,269,75422,2,0,L|260:245,1,70,2|0,2:0|2:0,2:0:0:0:
121,224,75767,2,8,L|108:292,1,70,10|0,2:0|2:0,2:0:0:0:
27,319,76112,2,8,L|39:250,1,70,2|0,2:0|2:0,2:0:0:0:
60,168,76457,2,8,L|72:99,1,70,10|0,2:0|2:0,2:0:0:0:
165,39,76802,5,10,2:2:0:0:
255,74,76974,1,2,2:2:0:0:
264,171,77146,1,10,2:2:0:0:
350,217,77319,1,2,2:2:0:0:
434,167,77491,2,0,P|440:254|405:299,1,140,10|8,2:0|2:0,2:0:0:0:
320,331,78008,1,0,2:0:0:0:
243,269,78181,5,8,2:0:0:0:
166,329,78353,1,2,2:0:0:0:
161,230,78526,2,0,B|119:234|90:267|90:267|30:213,1,140,10|0,2:0|2:0,2:0:0:0:
15,150,79043,1,2,2:0:0:0:
97,133,79215,2,0,L|134:74,1,70,8|0,2:0|2:0,2:0:0:0:
229,50,79560,6,0,L|266:109,1,70,6|0,2:0|2:0,2:0:0:0:
247,191,79905,1,2,2:0:0:0:
330,180,80077,2,0,P|404:198|465:146,1,140,10|2,2:0|2:0,2:0:0:0:
509,101,80595,1,8,2:0:0:0:
383,108,80767,6,0,L|402:270,1,140,4|2,2:0|2:0,2:0:0:0:
332,297,81284,2,0,B|281:272|258:319|194:281,1,140,10|2,2:0|2:0,2:0:0:0:
30,254,81974,2,0,L|40:176,1,70
118,104,82319,5,6,0:0:0:0:
174,166,82491,1,2,2:0:0:0:
245,118,82664,2,0,L|216:55,1,70,10|0,2:0|2:0,2:0:0:0:
330,132,83008,2,0,L|383:71,1,70,2|0,2:0|2:0,2:0:0:0:
365,219,83353,2,0,L|435:237,1,70,8|0,2:0|2:0,2:0:0:0:
299,277,83698,5,2,2:0:0:0:
223,323,83871,1,2,2:0:0:0:
139,319,84043,2,0,L|59:324,1,70,10|0,2:0|2:0,2:0:0:0:
39,247,84388,2,0,L|108:242,1,70,2|0,2:0|2:0,2:0:0:0:
136,162,84733,1,8,2:0:0:0:
53,165,84905,1,0,2:0:0:0:
24,86,85077,5,6,2:0:0:0:
91,34,85250,1,2,2:0:0:0:
160,80,85422,2,0,P|206:114|221:171,1,105.000004005432,8|0,0:0|0:0,0:0:0:0:
221,176,85853,1,2,2:0:0:0:
216,194,85940,1,10,2:0:0:0:
169,263,86112,1,0,0:0:0:0:
245,334,86284,6,0,P|297:353|358:329,1,105.000004005432,12|0,2:0|2:0,2:0:0:0:
412,260,86802,1,2,2:2:0:0:
320,71,87146,1,2,2:2:0:0:
133,167,87491,1,2,2:2:0:0:
256,192,87577,12,0,89215,2:0:0:0:
