osu file format v14

[General]
AudioFilename: yanaginagi - Harumodoki.mp3
AudioLeadIn: 2000
PreviewTime: 60250
Countdown: 0
SampleSet: Soft
StackLeniency: 0.7
Mode: 0
LetterboxInBreaks: 0
WidescreenStoryboard: 0

[Editor]
Bookmarks: 29215,47146,65565,66974,76705,78758,82402,85243,86800
DistanceSpacing: 1
BeatDivisor: 4
GridSize: 4
TimelineZoom: 2.2

[Metadata]
Title:Haru Modoki
TitleUnicode:春擬き
Artist:yanaginagi
ArtistUnicode:やなぎなぎ
Creator:Kyle Y
Version:Easy
Source:やはり俺の青春ラブコメはまちがっている。続
Tags:yahari ore no seishun love comedy wa machigatteiru zoku Oregairu my teen romantic snafu opening 2nd season StarForYou walaowey Del05 TV Size Nardoxyribonucleic
BeatmapID:684589
BeatmapSetID:305737

[Difficulty]
HPDrainRate:2
CircleSize:2
OverallDifficulty:2
ApproachRate:3
SliderMultiplier:1
SliderTickRate:1

[Events]
//Background and Video events
0,0,"Bg Image.jpg",0,0
Video,0,"yanaginagi - Haru Modoki.avi"
//Break Periods
2,27174,28293
//Storyboard Layer 0 (Background)
//Storyboard Layer 1 (Fail)
//Storyboard Layer 2 (Pass)
//Storyboard Layer 3 (Foreground)
//Storyboard Sound Samples

[TimingPoints]
940,344.827586206897,4,2,1,30,1,0
7664,-100,4,2,1,40,0,0
16112,-100,4,2,1,30,0,0
18698,-100,4,2,1,35,0,0
60250,-100,4,2,1,60,0,1
82319,-100,4,2,1,60,0,0
85077,-100,4,2,1,40,0,0
89215,-100,4,2,1,10,0,0

[Colours]
Combo1 : 255,255,0
Combo2 : 255,128,128
Combo3 : 158,0,93

[HitObjects]
106,285,940,6,0,P|159:204|256:192,1,200,0|0,2:0|2:0,2:0:0:0:
445,253,2319,2,0,B|484:151|399:48,1,200,4|0,2:0|2:0,2:0:0:0:
211,67,3698,5,6,0:0:0:0:
470,76,5077,1,4,0:0:0:0:
359,313,6457,6,0,B|279:276|235:340|147:279,1,200
40,208,7664,6,0,P|32:137|79:76,1,150,6|10,0:0|0:0,0:0:0:0:
128,163,8526,2,0,P|165:195|214:199,1,100,2|10,2:0|2:0,2:0:0:0:
278,274,9215,2,0,P|307:233|310:184,1,100,2|10,2:0|2:0,2:0:0:0:
385,117,9905,2,0,P|312:84|248:106,2,150,2|4|10,2:0|2:0|2:0,2:0:0:0:
464,177,11284,6,0,L|456:285,1,100,2|10,0:0|0:0,0:0:0:0:
382,344,11974,2,0,P|332:345|283:334,1,100,2|10,0:0|0:0,0:0:0:0:
191,293,12664,2,0,B|151:293|107:325|107:325|47:309,2,150,2|4|10,2:0|2:0|2:0,2:0:0:0:
278,243,14043,6,0,P|303:197|304:143,1,100,2|10,2:0|2:0,2:0:0:0:
254,63,14733,2,0,P|299:49|367:71,1,100,2|10,0:0|0:0,0:0:0:0:
442,96,15422,2,0,P|498:160|498:224,1,150,2|4,2:0|2:0,2:0:0:0:
356,261,16457,6,0,P|309:243|259:240,1,100,2|2,2:0|2:0,2:0:0:0:
165,274,17146,1,2,0:0:0:0:
118,362,17491,2,0,P|79:327|65:280,1,100,2|2,0:0|0:0,0:0:0:0:
92,186,18181,1,10,0:0:0:0:
40,45,18698,6,0,B|136:22|194:82,1,150,2|10,2:0|2:0,2:0:0:0:
208,167,19560,2,0,B|166:258|222:317,2,150,2|2|10,2:0|2:0|2:0,2:0:0:0:
265,84,20940,1,2,0:0:0:0:
407,37,21457,6,0,P|409:119|375:189,1,150,0|10,0:0|0:0,0:0:0:0:
302,241,22319,2,0,P|370:281|449:257,2,150,2|0|10,0:0|0:0|0:0,0:0:0:0:
279,143,23698,1,2,0:0:0:0:
213,8,24215,6,0,P|156:60|131:133,1,150,0|10,0:0|0:0,0:0:0:0:
164,221,25077,2,0,P|88:217|37:162,2,150,2|0|10,0:0|0:0|0:0,0:0:0:0:
209,132,26457,2,0,P|259:190|254:264,1,150
20,107,29733,6,0,B|77:41|161:82,1,150,6|10,0:0|0:0,0:0:0:0:
222,154,30595,2,0,P|234:70|286:19,2,150,2|0|10,2:0|2:0|2:0,2:0:0:0:
296,220,31974,1,2,0:0:0:0:
309,369,32491,6,0,B|216:367|172:296,1,150,6|10,2:0|2:0,2:0:0:0:
110,232,33353,2,0,P|122:184|106:132,1,100,2|2,2:0|2:0,2:0:0:0:
54,52,34043,2,0,P|107:36|169:58,1,100,2|10,2:0|2:0,2:0:0:0:
242,83,34733,6,0,B|320:80|320:80|367:96|390:133,2,150,2|4|10,2:0|2:0|2:0,2:0:0:0:
211,178,36112,2,0,B|200:244|200:244|205:285,1,100,2|2,0:0|0:0,0:0:0:0:
251,365,36802,2,0,L|361:355,1,100,2|10,2:0|2:0,2:0:0:0:
452,351,37491,2,0,P|481:300|484:194,1,150,2|4,0:0|0:0,0:0:0:0:
423,74,38526,6,0,B|395:51|331:34,1,100,10|2,2:0|2:0,2:0:0:0:
234,10,39215,1,2,2:0:0:0:
150,64,39560,2,0,B|107:97|96:146,1,100,2|10,2:0|2:0,2:0:0:0:
45,232,40250,2,0,B|97:224|137:260,1,100,2|2,2:0|2:0,2:0:0:0:
212,326,40940,6,0,B|272:304|281:255,1,100,6|2,2:0|2:0,2:0:0:0:
264,160,41629,2,0,P|313:164|354:191,2,100,10|2|2,2:0|2:0|2:0,2:0:0:0:
167,186,42664,2,0,B|156:131|188:92,1,100,2|10,2:0|2:0,2:0:0:0:
270,34,43353,1,2,2:0:0:0:
367,61,43698,6,0,P|412:78|454:120,1,100,2|2,2:0|2:0,2:0:0:0:
503,197,44388,2,0,L|475:305,1,100,2|2,0:0|0:0,0:0:0:0:
404,364,45077,2,0,B|353:342|306:364|306:364|269:326|201:346,1,200,2|2,0:0|0:0,0:0:0:0:
22,287,46457,6,0,B|53:191|53:191|103:190|161:158,1,200,2|2,0:0|0:0,0:0:0:0:
232,111,47491,1,2,0:0:0:0:
294,33,47836,2,0,B|320:52|334:84|332:119|332:119|363:158|354:217,1,200,2|2,2:0|2:0,2:0:0:0:
194,339,49215,6,0,B|133:342|102:306|102:306|116:249|96:199,1,200,2|2,2:0|2:0,2:0:0:0:
59,116,50250,2,0,B|119:93|170:137,1,100,2|2,2:0|2:0,2:0:0:0:
236,183,50940,2,0,P|276:223|324:239,2,100,2|2|2,2:0|2:0|2:0,2:0:0:0:
255,84,51974,5,6,0:0:0:0:
345,41,52319,2,0,P|406:27|457:49,1,100,10|2,0:0|0:0,0:0:0:0:
484,127,53008,2,0,B|468:186|418:201|418:201|457:235|450:298,1,200,10|10,0:0|0:0,0:0:0:0:
386,365,54043,2,0,P|356:326|350:277,1,100,2|10,0:0|0:0,0:0:0:0:
325,179,54733,1,4,0:0:0:0:
256,192,54905,12,4,58698,2:0:0:0:
333,81,60250,6,0,P|292:52|243:49,2,100,6|10|2,2:0|2:0|2:0,2:0:0:0:
394,159,61284,1,10,2:0:0:0:
486,120,61629,2,0,L|505:236,1,100,2|10,0:0|0:0,0:0:0:0:
442,299,62319,2,0,L|349:336,1,100,2|10,0:0|0:0,0:0:0:0:
250,324,63008,5,6,0:0:0:0:
159,280,63353,2,0,P|110:286|59:316,2,100,10|2|10,2:0|2:0|2:0,2:0:0:0:
243,225,64388,2,0,P|288:189|304:142,1,100,0|8,0:0|0:0,0:0:0:0:
268,58,65077,2,0,P|316:52|373:81,1,100,0|8,0:0|0:0,0:0:0:0:
454,113,65767,6,0,P|479:191|458:273,1,150,6|2,2:0|2:0,2:0:0:0:
396,328,66629,1,0,0:0:0:0:
297,316,66974,2,0,P|277:244|293:172,1,150,12|10,2:0|2:0,2:0:0:0:
307,73,67836,2,0,P|250:84|217:109,1,100,2|10,2:0|2:0,2:0:0:0:
137,47,68526,6,0,P|118:101|123:142,1,100,6|10,2:0|2:0,2:0:0:0:
27,170,69215,2,0,P|79:231|159:233,1,150,2|14,2:0|2:0,2:0:0:0:
244,229,70077,1,0,0:0:0:0:
331,277,70422,2,0,P|391:275|456:216,1,150,4|8,0:0|0:0,0:0:0:0:
449,120,71284,6,0,P|407:80|350:70,1,100,14|10,2:0|2:0,2:0:0:0:
269,79,71974,2,0,L|190:140,1,100,10|10,0:0|0:0,0:0:0:0:
122,66,72664,2,0,P|96:108|94:163,1,100,10|10,2:0|2:0,2:0:0:0:
0,195,73353,2,0,P|30:234|80:255,1,100,10|10,2:0|2:0,2:0:0:0:
167,294,74043,5,2,0:0:0:0:
265,312,74388,2,0,B|320:288|344:228,1,100,10|2,2:0|2:0,2:0:0:0:
345,144,75077,1,10,0:0:0:0:
304,50,75422,2,0,P|378:46|433:94,2,150,2|2|10,0:0|0:0|0:0,0:0:0:0:
221,106,76802,6,0,P|204:56|214:6,2,100,6|10|2,2:0|2:0|2:0,2:0:0:0:
293,174,77836,1,8,2:0:0:0:
392,166,78181,2,0,L|397:274,1,100,6|10,0:0|0:0,0:0:0:0:
315,325,78871,2,0,P|262:317|207:326,1,100,2|10,2:0|2:0,2:0:0:0:
118,344,79560,6,0,B|31:317|38:226,1,150,6|14,2:0|2:0,2:0:0:0:
95,150,80422,1,0,2:0:0:0:
135,245,80767,2,0,B|213:204|191:114,1,150,14|10,2:0|2:0,2:0:0:0:
143,32,81629,2,0,L|242:27,1,100,10|12,2:0|2:0,2:0:0:0:
339,52,82319,6,0,P|363:99|357:167,1,100,6|10,0:0|0:0,0:0:0:0:
463,148,83008,2,0,P|446:198|394:242,1,100,2|10,2:0|2:0,2:0:0:0:
482,303,83698,2,0,P|435:328|369:323,1,100,2|10,2:0|2:0,2:0:0:0:
302,277,84388,2,0,P|265:243|217:229,1,100,2|10,2:0|2:0,2:0:0:0:
129,276,85077,6,0,L|95:161,1,100,6|10,0:0|0:0,0:0:0:0:
147,91,85767,2,8,P|223:112|293:69,1,150,2|6,2:0|2:0,2:0:0:0:
423,136,86802,2,8,L|387:242,1,100,0|2,2:0|2:0,2:0:0:0:
314,295,87491,1,0,0:0:0:0:
256,192,87664,12,0,89215,2:0:0:0:
