osu file format v14

[General]
AudioFilename: Aqua Terrarium.mp3
AudioLeadIn: 0
PreviewTime: 62364
Countdown: 0
SampleSet: None
StackLeniency: 0.7
Mode: 3
LetterboxInBreaks: 0
SpecialStyle: 0
WidescreenStoryboard: 1

[Editor]
Bookmarks: 35193,43329,51464
DistanceSpacing: 0.9
BeatDivisor: 2
GridSize: 4
TimelineZoom: 0.4000001

[Metadata]
Title:Aqua Terrarium (TV Size)
TitleUnicode:アクアテラリウム (TV Size)
Artist:yanaginagi
ArtistUnicode:やなぎなぎ
Creator:zigizigiefe
Version:Normal
Source:凪のあすから
Tags:dudehacker japanese anime nagi no asukara A Lull in the Sea ed ending
BeatmapID:1951099
BeatmapSetID:934414

[Difficulty]
HPDrainRate:7
CircleSize:4
OverallDifficulty:7
ApproachRate:5
SliderMultiplier:1.4
SliderTickRate:1

[Events]
//Background and Video events
0,0,"BG.jpg",0,0
//Break Periods
//Storyboard Layer 0 (Background)
//Storyboard Layer 1 (Fail)
//Storyboard Layer 2 (Pass)
//Storyboard Layer 3 (Foreground)
//Storyboard Sound Samples

[TimingPoints]
6718,508.474576271186,4,3,1,70,1,0
58583,508.474576271186,4,3,1,70,1,0
62650,-100,4,3,1,70,0,1
92905,-100,4,3,1,70,0,0

[HitObjects]
448,192,6717,5,2,0:0:0:0:
64,192,6717,1,0,0:0:0:0:
192,192,7226,1,0,0:0:0:0:
320,192,7480,1,0,0:0:0:0:
448,192,7734,1,0,0:0:0:0:
320,192,8243,1,0,0:0:0:0:
448,192,8751,1,2,0:0:0:0:
192,192,8751,1,0,0:0:0:0:
64,192,9260,1,0,0:0:0:0:
192,192,9514,1,0,0:0:0:0:
320,192,9768,1,0,0:0:0:0:
192,192,10277,1,0,0:0:0:0:
448,192,10785,1,2,0:0:0:0:
64,192,10785,1,0,0:0:0:0:
320,192,11294,1,0,0:0:0:0:
192,192,11548,1,0,0:0:0:0:
64,192,11802,1,0,0:0:0:0:
448,192,12311,1,0,0:0:0:0:
192,192,12819,1,2,0:0:0:0:
64,192,12819,1,0,0:0:0:0:
448,192,13328,1,0,0:0:0:0:
320,192,13582,1,0,0:0:0:0:
192,192,13836,1,0,0:0:0:0:
320,192,14345,1,0,0:0:0:0:
448,192,14853,1,2,0:0:0:0:
64,192,14853,1,0,0:0:0:0:
320,192,15362,1,0,0:0:0:0:
192,192,15616,1,0,0:0:0:0:
64,192,15870,1,0,0:0:0:0:
192,192,16379,1,0,0:0:0:0:
320,192,16887,1,0,0:0:0:0:
448,192,16887,1,2,0:0:0:0:
192,192,17395,1,0,0:0:0:0:
320,192,17650,1,0,0:0:0:0:
448,192,17904,1,0,0:0:0:0:
320,192,18412,1,0,0:0:0:0:
192,192,18921,1,2,0:0:0:0:
64,192,18921,1,0,0:0:0:0:
448,192,19429,1,0,0:0:0:0:
320,192,19684,1,0,0:0:0:0:
192,192,19938,1,0,0:0:0:0:
192,192,20701,1,0,0:0:0:0:
64,192,20955,1,0,0:0:0:0:
448,192,20955,1,2,0:0:0:0:
192,192,21972,1,0,0:0:0:0:
320,192,22734,128,0,22989:0:0:0:0:
64,192,22989,1,2,0:0:0:0:
320,192,23497,1,8,0:0:0:0:
64,192,23497,1,0,0:0:0:0:
192,192,23751,1,2,0:0:0:0:
64,192,24260,1,0,0:0:0:0:
192,192,24514,1,0,0:0:0:0:
448,192,24514,1,8,0:0:0:0:
320,192,24768,1,0,0:0:0:0:
448,192,25023,1,2,0:0:0:0:
320,192,25277,1,0,0:0:0:0:
448,192,25531,1,8,0:0:0:0:
192,192,25531,1,0,0:0:0:0:
64,192,25785,1,2,0:0:0:0:
192,192,26040,1,0,0:0:0:0:
320,192,26294,1,0,0:0:0:0:
192,192,26548,1,0,0:0:0:0:
448,192,26548,1,8,0:0:0:0:
64,192,26802,1,0,0:0:0:0:
192,192,27056,1,2,0:0:0:0:
64,192,27565,1,8,0:0:0:0:
320,192,27565,1,0,0:0:0:0:
192,192,27819,1,2,0:0:0:0:
320,192,28328,1,0,0:0:0:0:
192,192,28582,1,8,0:0:0:0:
448,192,28582,1,0,0:0:0:0:
64,192,28836,1,0,0:0:0:0:
192,192,29090,1,2,0:0:0:0:
320,192,29345,1,0,0:0:0:0:
448,192,29599,1,0,0:0:0:0:
192,192,29599,1,8,0:0:0:0:
64,192,29853,1,2,0:0:0:0:
448,192,30107,1,0,0:0:0:0:
320,192,30362,1,0,0:0:0:0:
192,192,30616,1,8,0:0:0:0:
448,192,30616,1,0,0:0:0:0:
64,192,30870,128,0,31124:0:0:0:0:
320,192,31124,1,2,0:0:0:0:
192,192,31633,1,0,0:0:0:0:
64,192,31633,1,8,0:0:0:0:
320,192,31887,1,2,0:0:0:0:
448,192,32395,1,0,0:0:0:0:
320,192,32650,1,0,0:0:0:0:
192,192,32650,1,8,0:0:0:0:
64,192,32904,1,0,0:0:0:0:
320,192,33158,1,2,0:0:0:0:
448,192,33412,1,8,0:0:0:0:
320,192,33667,1,0,0:0:0:0:
64,192,33667,1,8,0:0:0:0:
192,192,33921,1,2,0:0:0:0:
64,192,34175,1,0,0:0:0:0:
192,192,34302,1,0,0:0:0:0:
320,192,34429,1,0,0:0:0:0:
192,192,34684,1,8,0:0:0:0:
448,192,34684,1,0,0:0:0:0:
64,192,34938,128,0,35192:0:0:0:0:
320,192,35192,1,2,0:0:0:0:
192,192,35701,1,8,0:0:0:0:
448,192,35701,1,0,0:0:0:0:
320,192,35955,1,2,0:0:0:0:
192,192,36463,1,0,0:0:0:0:
64,192,36717,1,8,0:0:0:0:
320,192,36717,1,0,0:0:0:0:
192,192,37226,1,2,0:0:0:0:
320,192,37734,1,0,0:0:0:0:
64,192,37734,1,8,0:0:0:0:
448,192,37989,1,2,0:0:0:0:
64,192,38497,1,0,0:0:0:0:
448,192,38751,1,0,0:0:0:0:
192,192,38751,1,8,0:0:0:0:
320,192,39006,1,0,0:0:0:0:
448,192,39260,1,2,0:0:0:0:
192,192,39768,1,0,0:0:0:0:
64,192,39768,1,8,0:0:0:0:
320,192,40023,1,2,0:0:0:0:
192,192,40531,1,0,0:0:0:0:
448,192,40785,1,0,0:0:0:0:
320,192,40785,1,8,0:0:0:0:
64,192,41294,1,2,0:0:0:0:
448,192,41802,1,0,0:0:0:0:
192,192,41802,1,8,0:0:0:0:
320,192,42311,1,2,0:0:0:0:
448,192,42819,1,0,0:0:0:0:
64,192,42819,1,8,0:0:0:0:
192,192,43073,128,0,43328:0:0:0:0:
448,192,43328,1,2,0:0:0:0:
64,192,43836,1,8,0:0:0:0:
192,192,43836,1,0,0:0:0:0:
448,192,44090,1,2,0:0:0:0:
320,192,44599,1,0,0:0:0:0:
64,192,44853,1,8,0:0:0:0:
192,192,44853,1,0,0:0:0:0:
320,192,45362,1,2,0:0:0:0:
448,192,45870,1,0,0:0:0:0:
192,192,45870,1,8,0:0:0:0:
320,192,46124,1,2,0:0:0:0:
192,192,46633,1,0,0:0:0:0:
64,192,46887,1,8,0:0:0:0:
320,192,46887,1,0,0:0:0:0:
448,192,47395,1,2,0:0:0:0:
64,192,47904,1,8,0:0:0:0:
448,192,47904,1,0,0:0:0:0:
192,192,48158,1,2,0:0:0:0:
320,192,48667,1,0,0:0:0:0:
64,192,48921,1,8,0:0:0:0:
448,192,48921,1,0,0:0:0:0:
320,192,49429,1,2,0:0:0:0:
448,192,49938,1,0,0:0:0:0:
64,192,49938,1,8,0:0:0:0:
320,192,50446,1,2,0:0:0:0:
192,192,50573,1,0,0:0:0:0:
64,192,50701,1,0,0:0:0:0:
448,192,50955,1,0,0:0:0:0:
320,192,50955,1,8,0:0:0:0:
64,192,51209,128,0,51463:0:0:0:0:
320,192,51463,1,2,0:0:0:0:
192,192,51972,1,8,0:0:0:0:
448,192,51972,1,0,0:0:0:0:
64,192,52480,1,2,0:0:0:0:
192,192,52989,1,8,0:0:0:0:
320,192,52989,1,0,0:0:0:0:
448,192,53497,1,2,0:0:0:0:
64,192,54006,1,8,0:0:0:0:
320,192,54006,1,0,0:0:0:0:
448,192,54514,1,2,0:0:0:0:
320,192,54768,1,0,0:0:0:0:
64,192,55023,1,8,0:0:0:0:
192,192,55023,1,0,0:0:0:0:
320,192,55531,1,2,0:0:0:0:
448,192,56040,1,8,0:0:0:0:
64,192,56040,1,0,0:0:0:0:
192,192,56548,1,2,0:0:0:0:
320,192,57056,1,0,0:0:0:0:
448,192,57056,1,8,0:0:0:0:
192,192,57565,1,2,0:0:0:0:
320,192,58073,1,0,0:0:0:0:
64,192,58073,1,8,0:0:0:0:
448,192,58582,1,2,0:0:0:0:
320,192,59091,1,0,0:0:0:0:
64,192,59091,1,8,0:0:0:0:
192,192,59345,1,2,0:0:0:0:
320,192,59854,1,0,0:0:0:0:
192,192,60108,1,8,0:0:0:0:
448,192,60108,1,0,0:0:0:0:
64,192,60362,128,0,60616:0:0:0:0:
320,192,60616,1,2,0:0:0:0:
64,192,61125,1,8,0:0:0:0:
192,192,61125,1,0,0:0:0:0:
320,192,61379,1,2,0:0:0:0:
448,192,61633,1,0,0:0:0:0:
320,192,61760,1,0,0:0:0:0:
192,192,61888,1,0,0:0:0:0:
320,192,62142,1,0,0:0:0:0:
64,192,62142,1,8,0:0:0:0:
448,192,62650,1,4,0:0:0:0:
192,192,62650,1,2,0:0:0:0:
64,192,63159,1,8,0:0:0:0:
320,192,63159,1,0,0:0:0:0:
192,192,63413,1,2,0:0:0:0:
320,192,63921,1,2,0:0:0:0:
448,192,64176,1,0,0:0:0:0:
192,192,64176,1,8,0:0:0:0:
320,192,64684,1,2,0:0:0:0:
448,192,65193,1,0,0:0:0:0:
64,192,65193,1,8,0:0:0:0:
320,192,65447,1,2,0:0:0:0:
192,192,65701,1,0,0:0:0:0:
64,192,65955,1,0,0:0:0:0:
448,192,66210,1,0,0:0:0:0:
192,192,66210,1,8,0:0:0:0:
64,192,66718,1,2,0:0:0:0:
448,192,67227,1,0,0:0:0:0:
320,192,67227,1,8,0:0:0:0:
192,192,67481,1,2,0:0:0:0:
64,192,67989,1,2,0:0:0:0:
192,192,68244,1,8,0:0:0:0:
320,192,68244,1,0,0:0:0:0:
448,192,68752,1,2,0:0:0:0:
320,192,69006,1,0,0:0:0:0:
64,192,69260,1,8,0:0:0:0:
448,192,69260,1,0,0:0:0:0:
192,192,69515,1,2,0:0:0:0:
320,192,70023,1,0,0:0:0:0:
64,192,70277,1,8,0:0:0:0:
448,192,70277,1,0,0:0:0:0:
192,192,70786,1,2,0:0:0:0:
320,192,71294,1,8,0:0:0:0:
448,192,71294,1,0,0:0:0:0:
64,192,71549,1,2,0:0:0:0:
192,192,72057,1,2,0:0:0:0:
320,192,72311,1,8,0:0:0:0:
448,192,72311,1,0,0:0:0:0:
192,192,72820,1,2,0:0:0:0:
320,192,73328,1,0,0:0:0:0:
64,192,73328,1,8,0:0:0:0:
448,192,73582,1,2,0:0:0:0:
320,192,73837,1,0,0:0:0:0:
192,192,74091,1,0,0:0:0:0:
64,192,74345,1,8,0:0:0:0:
320,192,74345,1,0,0:0:0:0:
448,192,74854,1,2,0:0:0:0:
192,192,75362,1,8,0:0:0:0:
320,192,75362,1,0,0:0:0:0:
64,192,75616,1,2,0:0:0:0:
192,192,75871,1,0,0:0:0:0:
320,192,76125,1,2,0:0:0:0:
192,192,76379,1,8,0:0:0:0:
448,192,76379,1,0,0:0:0:0:
64,192,76888,1,2,0:0:0:0:
192,192,77142,1,0,0:0:0:0:
320,192,77396,1,8,0:0:0:0:
448,192,77396,1,0,0:0:0:0:
64,192,77650,1,2,0:0:0:0:
192,192,77905,1,0,0:0:0:0:
320,192,78159,1,0,0:0:0:0:
448,192,78413,1,0,0:0:0:0:
192,192,78413,1,8,0:0:0:0:
320,192,78921,1,2,0:0:0:0:
64,192,78921,1,4,0:0:0:0:
192,192,79430,1,8,0:0:0:0:
448,192,79430,1,0,0:0:0:0:
320,192,79684,1,2,0:0:0:0:
192,192,80193,1,2,0:0:0:0:
64,192,80447,1,8,0:0:0:0:
320,192,80447,1,0,0:0:0:0:
192,192,80955,1,2,0:0:0:0:
64,192,81464,1,8,0:0:0:0:
448,192,81464,1,0,0:0:0:0:
192,192,81718,1,2,0:0:0:0:
320,192,81972,1,0,0:0:0:0:
448,192,82227,1,0,0:0:0:0:
64,192,82481,1,8,0:0:0:0:
320,192,82481,1,0,0:0:0:0:
448,192,82989,1,2,0:0:0:0:
64,192,83498,1,8,0:0:0:0:
192,192,83498,1,0,0:0:0:0:
320,192,83752,1,2,0:0:0:0:
448,192,84260,1,2,0:0:0:0:
192,192,84515,1,8,0:0:0:0:
320,192,84515,1,0,0:0:0:0:
64,192,85023,1,2,0:0:0:0:
192,192,85277,1,0,0:0:0:0:
64,192,85532,1,8,0:0:0:0:
448,192,85532,1,0,0:0:0:0:
320,192,85786,1,2,0:0:0:0:
192,192,86294,1,0,0:0:0:0:
448,192,86549,1,0,0:0:0:0:
64,192,86549,1,8,0:0:0:0:
320,192,87057,1,2,0:0:0:0:
64,192,87566,1,8,0:0:0:0:
192,192,87566,1,0,0:0:0:0:
448,192,87820,1,2,0:0:0:0:
320,192,88328,1,2,0:0:0:0:
192,192,88582,1,0,0:0:0:0:
64,192,88582,1,8,0:0:0:0:
320,192,89091,1,2,0:0:0:0:
448,192,89599,1,0,0:0:0:0:
192,192,89599,1,8,0:0:0:0:
64,192,89854,1,2,0:0:0:0:
192,192,90108,1,0,0:0:0:0:
320,192,90362,1,0,0:0:0:0:
448,192,90616,1,0,0:0:0:0:
192,192,90616,1,8,0:0:0:0:
64,192,91125,1,2,0:0:0:0:
192,192,91379,1,0,0:0:0:0:
320,192,91633,1,8,0:0:0:0:
448,192,91633,1,0,0:0:0:0:
192,192,91888,1,2,0:0:0:0:
448,192,92142,1,0,0:0:0:0:
320,192,92396,1,0,0:0:0:0:
192,192,92650,1,0,0:0:0:0:
64,192,92650,1,8,0:0:0:0:
320,192,92905,128,0,95193:0:0:0:0:
448,192,92905,128,2,95193:0:0:0:0:
