osu file format v10

[General]
AudioFilename: Over my head (AmenPunk).mp3
AudioLeadIn: 1511
PreviewTime: 47400
Countdown: 0
SampleSet: Normal
StackLeniency: 0.7
Mode: 0
LetterboxInBreaks: 1

[Editor]
Bookmarks: 19200,23700,48000,62400,100800,134400
DistanceSpacing: 1
BeatDivisor: 4
GridSize: 4

[Metadata]
Title:Over my head
TitleUnicode:Over my head
Artist:yambabom
ArtistUnicode:yambabom
Creator:Zapy
Version:Insane AR10
Source:
Tags:breakcore sum41
BeatmapID:173196
BeatmapSetID:57460

[Difficulty]
HPDrainRate:5
CircleSize:4
OverallDifficulty:7
ApproachRate:10
SliderMultiplier:1.4
SliderTickRate:1

[Events]
//Background and Video events
0,0,"abstract.jpg"
//Break Periods
2,62600,70950
//Storyboard Layer 0 (Background)
//Storyboard Layer 1 (Fail)
//Storyboard Layer 2 (Pass)
//Storyboard Layer 3 (Foreground)
//Storyboard Sound Samples
//Background Colour Transformations
3,100,0,0,0

[TimingPoints]
0,300.000303030304,4,2,0,25,1,0
600,-80,4,2,0,25,0,0
900,-66.6666666666667,4,2,0,25,0,0
2700,-100,4,2,0,25,0,0
3000,-80,4,2,0,25,0,0
3300,-66.6666666666667,4,2,0,25,0,0
5400,-57.1428571428571,4,2,0,25,0,0
6300,-66.6666666666667,4,2,0,25,0,0
7500,-66.6666666666667,4,2,0,29,0,0
7800,-66.6666666666667,4,2,0,29,0,0
8100,-66.6666666666667,4,2,0,33,0,0
8400,-66.6666666666667,4,2,0,37,0,0
8700,-66.6666666666667,4,2,0,41,0,0
9000,-66.6666666666667,4,2,0,45,0,0
18600,-200,4,2,0,45,0,0
19200,-66.6666666666667,4,1,0,55,0,1
28800,-66.6666666666667,4,1,0,55,0,0
47400,-66.6666666666667,4,2,0,9,0,0
47475,-66.6666666666667,4,2,0,18,0,0
47550,-66.6666666666667,4,2,0,27,0,0
47625,-66.6666666666667,4,2,0,36,0,0
47700,-66.6666666666667,4,2,0,45,0,0
47775,-66.6666666666667,4,2,0,54,0,0
47850,-66.6666666666667,4,2,0,63,0,0
47925,-66.6666666666667,4,2,0,72,0,0
48000,-57.1428571428571,4,1,0,75,0,1
57525,-57.1428571428571,4,1,0,75,0,0
57600,-57.1428571428571,4,2,0,75,0,1
57900,-66.6666666666667,4,1,0,75,0,0
81600,-57.1428571428571,4,1,0,75,0,1
91200,-133.333333333333,4,1,0,75,0,0
99600,-100,4,1,0,75,0,0
100200,-80,4,1,0,75,0,0
132300,-76.9230769230769,4,1,0,75,0,0
132600,-74.0740740740741,4,1,0,75,0,0
132900,-71.4285714285714,4,1,0,75,0,0
133200,-68.9655172413793,4,1,0,75,0,0
133500,-66.6666666666667,4,1,0,75,0,0
133800,-62.5,4,1,0,75,0,0
134400,-50,4,1,0,75,0,1
153450,-100,4,1,0,75,0,0

[Colours]
Combo1 : 255,128,64
Combo2 : 255,0,0
Combo3 : 255,255,255

[HitObjects]
472,241,0,1,0,0:0:0
472,241,150,1,0,0:0:0
400,227,300,2,0,B|400:297,1,70,2|0,0:0|0:0,0:0:0
328,209,600,2,0,B|328:296,1,87.5
256,192,900,2,0,B|256:297,1,105.000004005432,2|0,0:0|0:0,0:0:0
184,168,1200,5,0,0:0:0
184,168,1350,1,0,0:0:0
108,148,1500,2,0,B|72:180|72:180|72:248,1,105.000004005432,2|0,0:0|0:0,0:0:0
328,168,1800,1,0,0:0:0
328,168,1950,1,0,0:0:0
404,236,2100,2,0,B|440:204|440:204|440:136,1,105.000004005432,2|2,0:0|0:0,0:0:0
256,114,2400,5,0,0:0:0
256,114,2550,1,0,0:0:0
184,100,2700,2,0,B|184:170,1,70,2|0,0:0|0:0,0:0:0
112,82,3000,2,0,B|112:169,1,87.5
40,65,3300,2,0,B|40:170,1,105.000004005432,2|0,0:0|0:0,0:0:0
88,292,3600,1,0,0:0:0
88,292,3750,1,0,0:0:0
208,344,3900,2,0,B|224:300|224:300|212:240,1,105.000004005432,2|0,0:0|0:0,0:0:0
304,40,4200,1,0,0:0:0
304,40,4350,1,0,0:0:0
424,92,4500,2,0,B|440:136|440:136|428:193,1,105.000004005432,2|2,0:0|0:0,0:0:0
256,136,4800,1,0,0:0:0
256,136,4950,1,0,0:0:0
104,40,5100,6,0,B|157:32|157:32|209:40,1,105.000004005432,2|0,0:0|0:0,0:0:0
157,141,5400,2,0,B|96:148|96:148|36:140,1,122.500001168251,2|0,0:0|0:0,0:0:0
36,244,5700,2,0,B|96:236|96:236|172:244,1,122.500001168251,2|0,0:0|0:0,0:0:0
100,336,6000,1,0,0:0:0
100,336,6150,1,0,0:0:0
36,244,6300,2,0,B|16:192|36:132,1,105.000004005432,2|0,0:0|0:0,0:0:0
256,100,6600,1,0,0:0:0
256,100,6750,1,0,0:0:0
478,140,6900,2,0,B|496:192|476:244,1,105.000004005432,2|2,0:0|0:0,0:0:0
256,284,7200,5,0,0:0:0
256,284,7350,1,0,0:0:0
204,56,7500,2,0,B|256:36|308:56,1,105.000004005432,2|0,0:0|0:0,0:0:0
308,328,7800,2,0,B|256:348|204:328,1,105.000004005432,2|0,0:0|0:0,0:0:0
392,244,8100,2,0,B|392:348,1,105.000004005432,2|0,0:0|0:0,0:0:0
144,272,8400,5,0,0:0:0
144,112,8550,1,0,0:0:0
68,308,8700,1,2,0:0:0
68,76,8850,1,0,0:0:0
256,32,9000,1,2,0:0:0
256,48,9075,1,0,0:0:0
256,64,9150,1,2,0:0:0
256,80,9225,1,0,0:0:0
256,96,9300,1,2,0:0:0
256,288,9450,1,2,0:0:0
160,160,9600,6,0,B|144:112|144:112|156:56,1,105.000004005432
356,60,9900,1,8,0:0:0
436,128,10050,2,0,B|436:236,2,105.000004005432,0|0|8,0:0|0:0|0:0,0:0:0
256,96,10500,2,0,B|256:204,1,105.000004005432,8|0,0:0|0:0,0:0:0
431,333,10800,6,0,B|447:285|447:285|436:232,1,105.000004005432
256,96,11100,1,8,0:0:0
256,288,11250,1,0,0:0:0
76,152,11400,1,2,0:0:0
76,152,11475,1,0,0:0:0
76,152,11550,2,0,B|64:98|64:98|80:50,1,105.000004005432,2|10,0:0|0:0,0:0:0
256,96,11850,1,0,0:0:0
256,288,12000,6,0,B|236:336|172:348,2,105.000004005432,0|0|8,0:0|0:0|0:0,0:0:0
256,96,12450,1,0,0:0:0
132,132,12600,2,0,B|156:248,1,105.000004005432,0|8,0:0|0:0,0:0:0
358,234,12900,2,0,B|380:132,1,105.000004005432,8|0,0:0|0:0,0:0:0
256,192,13200,5,0,0:0:0
368,352,13350,1,0,0:0:0
460,192,13500,2,0,B|484:144|472:88,1,105.000004005432,8|0,0:0|0:0,0:0:0
368,32,13800,1,2,0:0:0
256,192,13950,1,2,0:0:0
144,354,14100,2,0,B|120:306|132:252,1,105.000004005432,8|0,0:0|0:0,0:0:0
256,87,14400,6,0,B|256:192,1,105.000004005432
32,296,14700,2,0,B|32:191,1,105.000004005432,8|0,0:0|0:0,0:0:0
32,88,14925,2,8,B|32:140,1,52.5000020027161,8|0,0:0|0:0,0:0:0
176,72,15150,1,8,0:0:0
176,44,15225,1,8,0:0:0
164,20,15300,1,8,0:0:0
104,164,15450,1,0,0:0:0
256,192,15600,5,0,0:0:0
408,164,15750,1,0,0:0:0
364,32,15900,2,0,B|312:56|312:56|288:108,2,105.000004005432,8|0|2,0:0|0:0|0:0,0:0:0
408,220,16350,1,2,0:0:0
364,352,16500,2,0,B|312:328|312:328|288:276,1,105.000004005432,8|0,0:0|0:0,0:0:0
368,112,16800,5,0,0:0:0
368,272,16950,1,0,0:0:0
444,76,17100,1,8,0:0:0
444,308,17250,1,8,0:0:0
256,352,17400,1,10,0:0:0
256,352,17475,1,0,0:0:0
256,352,17550,1,8,0:0:0
68,308,17700,1,8,0:0:0
68,76,17850,1,10,0:0:0
184,40,18000,2,0,B|184:96|184:96|144:176,1,105.000004005432,2|0,0:0|0:0,0:0:0
256,268,18300,2,0,B|256:241,7,26.2500010013581
256,192,18600,6,0,B|256:56,1,122.5,0|2,0:0|0:0,0:0:0
256,40,19200,6,0,B|320:20|320:20|400:24|424:104,1,210.000008010865,4|8,0:0|0:0,0:0:0
372,192,19650,1,0,0:0:0
332,288,19800,1,0,0:0:0
312,280,19875,1,0,0:0:0
300,264,19950,1,0,0:0:0
256,40,20100,1,8,0:0:0
212,264,20250,1,0,0:0:0
124,324,20400,6,0,B|80:336|80:336|52:328|36:284,1,105.000004005432
32,268,20625,1,0,0:0:0
32,240,20700,1,8,0:0:0
96,48,20850,1,0,0:0:0
172,120,21000,1,0,0:0:0
176,148,21075,1,0,0:0:0
168,172,21150,1,0,0:0:0
256,336,21300,2,0,B|256:228,1,105.000004005432,8|0,0:0|0:0,0:0:0
360,64,21600,6,0,B|372:172,1,105.000004005432
348,340,21900,2,0,B|312:280|332:228|384:192|384:192|468:212,1,210.000008010865,8|8,0:0|0:0,0:0:0
472,300,22350,1,0,0:0:0
472,328,22425,1,0,0:0:0
464,352,22500,1,0,0:0:0
256,128,22650,1,8,0:0:0
120,56,22800,1,8,0:0:0
72,152,22950,1,0,0:0:0
72,180,23025,1,0,0:0:0
80,204,23100,1,0,0:0:0
256,128,23250,1,8,0:0:0
284,44,23400,2,0,B|300:92|284:149,1,105.000004005432
228,340,23700,2,0,B|212:292|228:235,1,105.000004005432,0|8,0:0|0:0,0:0:0
328,32,24000,6,0,B|392:-16|456:56|456:56|424:76|420:120,1,210.000008010865,4|8,0:0|0:0,0:0:0
392,320,24450,1,0,0:0:0
300,272,24600,1,0,0:0:0
284,252,24675,1,0,0:0:0
268,228,24750,2,0,B|248:176|272:120,1,105.000004005432,0|8,0:0|0:0,0:0:0
452,240,25050,1,0,0:0:0
120,320,25200,5,0,0:0:0
72,208,25350,1,0,0:0:0
96,200,25425,1,0,0:0:0
120,204,25500,1,8,0:0:0
8,300,25650,1,0,0:0:0
56,116,25800,2,0,B|56:56,2,52.5000020027161,0|0|8,0:0|0:0|0:0,0:0:0
256,192,26100,1,0,0:0:0
320,44,26250,1,8,0:0:0
176,136,26400,5,0,0:0:0
336,136,26550,1,0,0:0:0
192,44,26700,1,0,0:0:0
256,192,26850,1,0,0:0:0
40,136,27000,5,8,0:0:0
80,248,27150,1,8,0:0:0
76,56,27300,1,8,0:0:0
44,328,27450,1,8,0:0:0
256,192,27600,1,0,0:0:0
256,312,27750,2,0,B|256:368,2,52.5000020027161
256,72,28050,2,0,B|256:16,2,52.5000020027161
336,248,28350,1,0,0:0:0
176,136,28500,1,0,0:0:0
152,124,28575,1,0,0:0:0
128,120,28650,1,0,0:0:0
100,120,28725,1,0,0:0:0
72,124,28800,6,0,B|16:148|8:208,1,105.000004005432
104,328,29100,2,0,B|104:224,1,105.000004005432,8|0,0:0|0:0,0:0:0
256,72,29400,2,0,B|216:116|216:116|196:188|248:244|280:248,1,210.000008010865,0|8,0:0|0:0,0:0:0
304,152,29850,1,0,0:0:0
144,52,30000,1,0,0:0:0
68,124,30150,2,0,B|68:232,1,105.000004005432,0|8,0:0|0:0,0:0:0
228,328,30450,1,0,0:0:0
152,256,30600,2,0,B|152:151,1,105.000004005432
360,128,30900,2,0,B|360:236,1,105.000004005432,8|0,0:0|0:0,0:0:0
320,92,31200,6,0,B|364:56|364:56|464:60|464:152,1,210.000008010865,0|8,0:0|0:0,0:0:0
260,152,31650,1,0,0:0:0
192,92,31800,2,0,B|148:56|148:56|48:60|48:152,1,210.000008010865,0|8,0:0|0:0,0:0:0
260,152,32250,1,0,0:0:0
344,76,32400,2,0,B|312:44|312:44|288:36|248:44,1,105.000004005432
152,176,32700,1,8,0:0:0
168,308,32850,2,0,B|200:340|200:340|224:348|264:340,1,105.000004005432
360,208,33150,1,0,0:0:0
256,192,33300,1,8,0:0:0
256,192,33375,1,0,0:0:0
256,192,33450,1,0,0:0:0
332,120,33600,6,0,B|372:96|372:96|480:120|488:208,1,210.000008010865,0|8,0:0|0:0,0:0:0
256,80,34050,1,0,0:0:0
172,48,34200,2,0,B|64:56,1,105.000004005432
67,328,34500,2,0,B|172:336,1,105.000004005432,8|0,0:0|0:0,0:0:0
76,96,34800,2,0,B|28:136|48:200,1,105.000004005432
172,236,35100,1,8,0:0:0
340,148,35250,1,0,0:0:0
172,148,35400,1,0,0:0:0
340,236,35550,1,0,0:0:0
256,92,35700,1,8,0:0:0
256,292,35850,1,0,0:0:0
372,56,36000,6,0,B|444:108|444:108|388:180|472:232,1,210.000008010865,0|8,0:0|0:0,0:0:0
476,72,36450,1,0,0:0:0
300,16,36600,1,0,0:0:0
300,16,36675,1,0,0:0:0
300,16,36750,2,0,B|244:0|188:36,1,105.000004005432,8|8,0:0|0:0,0:0:0
256,192,37050,1,0,0:0:0
320,352,37200,2,0,B|352:308|336:240,1,105.000004005432
256,112,37500,1,8,0:0:0
172,256,37650,1,0,0:0:0
192,356,37800,6,0,B|200:392,6,26.2500010013581
104,320,38100,2,0,B|44:328,1,52.5000020027161,8|0,0:0|0:0,0:0:0
88,228,38250,2,0,B|28:220,1,52.5000020027161,8|0,0:0|0:0,0:0:0
64,136,38400,6,0,B|48:80|88:24|156:16|208:40,1,210.000008010865,4|8,0:0|0:0,0:0:0
256,192,38850,1,0,0:0:0
152,316,39000,2,0,B|136:196,1,105.000004005432
373,172,39300,2,0,B|360:68,1,105.000004005432,8|0,0:0|0:0,0:0:0
312,344,39600,2,0,B|348:368|412:368|464:312|448:248,2,210.000008010865,0|8|0,0:0|0:0|0:0,0:0:0
312,344,40275,1,0,0:0:0
312,344,40350,1,0,0:0:0
256,192,40500,1,8,0:0:0
312,40,40650,2,0,B|348:16|412:16|464:72|448:136,1,210.000008010865,8|0,0:0|0:0,0:0:0
204,112,41100,6,0,B|309:112,1,105.000004005432,8|0,0:0|0:0,0:0:0
76,76,41400,2,0,B|181:76,1,105.000004005432,8|0,0:0|0:0,0:0:0
181,308,41700,2,0,B|76:308,1,105.000004005432,8|0,0:0|0:0,0:0:0
256,192,42000,2,0,B|276:244|276:244|256:292,1,105.000004005432
168,192,42300,1,8,0:0:0
344,192,42450,1,0,0:0:0
204,112,42600,1,0,0:0:0
180,104,42675,1,0,0:0:0
152,104,42750,1,8,0:0:0
128,112,42825,1,0,0:0:0
108,128,42900,1,8,0:0:0
256,192,43050,1,8,0:0:0
316,16,43200,6,0,B|300:124,1,105.000004005432
360,368,43500,2,0,B|344:260,1,105.000004005432,8|0,0:0|0:0,0:0:0
400,20,43800,2,0,B|384:128,1,105.000004005432,0|8,0:0|0:0,0:0:0
452,368,44100,1,0,0:0:0
452,368,44175,1,0,0:0:0
452,368,44250,1,8,0:0:0
452,368,44325,1,0,0:0:0
452,368,44400,6,0,B|436:260,1,105.000004005432,0|0,0:0|0:0,0:0:0
400,20,44700,2,0,B|416:128,1,105.000004005432,8|0,0:0|0:0,0:0:0
360,368,45000,2,0,B|344:260,1,105.000004005432,0|8,0:0|0:0,0:0:0
316,20,45300,1,4,0:0:0
256,380,45600,5,0,0:0:0
256,224,45750,1,0,0:0:0
184,364,45900,1,0,0:0:0
184,208,46050,1,0,0:0:0
112,348,46200,1,0,0:0:0
112,192,46350,1,0,0:0:0
40,332,46500,1,0,0:0:0
40,176,46650,1,0,0:0:0
112,36,46800,5,0,0:0:0
412,48,46950,1,0,0:0:0
400,348,47100,1,0,0:0:0
204,28,47400,6,4,B|168:8,15,26.2500010013581,4|4|4|4|4|4|4|4|4|4|4|4|4|4|4|4,0:0|0:0|0:0|0:0|0:0|0:0|0:0|0:0|0:0|0:0|0:0|0:0|0:0|0:0|0:0|0:0,0:0:0
168,48,48000,6,0,B|128:88|72:72|72:72|44:136|100:224,1,245.000002336502,4|8,0:0|0:0,0:0:0
388,88,48450,1,0,0:0:0
344,68,48525,1,0,0:0:0
296,68,48600,1,0,0:0:0
252,88,48675,1,0,0:0:0
224,128,48750,1,0,0:0:0
304,292,48900,2,0,B|316:156,1,122.500001168251,8|0,0:0|0:0,0:0:0
193,229,49200,6,0,B|204:352,1,122.500001168251,0|0,0:0|0:0,0:0:0
204,352,49425,1,0,0:0:0
204,352,49500,1,8,0:0:0
304,292,49650,1,0,0:0:0
96,176,49800,1,0,0:0:0
108,296,49950,1,0,0:0:0
404,296,50100,1,8,0:0:0
416,176,50250,5,0,0:0:0
416,176,50325,1,0,0:0:0
416,176,50400,2,0,B|440:108|440:108|424:40|336:32,1,183.750001752377,0|0,0:0|0:0,0:0:0
224,52,50700,2,0,B|356:88,1,122.500001168251,8|0,0:0|0:0,0:0:0
288,332,51000,2,0,B|156:296,1,122.500001168251,8|0,0:0|0:0,0:0:0
112,80,51300,1,8,0:0:0
256,192,51450,5,8,0:0:0
256,208,51525,1,0,0:0:0
256,224,51600,2,0,B|240:260|240:260|216:296|148:300,1,122.500001168251
256,160,51900,2,0,B|272:124|272:124|296:88|364:84,1,122.500001168251,8|0,0:0|0:0,0:0:0
76,280,52200,1,0,0:0:0
76,280,52275,1,0,0:0:0
76,280,52350,1,0,0:0:0
76,280,52425,1,0,0:0:0
76,280,52500,1,8,0:0:0
44,240,52575,1,0,0:0:0
36,192,52650,1,8,0:0:0
48,144,52725,1,0,0:0:0
76,104,52800,6,0,B|124:56|196:60,1,122.500001168251,4|0,0:0|0:0,0:0:0
436,104,53100,2,0,B|388:56|316:60,1,122.500001168251,12|0,0:0|0:0,0:0:0
36,192,53400,2,0,B|8:264|8:264|28:360|76:292|144:372,1,245.000002336502,0|8,0:0|0:0,0:0:0
131,359,53775,1,0,0:0:0
131,359,53850,1,0,0:0:0
164,117,54000,2,0,B|120:232,1,122.500001168251
347,266,54300,2,0,B|392:152,1,122.500001168251,8|0,0:0|0:0,0:0:0
136,52,54600,1,0,0:0:0
88,56,54675,1,0,0:0:0
48,84,54750,1,0,0:0:0
24,128,54825,1,0,0:0:0
20,176,54900,5,8,0:0:0
256,72,55050,1,0,0:0:0
440,268,55200,1,0,0:0:0
464,84,55350,1,0,0:0:0
488,128,55425,1,0,0:0:0
492,176,55500,1,8,0:0:0
376,52,55650,1,0,0:0:0
256,272,55800,6,0,B|216:320|132:356,1,122.500001168251,0|0,0:0|0:0,0:0:0
256,272,56100,2,0,B|296:320|380:356,1,122.500001168251,8|0,0:0|0:0,0:0:0
144,224,56400,2,0,B|83:237|83:237|43:293,1,122.500001168251,0|0,0:0|0:0,0:0:0
368,224,56700,2,0,B|429:237|429:237|469:293,1,122.500001168251,8|0,0:0|0:0,0:0:0
164,120,57000,2,0,B|14:164,1,122.500001168251,8|0,0:0|0:0,0:0:0
348,120,57300,2,0,B|498:164,1,122.500001168251,8|0,0:0|0:0,0:0:0
172,68,57600,6,0,B|144:28,7,30.6250002920628,4|0|4|0|4|0|4|0,0:0|0:0|0:0|0:0|0:0|0:0|0:0|0:0,0:0:0
204,60,57900,2,0,B|256:40|308:60,1,105.000004005432,8|0,0:0|0:0,0:0:0
121,314,58200,2,0,B|65:234|81:154|81:154|104:120,1,210.000008010865,0|8,0:0|0:0,0:0:0
256,232,58650,1,0,0:0:0
408,120,58800,6,0,B|432:160|432:160|436:200|428:248,1,105.000004005432
332,368,59100,2,0,B|308:328|308:328|304:288|312:240,1,105.000004005432,8|0,0:0|0:0,0:0:0
304,84,59400,1,0,0:0:0
440,340,59550,1,0,0:0:0
440,340,59625,1,0,0:0:0
440,340,59700,1,8,0:0:0
256,152,59850,1,0,0:0:0
72,340,60000,6,0,B|20:312|20:312|8:280|16:236,1,105.000004005432
112,40,60300,2,0,B|164:68|164:68|176:100|168:144,1,105.000004005432,8|0,0:0|0:0,0:0:0
20,144,60600,2,0,B|-12:120,7,26.2500010013581
56,164,60900,1,8,0:0:0
256,256,61050,1,0,0:0:0
492,144,61200,2,0,B|524:120,7,26.2500010013581
456,164,61500,1,8,0:0:0
256,128,61650,1,0,0:0:0
308,40,61800,2,0,B|420:40,1,105.000004005432
100,40,62100,1,0,0:0:0
256,344,62400,5,4,0:0:0
136,60,71400,5,8,0:0:0
92,92,71475,1,0,0:0:0
68,140,71550,1,0,0:0:0
64,192,71625,1,0,0:0:0
68,244,71700,1,8,0:0:0
136,324,71850,1,8,0:0:0
136,324,72000,6,0,B|248:352,1,105.000004005432,4|0,0:0|0:0,0:0:0
384,240,72300,2,0,B|272:268,1,105.000004005432,8|0,0:0|0:0,0:0:0
420,144,72600,2,0,B|480:164|480:164|520:244|460:316,2,210.000008010865,0|8|0,0:0|0:0|0:0,0:0:0
256,192,73350,1,0,0:0:0
420,144,73500,2,0,B|448:40,1,105.000004005432,8|0,0:0|0:0,0:0:0
320,0,73800,2,0,B|320:104,1,105.000004005432,0|0,0:0|0:0,0:0:0
256,284,74100,1,8,0:0:0
41,302,74250,2,0,B|-8:244|32:164|32:164|92:144,1,210.000008010865
114,235,74700,6,0,B|136:288|136:288|136:336,1,105.000004005432,8|0,0:0|0:0,0:0:0
12,144,75000,2,0,B|-4:88|-4:88|12:36,1,105.000004005432
256,140,75300,2,0,B|256:245,1,105.000004005432,8|0,0:0|0:0,0:0:0
502,340,75600,2,0,B|516:296|516:296|500:240,1,105.000004005432
376,48,75900,2,0,B|376:96|376:96|397:148,1,105.000004005432,8|0,0:0|0:0,0:0:0
397,148,76125,1,0,0:0:0
397,148,76200,1,0,0:0:0
256,40,76350,1,0,0:0:0
114,148,76500,1,8,0:0:0
256,260,76650,1,0,0:0:0
196,16,76800,6,0,B|212:124,1,105.000004005432
152,368,77100,2,0,B|168:260,1,105.000004005432,8|0,0:0|0:0,0:0:0
112,20,77400,2,0,B|128:128,1,105.000004005432,0|0,0:0|0:0,0:0:0
60,368,77700,1,8,0:0:0
60,368,77850,1,8,0:0:0
60,368,78000,6,0,B|76:260,1,105.000004005432,0|0,0:0|0:0,0:0:0
112,20,78300,2,0,B|96:128,1,105.000004005432,8|0,0:0|0:0,0:0:0
152,368,78600,2,0,B|168:260,1,105.000004005432,0|8,0:0|0:0,0:0:0
196,20,78900,1,12,0:0:0
256,380,79200,5,0,0:0:0
400,192,79350,1,0,0:0:0
328,364,79500,1,0,0:0:0
252,224,79650,1,0,0:0:0
400,348,79800,1,0,0:0:0
328,208,79950,1,0,0:0:0
472,332,80100,1,0,0:0:0
472,176,80250,1,0,0:0:0
100,48,80400,5,0,0:0:0
400,36,80550,1,0,0:0:0
112,348,80700,1,0,0:0:0
412,336,81000,5,0,0:0:0
112,348,81150,1,0,0:0:0
400,36,81300,1,0,0:0:0
112,348,81450,1,0,0:0:0
444,56,81600,6,0,B|336:12|336:12|256:36|256:108,1,245.000002336502,4|8,0:0|0:0,0:0:0
256,272,82050,1,0,0:0:0
428,252,82200,1,0,0:0:0
440,204,82275,1,0,0:0:0
436,156,82350,1,0,0:0:0
256,32,82500,1,8,0:0:0
256,352,82650,1,0,0:0:0
136,352,82800,6,0,B|88:348|64:324|64:324|56:272,1,122.500001168251
72,136,83100,1,8,0:0:0
160,248,83250,1,0,0:0:0
0,192,83400,1,0,0:0:0
144,76,83550,1,0,0:0:0
256,252,83700,1,8,0:0:0
368,76,83850,1,0,0:0:0
368,308,84000,6,0,B|372:176,1,122.500001168251
256,8,84300,1,8,0:0:0
284,24,84375,1,0,0:0:0
308,44,84450,2,0,B|332:88|332:88|316:144|244:144,1,122.500001168251
204,340,84750,1,0,0:0:0
103,218,84900,2,0,B|127:178|127:178|184:164|195:194,1,122.500001168251,8|0,0:0|0:0,0:0:0
472,253,85200,6,0,B|352:232,1,122.500001168251
39,130,85500,2,0,B|160:152,1,122.500001168251,8|0,0:0|0:0,0:0:0
368,308,85800,1,0,0:0:0
340,348,85875,1,0,0:0:0
296,364,85950,1,0,0:0:0
248,364,86025,1,0,0:0:0
204,340,86100,1,8,0:0:0
160,316,86175,1,0,0:0:0
112,316,86250,1,8,0:0:0
72,344,86325,1,0,0:0:0
24,332,86400,6,0,B|4:276|4:276|4:248|16:216,1,122.500001168251,4|0,0:0|0:0,0:0:0
488,52,86700,2,0,B|508:108|508:108|508:136|496:168,1,122.500001168251,8|0,0:0|0:0,0:0:0
256,192,87000,2,0,B|212:144|212:144|232:40|344:52,1,245.000002336502,0|8,0:0|0:0,0:0:0
342,51,87375,1,0,0:0:0
342,51,87450,1,0,0:0:0
416,216,87600,6,0,B|396:348,1,122.500001168251
96,168,87900,2,0,B|116:36,1,122.500001168251,8|0,0:0|0:0,0:0:0
332,152,88200,1,0,0:0:0
340,184,88275,1,0,0:0:0
336,216,88350,1,8,0:0:0
136,352,88500,1,8,0:0:0
88,340,88575,1,0,0:0:0
53,300,88650,1,8,0:0:0
44,252,88725,1,0,0:0:0
48,204,88800,6,0,B|60:136|144:128,1,122.500001168251
256,308,89100,2,0,B|256:376,2,61.2500005841255,8|0|0,0:0|0:0|0:0,0:0:0
160,244,89400,1,0,0:0:0
256,76,89550,2,0,B|256:8,2,61.2500005841255,8|0|0,0:0|0:0|0:0,0:0:0
392,192,89850,5,8,0:0:0
440,192,89925,1,0,0:0:0
488,192,90000,1,4,0:0:0
208,76,90300,1,8,0:0:0
256,76,90375,1,0,0:0:0
304,76,90450,1,4,0:0:0
24,192,90750,1,8,0:0:0
120,192,90900,1,8,0:0:0
24,148,91050,1,8,0:0:0
120,236,91200,5,4,0:0:0
20,268,91500,1,0,0:0:0
24,148,91800,2,0,B|44:92|108:76|160:80|200:128,1,210.000008010865,8|0,0:0|0:0,0:0:0
236,216,92550,1,0,0:0:0
204,348,92700,2,0,B|192:328|192:328|188:296,1,52.5000020027161
146,68,93000,2,0,B|170:68|170:68|199:81,1,52.5000020027161,8|0,0:0|0:0,0:0:0
417,159,93300,2,0,B|405:179|405:179|380:198,1,52.5000020027161
276,168,93600,5,0,0:0:0
496,104,93900,1,0,0:0:0
364,344,94200,6,0,B|312:312|328:240,1,105.000004005432,8|0,0:0|0:0,0:0:0
416,160,94650,1,0,0:0:0
460,280,94800,2,0,B|404:268,1,52.5000020027161
200,360,95100,2,0,B|256:348,1,52.5000020027161
128,160,95400,2,0,B|152:188,3,26.2500010013581,8|0|0|0,0:0|0:0|0:0|0:0,0:0:0
96,144,95700,2,0,B|56:152|48:196,1,52.5000020027161
92,272,96000,5,0,0:0:0
420,112,96300,1,0,0:0:0
184,36,96600,2,0,B|172:88|172:88|200:136,2,105.000004005432,8|8|0,0:0|0:0|0:0,0:0:0
288,16,97350,1,0,0:0:0
372,80,97500,2,0,B|388:108|388:108|388:140,1,52.5000020027161
200,284,97800,2,0,B|184:256|184:256|184:224,1,52.5000020027161,8|0,0:0|0:0,0:0:0
436,256,98100,1,0,0:0:0
436,256,98250,1,0,0:0:0
364,336,98400,5,0,0:0:0
256,192,98700,1,0,0:0:0
364,48,99000,6,0,B|400:76|400:76|408:120,1,78.7500030040742,8|0,0:0|0:0,0:0:0
360,188,99300,2,0,B|360:132,1,52.5000020027161
184,64,99600,2,0,B|184:136,1,70
120,296,99900,2,0,B|120:224,1,70
88,44,100200,6,0,B|92:92|92:92|80:136,1,87.5
216,328,100500,2,0,B|212:280|212:280|224:236,1,87.5
348,72,100800,6,4,B|352:156|352:156|316:260,2,175,4|4|12,0:0|0:0|0:0,0:0:0
344,52,101475,1,0,0:0:0
340,32,101550,1,0,0:0:0
448,148,101700,1,8,0:0:0
444,128,101775,1,0,0:0:0
440,108,101850,1,0,0:0:0
432,236,102000,6,0,B|404:319,1,87.5
192,252,102300,1,8,0:0:0
320,252,102450,1,0,0:0:0
256,328,102600,1,0,0:0:0
216,344,102675,1,0,0:0:0
172,344,102750,1,0,0:0:0
132,324,102825,1,0,0:0:0
104,288,102900,1,8,0:0:0
256,136,103050,1,8,0:0:0
120,172,103200,6,0,B|12:204,1,87.5
156,60,103500,2,0,B|48:92,1,87.5,8|0,0:0|0:0,0:0:0
256,136,103800,1,0,0:0:0
360,60,103950,1,0,0:0:0
256,28,104100,1,0,0:0:0
360,172,104250,1,0,0:0:0
464,116,104400,5,0,0:0:0
464,116,104550,1,0,0:0:0
464,116,104700,1,0,0:0:0
464,116,104850,1,0,0:0:0
384,312,105000,2,0,B|328:268|328:268|324:208|372:160,2,175,4|4|0,0:0|0:0|0:0,0:0:0
436,228,105750,5,0,0:0:0
244,188,105900,2,0,B|128:192,1,87.5,8|0,0:0|0:0,0:0:0
284,300,106200,1,0,0:0:0
92,260,106350,2,0,B|-24:264,1,87.5,8|0,0:0|0:0,0:0:0
144,368,106650,1,0,0:0:0
76,160,106800,6,0,B|44:100|88:24|156:28,1,175,8|0,0:0|0:0,0:0:0
224,372,107250,2,0,B|164:404|88:360|92:292,1,175,8|0,0:0|0:0,0:0:0
436,224,107700,2,0,B|468:284|424:360|356:356,1,175,8|0,0:0|0:0,0:0:0
356,264,108150,5,0,0:0:0
480,64,108300,2,0,B|480:164,1,87.5,8|0,0:0|0:0,0:0:0
32,320,108600,2,0,B|32:220,1,87.5,8|0,0:0|0:0,0:0:0
116,24,108900,1,0,0:0:0
160,32,108975,1,0,0:0:0
192,60,109050,1,0,0:0:0
204,104,109125,1,0,0:0:0
192,144,109200,6,0,B|164:188|100:176,1,87.5,8|0,0:0|0:0,0:0:0
320,240,109500,2,0,B|348:196|412:208,1,87.5,8|0,0:0|0:0,0:0:0
256,324,109800,2,0,B|256:360,6,21.875
184,280,110100,2,0,B|156:296,6,21.875,8|0|8|0|8|0|8,0:0|0:0|0:0|0:0|0:0|0:0|0:0,0:0:0
80,140,110400,6,0,B|24:172|32:260|96:284,1,175,4|8,0:0|0:0,0:0:0
256,188,110850,1,0,0:0:0
337,118,111000,2,0,B|348:32,1,87.5,0|0,0:0|0:0,0:0:0
164,32,111300,2,0,B|174:118,1,87.5,8|0,0:0|0:0,0:0:0
348,216,111600,1,0,0:0:0
436,152,111750,1,0,0:0:0
456,156,111825,1,0,0:0:0
476,168,111900,2,0,B|516:200|504:256,1,87.5,8|0,0:0|0:0,0:0:0
276,280,112200,1,0,0:0:0
276,280,112275,1,0,0:0:0
276,280,112350,2,0,B|268:336|316:360,1,87.5,0|8,0:0|0:0,0:0:0
256,192,112650,1,0,0:0:0
176,148,112800,6,0,B|76:156,1,87.5
67,157,113025,1,0,0:0:0
45,159,113100,1,8,0:0:0
188,256,113250,1,0,0:0:0
96,264,113400,1,0,0:0:0
74,266,113475,1,0,0:0:0
52,269,113550,1,0,0:0:0
30,271,113625,1,0,0:0:0
8,274,113700,1,8,0:0:0
152,344,113850,1,0,0:0:0
253,360,114000,6,0,B|306:348|321:286,1,87.5
120,92,114300,2,0,B|132:145|194:160,1,87.5,8|0,0:0|0:0,0:0:0
392,292,114600,1,8,0:0:0
392,292,114675,1,0,0:0:0
392,292,114750,1,0,0:0:0
392,292,114825,1,0,0:0:0
392,292,114900,2,0,B|380:239|318:224,1,87.5,8|8,0:0|0:0,0:0:0
424,48,115200,6,0,B|483:69|491:157|435:189,2,175,0|8|0,0:0|0:0|0:0,0:0:0
404,40,115875,1,0,0:0:0
384,40,115950,1,0,0:0:0
304,132,116100,2,0,B|412:120,1,87.5,8|0,0:0|0:0,0:0:0
208,252,116400,6,0,B|100:264,1,87.5,0|0,0:0|0:0,0:0:0
100,260,116625,1,0,0:0:0
80,252,116700,2,0,B|36:212|48:160,1,87.5,8|0,0:0|0:0,0:0:0
80,96,117000,1,0,0:0:0
256,32,117150,1,0,0:0:0
224,200,117300,1,8,0:0:0
160,36,117450,1,0,0:0:0
352,36,117600,6,0,B|460:56,1,87.5,0|8,0:0|0:0,0:0:0
456,332,117900,1,0,0:0:0
420,308,117975,1,0,0:0:0
400,272,118050,1,0,0:0:0
396,228,118125,1,0,0:0:0
408,184,118200,2,0,B|432:140|480:132,1,87.5
324,332,118500,1,8,0:0:0
324,152,118650,1,8,0:0:0
232,300,118800,6,0,B|208:344|160:352,1,87.5,4|0,0:0|0:0,0:0:0
148,168,119100,2,0,B|104:144|96:96,1,87.5,4|0,0:0|0:0,0:0:0
415,100,119400,2,0,B|407:144|364:168,1,87.5,4|0,0:0|0:0,0:0:0
347,351,119700,2,0,B|304:344|280:300,1,87.5,4|0,0:0|0:0,0:0:0
184,84,120000,6,0,B|244:92|264:200|200:244,1,175,4|8,0:0|0:0,0:0:0
148,168,120450,1,0,0:0:0
256,28,120600,1,0,0:0:0
256,28,120675,1,0,0:0:0
256,28,120750,1,0,0:0:0
96,92,120900,1,8,0:0:0
96,292,121050,1,0,0:0:0
148,360,121200,6,0,B|184:328|180:272,1,87.5
256,192,121500,1,8,0:0:0
256,192,121575,1,0,0:0:0
256,192,121650,1,0,0:0:0
364,24,121800,2,0,B|328:56|332:112,1,87.5
364,360,122100,2,0,B|328:328|332:272,1,87.5,8|0,0:0|0:0,0:0:0
416,92,122400,5,0,0:0:0
484,148,122550,1,0,0:0:0
492,192,122625,1,0,0:0:0
484,236,122700,1,8,0:0:0
416,292,122850,1,0,0:0:0
212,104,123000,2,0,B|300:104,1,87.5
300,280,123300,2,0,B|212:280,1,87.5,8|0,0:0|0:0,0:0:0
91,125,123600,6,0,B|139:149|144:192,1,87.5
322,27,123900,2,0,B|298:75|256:80,1,87.5,8|0,0:0|0:0,0:0:0
420,16,124200,1,0,0:0:0
420,16,124275,1,0,0:0:0
420,16,124350,1,0,0:0:0
420,16,124425,1,0,0:0:0
420,16,124500,2,0,B|468:32|476:80,1,87.5,8|8,0:0|0:0,0:0:0
384,261,124800,6,0,B|336:173|392:96,1,175,4|8,0:0|0:0,0:0:0
452,324,125250,1,0,0:0:0
436,336,125325,1,0,0:0:0
416,344,125400,2,0,B|372:360|332:328,1,87.5
173,177,125700,2,0,B|217:161|256:192,1,87.5,8|0,0:0|0:0,0:0:0
104,228,126000,2,0,B|80:184|96:136,1,87.5
418,143,126300,2,0,B|432:184|408:228,1,87.5,8|0,0:0|0:0,0:0:0
256,272,126600,1,0,0:0:0
160,96,126750,1,0,0:0:0
352,96,126900,1,8,0:0:0
256,272,127050,1,0,0:0:0
156,316,127200,6,0,B|64:316,1,87.5
68,68,127500,2,0,B|156:68,1,87.5,8|0,0:0|0:0,0:0:0
443,316,127800,2,0,B|356:316,1,87.5
356,68,128100,2,0,B|444:68,1,87.5,8|0,0:0|0:0,0:0:0
328,316,128400,2,0,B|316:320|300:348|300:348|284:320|272:316,1,87.5
184,68,128700,2,0,B|196:64|212:36|212:36|228:64|240:68,1,87.5,8|0,0:0|0:0,0:0:0
136,192,129000,1,0,0:0:0
36,112,129150,2,0,B|12:96,4,21.875,0|0|0|0|8,0:0|0:0|0:0|0:0|0:0,0:0:0
36,272,129450,1,0,0:0:0
144,296,129600,6,0,B|136:348|80:372,1,87.5,8|0,0:0|0:0,0:0:0
360,304,129900,2,0,B|412:312|436:368,1,87.5,8|0,0:0|0:0,0:0:0
368,88,130200,2,0,B|376:36|432:12,1,87.5,8|0,0:0|0:0,0:0:0
152,80,130500,2,0,B|100:72|76:16,1,87.5,8|0,0:0|0:0,0:0:0
448,104,130800,2,0,B|440:156|384:180,1,87.5,8|8,0:0|0:0,0:0:0
256,72,131100,2,0,B|256:44,4,21.875
256,196,131400,2,0,B|256:224,4,21.875
172,232,131700,2,0,B|180:276|228:300,1,87.5
152,80,132000,6,0,B|100:84|64:128,1,87.5,0|8,0:0|0:0,0:0:0
60,136,132225,1,0,0:0:0
52,156,132300,2,0,B|28:196|48:256,1,90.9999958343508,0|8,0:0|0:0,0:0:0
49,266,132525,1,0,0:0:0
62,285,132600,2,0,B|104:339|157:344,1,94.5000003604889,0|8,0:0|0:0,0:0:0
159,346,132825,1,0,0:0:0
182,351,132900,2,0,B|239:357|290:343,1,97.9999970092774,0|8,0:0|0:0,0:0:0
330,33,133200,6,0,B|273:27|216:43,1,101.500003097534
356,335,133500,2,0,B|396:296|412:224,1,105.000004005432
81,207,133800,6,0,B|100:264|152:320,2,112
256,120,134250,1,0,0:0:0
440,40,134400,6,0,B|496:92|452:164|452:164|364:156|336:256,1,280,0|8,0:0|0:0,0:0:0
160,144,134850,1,0,0:0:0
320,48,135000,1,0,0:0:0
320,48,135075,1,0,0:0:0
320,48,135150,1,0,0:0:0
160,248,135300,2,0,B|84:240|56:160,1,140,8|0,0:0|0:0,0:0:0
352,136,135600,6,0,B|428:144|456:224,1,140,0|0,0:0|0:0,0:0:0
256,352,135900,2,0,B|264:276|356:240,1,140,8|0,0:0|0:0,0:0:0
256,32,136200,2,0,B|248:108|156:144,1,140,8|0,0:0|0:0,0:0:0
140,28,136500,1,8,0:0:0
372,28,136650,1,0,0:0:0
404,40,136725,1,8,0:0:0
432,60,136800,6,0,B|476:120|448:192,1,140
344,348,137100,2,0,B|300:288|328:216,1,140,8|0,0:0|0:0,0:0:0
60,336,137400,2,0,B|24:244|136:136|240:220,1,280,0|8,0:0|0:0,0:0:0
420,272,137850,1,0,0:0:0
264,368,138000,2,0,B|172:368|156:280,1,140
248,16,138300,2,0,B|340:16|356:104,1,140,8|0,0:0|0:0,0:0:0
452,48,138600,2,0,B|488:140|376:248|272:164,1,280,0|8,0:0|0:0,0:0:0
232,124,138975,1,0,0:0:0
172,88,139050,1,8,0:0:0
104,88,139125,1,0,0:0:0
44,128,139200,6,0,B|0:188|32:268,1,140,4|0,0:0|0:0,0:0:0
192,372,139500,2,0,B|236:312|204:232,1,140,12|0,0:0|0:0,0:0:0
376,40,139800,2,0,B|272:68|252:216|344:272,1,280,0|8,0:0|0:0,0:0:0
396,292,140175,1,0,0:0:0
464,276,140250,1,8,0:0:0
488,212,140325,1,0,0:0:0
456,148,140400,2,0,B|408:96|312:120,1,140
56,236,140700,6,0,B|104:288|200:264,1,140,12|0,0:0|0:0,0:0:0
212,0,141000,2,0,B|160:40|184:136,1,140,12|0,0:0|0:0,0:0:0
300,392,141300,2,0,B|352:344|328:248,1,140,12|8,0:0|0:0,0:0:0
56,236,141600,6,0,B|84:332|224:308|224:308|208:268|224:208,1,280,4|8,0:0|0:0,0:0:0
256,100,142050,1,0,0:0:0
112,48,142200,1,0,0:0:0
44,64,142275,1,0,0:0:0
4,120,142350,1,0,0:0:0
4,188,142425,1,0,0:0:0
56,236,142500,1,8,0:0:0
256,196,142650,1,8,0:0:0
340,84,142800,6,0,B|312:8|228:16,1,140
56,236,143100,2,0,B|56:376,1,140,8|0,0:0|0:0,0:0:0
456,148,143400,2,0,B|456:8,1,140,8|0,0:0|0:0,0:0:0
172,300,143700,2,8,B|200:376|284:368,1,140
340,84,144000,6,0,B|360:44,6,35,4|0|0|0|0|0|0,0:0|0:0|0:0|0:0|0:0|0:0|0:0,0:0:0
316,64,144300,2,0,B|248:24|180:60,1,140,8|0,0:0|0:0,0:0:0
346,341,144600,1,0,0:0:0
418,334,144675,1,0,0:0:0
464,281,144750,1,0,0:0:0
478,212,144825,1,0,0:0:0
440,156,144900,1,8,0:0:0
256,192,145050,1,0,0:0:0
47,280,145200,6,0,B|56:312|120:336|172:304,1,140
170,79,145500,2,0,B|120:48|56:72|48:103,1,140,8|0,0:0|0:0,0:0:0
103,340,145800,2,0,B|112:372|176:396|228:364,1,140
225,18,146100,2,0,B|168:-20|112:12|103:43,1,140,8|0,0:0|0:0,0:0:0
256,368,146400,6,0,B|352:388|424:260|352:170,1,280,4|8,0:0|0:0,0:0:0
252,0,146850,1,0,0:0:0
224,64,146925,1,0,0:0:0
224,132,147000,2,0,B|228:208|284:260,1,140
52,32,147300,2,0,B|19:100|44:173,1,140,8|0,0:0|0:0,0:0:0
120,364,147600,2,0,B|220:304|212:156|116:88,1,280,0|8,0:0|0:0,0:0:0
72,116,147975,1,0,0:0:0
20,160,148050,1,0,0:0:0
32,228,148125,1,0,0:0:0
92,268,148200,2,0,B|156:304|240:276,1,140
420,116,148500,2,0,B|356:80|272:108,1,140,8|0,0:0|0:0,0:0:0
200,28,148800,6,0,B|164:92|192:176,1,140,4|0,0:0|0:0,0:0:0
312,356,149100,2,0,B|348:292|320:208,1,140,4|0,0:0|0:0,0:0:0
112,24,149400,2,0,B|76:88|104:172,1,140,4|0,0:0|0:0,0:0:0
400,360,149700,2,0,B|436:296|408:212,1,140,4|0,0:0|0:0,0:0:0
200,356,150000,1,8,0:0:0
200,356,150075,1,0,0:0:0
200,356,150150,1,0,0:0:0
24,192,150300,1,8,0:0:0
24,192,150375,1,0,0:0:0
24,192,150450,1,0,0:0:0
312,28,150600,1,8,0:0:0
312,28,150675,1,0,0:0:0
312,28,150750,1,0,0:0:0
488,192,150900,1,8,0:0:0
488,192,150975,1,0,0:0:0
488,192,151050,1,0,0:0:0
404,280,151200,6,0,B|352:220|384:136,1,140
132,148,151500,1,8,0:0:0
132,148,151575,1,0,0:0:0
132,148,151650,1,0,0:0:0
132,148,151725,1,8,0:0:0
132,148,151800,2,0,B|160:220|108:280,1,140
60,80,152100,1,8,0:0:0
124,52,152175,1,0,0:0:0
192,60,152250,1,0,0:0:0
256,192,152400,5,8,0:0:0
256,336,152550,1,0,0:0:0
256,336,152625,1,0,0:0:0
256,336,152700,2,0,B|256:384,6,35,0|0|0|0|8|0|0,0:0|0:0|0:0|0:0|0:0|0:0|0:0,0:0:0
256,268,153000,2,0,B|256:303,6,35,0|0|0|0|0|0|0,0:0|0:0|0:0|0:0|0:0|0:0|0:0,0:0:0
256,192,153300,1,0,0:0:0
256,48,153450,1,0,0:0:0
