osu file format v12

[General]
AudioFilename: Over my head (AmenPunk).mp3
AudioLeadIn: 1511
PreviewTime: 47400
Countdown: 0
SampleSet: None
StackLeniency: 0.7
Mode: 1
LetterboxInBreaks: 1

[Editor]
Bookmarks: 19200,23700,48000,62400,100800,134400
DistanceSpacing: 1
BeatDivisor: 4
GridSize: 4

[Metadata]
Title:Over my head
TitleUnicode:Over my head
Artist:yambabom
ArtistUnicode:yambabom
Creator:Backfire
Version:Taikocalypse Act I : The Return
Source:
Tags:breakcore sum41
BeatmapID:269411
BeatmapSetID:101768

[Difficulty]
HPDrainRate:5
CircleSize:4
OverallDifficulty:5
ApproachRate:10
SliderMultiplier:1.4
SliderTickRate:1

[Events]
//Background and Video events
0,0,"abstract.jpg",0,0
//Break Periods
//Storyboard Layer 0 (Background)
//Storyboard Layer 1 (Fail)
//Storyboard Layer 2 (Pass)
//Storyboard Layer 3 (Foreground)
//Storyboard Sound Samples
//Background Colour Transformations
3,100,0,0,0

[TimingPoints]
0,300.000303030304,4,2,0,25,1,0
0,-100,4,2,0,25,0,0
600,-100,4,2,0,25,0,0
900,-100,4,2,0,25,0,0
2700,-100,4,2,0,25,0,0
3000,-100,4,2,0,25,0,0
3300,-100,4,2,0,25,0,0
5400,-100,4,2,0,25,0,0
6300,-100,4,2,0,25,0,0
7500,-100,4,2,0,29,0,0
7800,-100,4,2,0,29,0,0
8100,-100,4,2,0,33,0,0
8400,-100,4,2,0,37,0,0
8700,-100,4,2,0,41,0,0
9000,-100,4,2,0,45,0,0
18600,-100,4,2,0,45,0,0
19200,-100,4,1,0,55,0,1
28800,-100,4,1,0,55,0,0
45750,-66.6666666666667,4,1,0,55,0,0
45900,-50,4,1,0,55,0,0
46050,100,4,1,0,55,1,0
46200,50,4,1,0,55,1,0
46350,25,4,1,0,55,1,0
46500,16.6666666666667,4,1,0,55,1,0
46650,12.5,4,1,0,55,1,0
46800,10,4,1,0,55,1,0
46950,7.5,4,1,0,55,1,0
47100,6,4,1,0,55,1,0
47400,-100,4,2,0,9,0,0
47475,-100,4,2,0,18,0,0
47550,-100,4,2,0,27,0,0
47625,-100,4,2,0,36,0,0
47700,-100,4,2,0,45,0,0
47775,-100,4,2,0,54,0,0
47850,-100,4,2,0,63,0,0
47925,-100,4,2,0,72,0,0
48000,300.000303030304,4,1,0,75,1,1
48000,-100,4,1,0,75,0,1
57525,-100,4,1,0,75,0,0
57600,-100,4,2,0,75,0,1
57900,-100,4,1,0,75,0,0
79350,-66.6666666666667,4,1,0,75,0,0
79500,-50,4,1,0,75,0,0
79650,150,4,1,0,75,1,0
79800,75,4,1,0,75,1,0
79950,37.5,4,1,0,75,1,0
80100,25,4,1,0,75,1,0
80250,16.6666666666667,4,1,0,75,1,0
80400,12.5,4,1,0,75,1,0
80550,7.5,4,1,0,75,1,0
80700,6,4,1,0,75,1,0
81600,300.000303030304,4,1,0,75,1,1
81600,-100,4,1,0,75,0,1
91200,-133.333333333333,4,1,0,75,0,0
99600,-114.942528735632,4,1,0,75,0,0
100200,-100,4,1,0,75,0,0
104400,-90.9090909090909,4,1,0,75,0,0
104550,-83.3333333333333,4,1,0,75,0,0
104700,-76.9230769230769,4,1,0,75,0,0
104850,-71.4285714285714,4,1,0,75,0,0
105000,-66.6666666666667,4,1,0,75,0,0
105600,-100,4,1,0,75,0,0
118725,-100,4,1,0,75,0,1
118800,-100,4,1,0,75,0,0
119025,-100,4,1,0,75,0,1
119100,-100,4,1,0,75,0,0
119325,-100,4,1,0,75,0,1
119400,-100,4,1,0,75,0,0
119625,-100,4,1,0,75,0,1
119700,-100,4,1,0,75,0,0
119925,-100,4,1,0,75,0,1
120000,-100,4,1,0,75,0,0
132300,-100,4,1,0,75,0,0
132600,-100,4,1,0,75,0,0
132900,-100,4,1,0,75,0,0
133200,-100,4,1,0,75,0,0
133500,-100,4,1,0,75,0,0
133800,-100,4,1,0,75,0,0
134400,-80,4,1,0,75,0,1
134400,-80,4,1,0,75,0,1
148725,-80,4,1,0,75,0,0
148800,-80,4,1,0,75,0,1
149025,-80,4,1,0,75,0,0
149100,-80,4,1,0,75,0,1
149325,-80,4,1,0,75,0,0
149400,-80,4,1,0,75,0,1
149625,-80,4,1,0,75,0,0
149700,-80,4,1,0,75,0,1
149925,-80,4,1,0,75,0,0
150000,-80,4,1,0,75,0,1
153450,-66.6666666666667,4,1,0,75,0,0

[Colours]
Combo1 : 255,128,64
Combo2 : 255,0,0
Combo3 : 255,255,255

[HitObjects]
196,196,0,1,0,0:0:0:0:
196,196,750,1,8,0:0:0:0:
260,244,1200,1,0,0:0:0:0:
260,244,1950,1,8,0:0:0:0:
272,212,2400,5,0,0:0:0:0:
272,212,2700,1,8,0:0:0:0:
180,144,3150,1,0,0:0:0:0:
180,144,3600,1,0,0:0:0:0:
180,144,3900,1,8,0:0:0:0:
180,144,4500,1,0,0:0:0:0:
180,144,4800,1,0,0:0:0:0:
180,144,5100,1,8,0:0:0:0:
180,144,5550,1,0,0:0:0:0:
188,24,6000,1,0,0:0:0:0:
196,84,6300,1,0,0:0:0:0:
216,196,6450,1,8,0:0:0:0:
196,84,6600,1,0,0:0:0:0:
196,84,6900,1,8,0:0:0:0:
256,236,7200,5,0,0:0:0:0:
272,160,7350,1,0,0:0:0:0:
272,160,7500,1,8,0:0:0:0:
272,160,7650,1,0,0:0:0:0:
272,160,7800,1,8,0:0:0:0:
272,160,7950,1,0,0:0:0:0:
272,160,8100,1,8,0:0:0:0:
272,160,8250,1,8,0:0:0:0:
272,160,8400,1,0,0:0:0:0:
304,176,8550,1,0,0:0:0:0:
272,160,8700,1,8,0:0:0:0:
272,160,8850,1,8,0:0:0:0:
292,128,9000,1,0,0:0:0:0:
292,128,9075,1,0,0:0:0:0:
292,128,9150,1,0,0:0:0:0:
292,128,9225,1,0,0:0:0:0:
292,128,9300,1,8,0:0:0:0:
292,128,9450,1,8,0:0:0:0:
292,128,9600,1,4,0:0:0:0:
224,144,9900,1,8,0:0:0:0:
224,144,10050,1,0,0:0:0:0:
224,144,10350,1,0,0:0:0:0:
224,144,10500,1,8,0:0:0:0:
224,144,10800,1,0,0:0:0:0:
224,144,10950,1,0,0:0:0:0:
224,144,11025,1,0,0:0:0:0:
224,144,11100,1,8,0:0:0:0:
224,144,11250,1,0,0:0:0:0:
224,144,11325,1,0,0:0:0:0:
224,144,11400,1,0,0:0:0:0:
220,80,11475,1,0,0:0:0:0:
220,80,11550,1,0,0:0:0:0:
220,80,11700,1,8,0:0:0:0:
176,216,11850,1,0,0:0:0:0:
176,216,12000,1,0,0:0:0:0:
176,216,12300,1,8,0:0:0:0:
176,216,12450,1,0,0:0:0:0:
176,216,12750,1,0,0:0:0:0:
176,216,12900,1,8,0:0:0:0:
184,64,13050,1,0,0:0:0:0:
184,64,13125,1,0,0:0:0:0:
176,216,13200,1,0,0:0:0:0:
184,64,13350,1,0,0:0:0:0:
180,152,13500,1,8,0:0:0:0:
180,152,13650,1,0,0:0:0:0:
168,120,13725,1,0,0:0:0:0:
176,152,13800,1,0,0:0:0:0:
168,120,13875,1,0,0:0:0:0:
168,120,13950,1,8,0:0:0:0:
204,108,14100,1,0,0:0:0:0:
216,208,14250,1,8,0:0:0:0:
216,208,14325,1,8,0:0:0:0:
216,208,14400,1,0,0:0:0:0:
216,208,14550,1,0,0:0:0:0:
216,208,14700,1,8,0:0:0:0:
216,208,14850,1,0,0:0:0:0:
248,208,14925,1,0,0:0:0:0:
216,208,15000,1,8,0:0:0:0:
216,208,15150,1,8,0:0:0:0:
216,208,15225,1,8,0:0:0:0:
248,208,15300,1,0,0:0:0:0:
216,208,15450,1,0,0:0:0:0:
216,208,15600,1,8,0:0:0:0:
216,208,15750,1,0,0:0:0:0:
216,208,15825,1,0,0:0:0:0:
216,208,15900,1,8,0:0:0:0:
216,208,16050,1,0,0:0:0:0:
168,128,16125,1,0,0:0:0:0:
220,104,16200,1,8,0:0:0:0:
224,144,16275,1,8,0:0:0:0:
224,144,16350,1,0,0:0:0:0:
224,144,16425,1,0,0:0:0:0:
224,144,16500,1,8,0:0:0:0:
192,60,16650,1,8,0:0:0:0:
220,104,16725,1,8,0:0:0:0:
220,104,16800,1,0,0:0:0:0:
220,104,16950,1,0,0:0:0:0:
164,92,17100,1,8,0:0:0:0:
164,92,17250,1,8,0:0:0:0:
164,92,17400,1,8,0:0:0:0:
288,176,17475,1,0,0:0:0:0:
164,92,17550,1,8,0:0:0:0:
284,128,17625,1,0,0:0:0:0:
288,176,17700,1,8,0:0:0:0:
288,176,17850,1,0,0:0:0:0:
264,156,17925,1,0,0:0:0:0:
264,156,18000,1,8,0:0:0:0:
264,156,18150,1,0,0:0:0:0:
264,156,18300,1,0,0:0:0:0:
288,176,18350,1,0,0:0:0:0:
288,176,18400,1,0,0:0:0:0:
288,176,18450,1,0,0:0:0:0:
288,176,18500,1,0,0:0:0:0:
288,176,18550,1,0,0:0:0:0:
288,176,18600,1,8,0:0:0:0:
180,164,18750,1,0,0:0:0:0:
180,164,18900,1,8,0:0:0:0:
180,164,19050,1,0,0:0:0:0:
240,212,19200,5,4,0:0:0:0:
240,212,19350,1,0,0:0:0:0:
240,212,19425,1,0,0:0:0:0:
240,212,19500,1,8,0:0:0:0:
204,128,19650,1,0,0:0:0:0:
204,128,19725,1,0,0:0:0:0:
204,128,19800,1,8,0:0:0:0:
204,128,19875,1,0,0:0:0:0:
204,128,19950,1,8,0:0:0:0:
204,128,20100,1,8,0:0:0:0:
204,128,20250,1,0,0:0:0:0:
188,56,20325,1,0,0:0:0:0:
188,56,20400,1,8,0:0:0:0:
204,128,20550,1,0,0:0:0:0:
204,128,20625,1,8,0:0:0:0:
204,128,20700,1,8,0:0:0:0:
204,128,20850,1,8,0:0:0:0:
204,128,20925,1,0,0:0:0:0:
204,128,21000,1,8,0:0:0:0:
204,128,21075,1,8,0:0:0:0:
204,128,21150,1,0,0:0:0:0:
204,128,21225,1,0,0:0:0:0:
204,128,21300,1,8,0:0:0:0:
204,128,21450,1,8,0:0:0:0:
204,128,21525,1,8,0:0:0:0:
204,128,21600,1,0,0:0:0:0:
204,128,21750,1,0,0:0:0:0:
204,128,21900,1,8,0:0:0:0:
240,120,22050,1,0,0:0:0:0:
188,60,22125,1,0,0:0:0:0:
188,60,22200,1,8,0:0:0:0:
188,60,22350,1,0,0:0:0:0:
188,60,22425,1,8,0:0:0:0:
188,60,22500,1,0,0:0:0:0:
188,60,22650,1,8,0:0:0:0:
188,60,22800,1,8,0:0:0:0:
188,60,22950,1,0,0:0:0:0:
188,60,23025,1,0,0:0:0:0:
188,60,23100,1,0,0:0:0:0:
188,60,23250,1,8,0:0:0:0:
188,60,23325,1,0,0:0:0:0:
188,60,23400,1,8,0:0:0:0:
188,60,23475,1,8,0:0:0:0:
188,60,23550,1,0,0:0:0:0:
188,60,23700,1,0,0:0:0:0:
188,60,23775,1,0,0:0:0:0:
188,60,23850,1,8,0:0:0:0:
188,60,24000,1,12,0:0:0:0:
228,212,24150,1,0,0:0:0:0:
228,212,24225,1,0,0:0:0:0:
228,212,24300,1,8,0:0:0:0:
216,144,24450,1,8,0:0:0:0:
216,144,24525,1,0,0:0:0:0:
216,144,24600,1,8,0:0:0:0:
216,144,24675,1,8,0:0:0:0:
216,144,24750,1,0,0:0:0:0:
216,144,24900,1,8,0:0:0:0:
216,144,25050,1,0,0:0:0:0:
216,112,25125,1,0,0:0:0:0:
216,112,25200,1,8,0:0:0:0:
216,112,25350,1,8,0:0:0:0:
228,84,25425,1,0,0:0:0:0:
216,112,25500,1,8,0:0:0:0:
216,112,25650,1,8,0:0:0:0:
216,112,25725,1,0,0:0:0:0:
228,84,25800,1,0,0:0:0:0:
228,84,25875,1,0,0:0:0:0:
228,84,25950,1,8,0:0:0:0:
228,84,26025,1,0,0:0:0:0:
228,84,26100,1,0,0:0:0:0:
280,96,26175,1,8,0:0:0:0:
280,96,26250,1,0,0:0:0:0:
280,96,26325,1,0,0:0:0:0:
280,96,26400,1,8,0:0:0:0:
280,96,26550,1,0,0:0:0:0:
280,96,26700,1,8,0:0:0:0:
216,112,26850,1,0,0:0:0:0:
216,112,27000,1,8,0:0:0:0:
216,112,27075,1,8,0:0:0:0:
220,180,27150,1,0,0:0:0:0:
216,112,27225,1,0,0:0:0:0:
228,84,27300,1,8,0:0:0:0:
220,180,27375,1,8,0:0:0:0:
228,84,27450,1,0,0:0:0:0:
252,164,27600,1,8,0:0:0:0:
168,104,27750,1,8,0:0:0:0:
168,104,27800,1,8,0:0:0:0:
368,112,27850,1,8,0:0:0:0:
220,180,27900,1,8,0:0:0:0:
220,180,28050,1,8,0:0:0:0:
168,104,28100,1,8,0:0:0:0:
168,104,28150,1,8,0:0:0:0:
264,136,28200,1,8,0:0:0:0:
264,136,28350,1,8,0:0:0:0:
264,136,28500,1,8,0:0:0:0:
296,220,28550,1,8,0:0:0:0:
216,112,28600,1,8,0:0:0:0:
220,180,28650,1,8,0:0:0:0:
264,136,28800,1,4,0:0:0:0:
252,164,28950,1,0,0:0:0:0:
252,164,29100,1,8,0:0:0:0:
220,180,29250,1,0,0:0:0:0:
252,164,29325,1,0,0:0:0:0:
216,112,29400,1,8,0:0:0:0:
212,212,29475,1,8,0:0:0:0:
212,212,29550,1,0,0:0:0:0:
276,192,29700,1,8,0:0:0:0:
276,192,29850,1,0,0:0:0:0:
276,192,29925,1,0,0:0:0:0:
276,192,30000,1,8,0:0:0:0:
296,220,30150,1,8,0:0:0:0:
276,192,30300,1,0,0:0:0:0:
276,192,30450,1,0,0:0:0:0:
276,192,30525,1,8,0:0:0:0:
276,192,30600,1,8,0:0:0:0:
276,192,30675,1,0,0:0:0:0:
276,192,30750,1,0,0:0:0:0:
276,192,30825,1,8,0:0:0:0:
276,192,30900,1,0,0:0:0:0:
276,192,31050,1,0,0:0:0:0:
276,192,31125,1,0,0:0:0:0:
276,192,31200,1,8,0:0:0:0:
276,192,31350,1,0,0:0:0:0:
276,192,31425,1,0,0:0:0:0:
276,192,31500,1,8,0:0:0:0:
276,192,31650,1,0,0:0:0:0:
244,200,31725,1,0,0:0:0:0:
244,200,31800,1,8,0:0:0:0:
264,164,31875,1,0,0:0:0:0:
264,164,31950,1,8,0:0:0:0:
264,164,32025,1,0,0:0:0:0:
264,164,32100,1,0,0:0:0:0:
264,164,32175,1,8,0:0:0:0:
264,164,32250,1,0,0:0:0:0:
264,164,32325,1,8,0:0:0:0:
264,164,32400,1,8,0:0:0:0:
264,164,32550,1,0,0:0:0:0:
264,164,32700,1,8,0:0:0:0:
264,164,32850,1,8,0:0:0:0:
264,164,32925,1,0,0:0:0:0:
264,164,33000,1,8,0:0:0:0:
264,164,33075,1,8,0:0:0:0:
264,164,33150,1,0,0:0:0:0:
264,164,33225,1,0,0:0:0:0:
264,164,33300,1,8,0:0:0:0:
264,164,33450,1,0,0:0:0:0:
264,164,33600,1,8,0:0:0:0:
264,164,33750,1,0,0:0:0:0:
264,164,33825,1,0,0:0:0:0:
264,164,33900,1,8,0:0:0:0:
264,164,34050,1,8,0:0:0:0:
284,140,34200,1,0,0:0:0:0:
284,140,34275,1,0,0:0:0:0:
284,140,34350,1,0,0:0:0:0:
284,140,34425,1,0,0:0:0:0:
284,140,34500,1,8,0:0:0:0:
284,140,34650,1,8,0:0:0:0:
284,140,34725,1,8,0:0:0:0:
316,128,34800,1,0,0:0:0:0:
284,140,34950,1,8,0:0:0:0:
284,140,35100,1,8,0:0:0:0:
284,140,35175,1,0,0:0:0:0:
284,140,35250,1,0,0:0:0:0:
284,140,35325,1,8,0:0:0:0:
316,128,35400,1,0,0:0:0:0:
316,128,35475,1,0,0:0:0:0:
316,128,35550,1,8,0:0:0:0:
148,184,35625,1,0,0:0:0:0:
284,140,35700,1,8,0:0:0:0:
284,140,35850,1,0,0:0:0:0:
284,140,35925,1,0,0:0:0:0:
284,140,36000,1,8,0:0:0:0:
284,140,36150,1,8,0:0:0:0:
284,140,36300,1,8,0:0:0:0:
316,128,36375,1,8,0:0:0:0:
284,140,36450,1,0,0:0:0:0:
284,140,36525,1,0,0:0:0:0:
284,140,36600,1,8,0:0:0:0:
284,140,36675,1,8,0:0:0:0:
180,96,36750,1,0,0:0:0:0:
284,140,36825,1,0,0:0:0:0:
284,140,36900,1,8,0:0:0:0:
180,96,36975,1,0,0:0:0:0:
180,96,37050,1,0,0:0:0:0:
180,96,37125,1,8,0:0:0:0:
180,96,37200,1,8,0:0:0:0:
180,96,37350,1,0,0:0:0:0:
180,96,37500,1,8,0:0:0:0:
180,96,37575,1,8,0:0:0:0:
180,96,37650,1,0,0:0:0:0:
180,96,37800,1,8,0:0:0:0:
352,84,37850,1,8,0:0:0:0:
352,84,37900,1,8,0:0:0:0:
376,156,37950,1,8,0:0:0:0:
376,156,38025,1,8,0:0:0:0:
376,156,38100,1,8,0:0:0:0:
228,72,38175,1,8,0:0:0:0:
228,72,38250,1,8,0:0:0:0:
340,40,38325,1,8,0:0:0:0:
340,40,38400,1,4,0:0:0:0:
108,288,38550,1,0,0:0:0:0:
108,288,38625,1,0,0:0:0:0:
108,288,38700,1,8,0:0:0:0:
108,288,38850,1,0,0:0:0:0:
152,52,39000,1,8,0:0:0:0:
144,104,39075,1,8,0:0:0:0:
144,104,39150,1,0,0:0:0:0:
144,104,39225,1,0,0:0:0:0:
144,104,39300,1,8,0:0:0:0:
144,104,39450,1,0,0:0:0:0:
144,104,39525,1,0,0:0:0:0:
144,104,39600,1,8,0:0:0:0:
144,104,39750,1,8,0:0:0:0:
144,104,39900,1,0,0:0:0:0:
144,104,40050,1,8,0:0:0:0:
144,104,40125,1,0,0:0:0:0:
144,104,40200,1,0,0:0:0:0:
144,104,40275,1,0,0:0:0:0:
144,104,40350,1,8,0:0:0:0:
144,104,40500,1,8,0:0:0:0:
144,104,40650,1,8,0:0:0:0:
144,104,40725,1,8,0:0:0:0:
144,104,40800,1,0,0:0:0:0:
144,104,40950,1,0,0:0:0:0:
144,104,41100,1,8,0:0:0:0:
144,104,41250,1,0,0:0:0:0:
144,104,41325,1,8,0:0:0:0:
144,104,41400,1,8,0:0:0:0:
144,104,41475,1,8,0:0:0:0:
144,104,41550,1,0,0:0:0:0:
144,104,41700,1,8,0:0:0:0:
144,104,41850,1,0,0:0:0:0:
144,104,41925,1,0,0:0:0:0:
144,104,42000,1,8,0:0:0:0:
144,104,42150,1,0,0:0:0:0:
144,104,42300,1,8,0:0:0:0:
144,104,42450,1,0,0:0:0:0:
144,104,42525,1,0,0:0:0:0:
144,104,42600,1,8,0:0:0:0:
144,104,42675,1,8,0:0:0:0:
144,104,42750,1,0,0:0:0:0:
144,104,42825,1,0,0:0:0:0:
144,104,42900,1,8,0:0:0:0:
144,104,43050,1,8,0:0:0:0:
144,104,43200,1,4,0:0:0:0:
144,104,43350,1,0,0:0:0:0:
144,104,43500,1,8,0:0:0:0:
144,104,43650,1,0,0:0:0:0:
144,104,43725,1,0,0:0:0:0:
144,104,43800,1,8,0:0:0:0:
144,104,43875,1,0,0:0:0:0:
144,104,43950,1,0,0:0:0:0:
144,104,44100,1,0,0:0:0:0:
144,104,44175,1,8,0:0:0:0:
144,104,44250,1,0,0:0:0:0:
144,104,44325,1,8,0:0:0:0:
144,104,44400,1,0,0:0:0:0:
144,104,44550,1,0,0:0:0:0:
144,104,44700,1,8,0:0:0:0:
144,104,44850,1,0,0:0:0:0:
144,104,44925,1,0,0:0:0:0:
144,104,45000,1,8,0:0:0:0:
144,104,45075,1,0,0:0:0:0:
144,104,45150,1,8,0:0:0:0:
144,104,45300,1,12,0:0:0:0:
256,192,45600,5,4,0:0:0:0:
256,192,45750,1,4,0:0:0:0:
256,192,45900,1,4,0:0:0:0:
256,192,46050,1,4,0:0:0:0:
256,192,46200,1,4,0:0:0:0:
256,192,46350,1,4,0:0:0:0:
256,192,46500,1,4,0:0:0:0:
256,192,46650,1,4,0:0:0:0:
256,192,46800,1,4,0:0:0:0:
256,192,46950,1,4,0:0:0:0:
256,192,47100,12,0,47940,0:0:0:0:
212,188,48000,5,4,0:0:0:0:
248,144,48150,1,0,0:0:0:0:
248,144,48225,1,0,0:0:0:0:
248,144,48300,1,8,0:0:0:0:
248,144,48450,1,0,0:0:0:0:
248,144,48525,1,0,0:0:0:0:
248,144,48600,1,8,0:0:0:0:
248,144,48675,1,8,0:0:0:0:
248,144,48750,1,0,0:0:0:0:
248,144,48900,1,8,0:0:0:0:
248,144,49050,1,8,0:0:0:0:
248,144,49125,1,8,0:0:0:0:
248,144,49200,1,0,0:0:0:0:
248,144,49350,1,0,0:0:0:0:
208,72,49425,1,0,0:0:0:0:
208,72,49500,1,8,0:0:0:0:
208,72,49650,1,8,0:0:0:0:
248,144,49725,1,0,0:0:0:0:
248,144,49800,1,8,0:0:0:0:
248,144,49875,1,0,0:0:0:0:
216,136,49950,1,0,0:0:0:0:
248,144,50025,1,8,0:0:0:0:
216,136,50100,1,0,0:0:0:0:
248,144,50250,1,0,0:0:0:0:
248,144,50325,1,0,0:0:0:0:
248,144,50400,1,8,0:0:0:0:
248,144,50475,1,8,0:0:0:0:
248,144,50550,1,0,0:0:0:0:
248,144,50700,1,8,0:0:0:0:
248,144,50850,1,8,0:0:0:0:
248,144,50925,1,8,0:0:0:0:
248,144,51000,1,0,0:0:0:0:
248,144,51150,1,8,0:0:0:0:
248,144,51300,1,8,0:0:0:0:
248,144,51375,1,0,0:0:0:0:
248,144,51450,1,8,0:0:0:0:
216,136,51525,1,8,0:0:0:0:
248,144,51600,1,0,0:0:0:0:
248,144,51750,1,8,0:0:0:0:
248,144,51900,1,8,0:0:0:0:
248,144,52050,1,0,0:0:0:0:
228,176,52125,1,0,0:0:0:0:
248,144,52200,1,8,0:0:0:0:
248,144,52275,1,0,0:0:0:0:
248,144,52350,1,8,0:0:0:0:
248,144,52425,1,8,0:0:0:0:
248,144,52500,1,0,0:0:0:0:
248,144,52575,1,0,0:0:0:0:
248,144,52650,1,8,0:0:0:0:
248,144,52800,1,4,0:0:0:0:
248,144,52950,1,0,0:0:0:0:
228,176,53025,1,0,0:0:0:0:
228,176,53100,1,8,0:0:0:0:
228,176,53250,1,8,0:0:0:0:
204,96,53325,1,0,0:0:0:0:
204,96,53400,1,8,0:0:0:0:
204,96,53475,1,8,0:0:0:0:
204,96,53550,1,0,0:0:0:0:
204,96,53625,1,0,0:0:0:0:
204,96,53700,1,8,0:0:0:0:
204,96,53850,1,0,0:0:0:0:
204,96,53925,1,0,0:0:0:0:
204,96,54000,1,8,0:0:0:0:
204,96,54150,1,8,0:0:0:0:
176,56,54225,1,0,0:0:0:0:
176,56,54300,1,8,0:0:0:0:
204,96,54450,1,8,0:0:0:0:
204,96,54525,1,0,0:0:0:0:
204,96,54600,1,8,0:0:0:0:
204,96,54675,1,8,0:0:0:0:
204,96,54750,1,0,0:0:0:0:
204,96,54900,1,8,0:0:0:0:
204,96,55050,1,0,0:0:0:0:
204,96,55125,1,8,0:0:0:0:
204,96,55200,1,0,0:0:0:0:
204,96,55350,1,8,0:0:0:0:
232,248,55425,1,0,0:0:0:0:
232,248,55500,1,8,0:0:0:0:
232,248,55650,1,0,0:0:0:0:
232,248,55725,1,0,0:0:0:0:
232,248,55800,1,8,0:0:0:0:
232,248,55875,1,0,0:0:0:0:
232,248,55950,1,8,0:0:0:0:
232,248,56025,1,8,0:0:0:0:
232,248,56100,1,0,0:0:0:0:
232,248,56175,1,0,0:0:0:0:
232,248,56250,1,8,0:0:0:0:
232,248,56400,1,8,0:0:0:0:
232,248,56550,1,0,0:0:0:0:
236,112,56625,1,0,0:0:0:0:
228,144,56700,1,8,0:0:0:0:
228,144,56775,1,8,0:0:0:0:
228,144,56850,1,0,0:0:0:0:
228,144,56925,1,0,0:0:0:0:
228,144,57000,1,8,0:0:0:0:
228,144,57075,1,8,0:0:0:0:
236,112,57150,1,0,0:0:0:0:
236,112,57225,1,0,0:0:0:0:
228,144,57300,1,8,0:0:0:0:
228,144,57375,1,8,0:0:0:0:
228,144,57450,1,8,0:0:0:0:
228,144,57525,1,8,0:0:0:0:
236,112,57600,1,4,0:0:0:0:
236,112,57900,1,8,0:0:0:0:
236,112,58050,1,8,0:0:0:0:
236,112,58125,1,8,0:0:0:0:
236,112,58200,1,0,0:0:0:0:
228,144,58350,1,0,0:0:0:0:
228,144,58425,1,0,0:0:0:0:
228,144,58500,1,8,0:0:0:0:
228,144,58650,1,0,0:0:0:0:
236,112,58725,1,8,0:0:0:0:
236,112,58800,1,0,0:0:0:0:
228,144,58950,1,0,0:0:0:0:
228,144,59100,1,8,0:0:0:0:
236,112,59250,1,0,0:0:0:0:
236,112,59325,1,0,0:0:0:0:
236,112,59400,1,8,0:0:0:0:
236,112,59550,1,0,0:0:0:0:
236,112,59700,1,8,0:0:0:0:
236,112,59775,1,0,0:0:0:0:
228,144,59850,1,8,0:0:0:0:
228,144,59925,1,8,0:0:0:0:
228,144,60000,1,0,0:0:0:0:
228,144,60150,1,0,0:0:0:0:
236,112,60300,1,8,0:0:0:0:
228,144,60450,1,0,0:0:0:0:
228,144,60525,1,0,0:0:0:0:
328,136,60600,1,8,0:0:0:0:
328,136,60650,1,0,0:0:0:0:
328,136,60700,1,0,0:0:0:0:
328,136,60750,1,0,0:0:0:0:
328,136,60800,1,0,0:0:0:0:
328,136,60850,1,0,0:0:0:0:
280,100,60900,1,8,0:0:0:0:
228,144,61050,1,0,0:0:0:0:
352,84,61200,1,0,0:0:0:0:
352,84,61250,1,0,0:0:0:0:
352,84,61300,1,0,0:0:0:0:
352,84,61350,1,0,0:0:0:0:
320,80,61400,1,0,0:0:0:0:
352,84,61450,1,0,0:0:0:0:
352,84,61500,1,8,0:0:0:0:
192,80,61650,1,0,0:0:0:0:
192,80,61800,1,4,0:0:0:0:
372,32,62100,1,12,0:0:0:0:
372,32,62400,1,4,0:0:0:0:
160,140,62550,1,0,0:0:0:0:
192,112,62625,1,0,0:0:0:0:
192,112,62700,1,8,0:0:0:0:
192,112,62850,1,8,0:0:0:0:
288,248,63000,1,0,0:0:0:0:
288,248,63150,1,8,0:0:0:0:
288,248,63225,1,8,0:0:0:0:
288,248,63300,1,0,0:0:0:0:
288,248,63450,1,0,0:0:0:0:
288,248,63600,1,8,0:0:0:0:
288,248,63675,1,0,0:0:0:0:
288,248,63750,1,0,0:0:0:0:
288,248,63825,1,0,0:0:0:0:
288,248,63900,1,8,0:0:0:0:
288,248,64050,1,0,0:0:0:0:
268,212,64200,1,8,0:0:0:0:
268,212,64350,1,0,0:0:0:0:
268,212,64425,1,0,0:0:0:0:
268,212,64500,1,8,0:0:0:0:
304,188,64650,1,8,0:0:0:0:
304,188,64725,1,0,0:0:0:0:
304,188,64800,1,8,0:0:0:0:
304,188,64875,1,8,0:0:0:0:
304,188,64950,1,0,0:0:0:0:
304,188,65100,1,8,0:0:0:0:
304,188,65250,1,8,0:0:0:0:
304,188,65325,1,0,0:0:0:0:
304,188,65400,1,0,0:0:0:0:
304,188,65550,1,0,0:0:0:0:
304,188,65700,1,8,0:0:0:0:
304,188,65775,1,8,0:0:0:0:
304,188,65850,1,0,0:0:0:0:
304,188,65925,1,0,0:0:0:0:
304,188,66000,1,0,0:0:0:0:
304,188,66150,1,0,0:0:0:0:
304,188,66225,1,0,0:0:0:0:
304,188,66300,1,8,0:0:0:0:
304,188,66450,1,0,0:0:0:0:
304,188,66525,1,0,0:0:0:0:
304,188,66600,1,8,0:0:0:0:
304,188,66675,1,0,0:0:0:0:
304,188,66750,1,8,0:0:0:0:
304,188,66825,1,8,0:0:0:0:
304,188,66900,1,0,0:0:0:0:
304,188,67050,1,0,0:0:0:0:
304,188,67125,1,8,0:0:0:0:
304,188,67200,1,0,0:0:0:0:
304,188,67350,1,0,0:0:0:0:
304,188,67500,1,8,0:0:0:0:
200,44,67650,1,0,0:0:0:0:
168,84,67725,1,8,0:0:0:0:
200,44,67800,1,8,0:0:0:0:
168,84,67950,1,0,0:0:0:0:
168,84,68025,1,0,0:0:0:0:
168,84,68100,1,8,0:0:0:0:
168,84,68250,1,0,0:0:0:0:
168,84,68400,1,8,0:0:0:0:
168,84,68550,1,0,0:0:0:0:
168,84,68625,1,0,0:0:0:0:
168,84,68700,1,8,0:0:0:0:
168,84,68850,1,8,0:0:0:0:
168,84,68925,1,0,0:0:0:0:
168,84,69000,1,8,0:0:0:0:
168,84,69075,1,8,0:0:0:0:
168,84,69150,1,0,0:0:0:0:
168,84,69300,1,8,0:0:0:0:
168,84,69450,1,0,0:0:0:0:
168,84,69525,1,0,0:0:0:0:
168,84,69600,1,8,0:0:0:0:
168,84,69750,1,0,0:0:0:0:
168,84,69900,1,8,0:0:0:0:
168,84,70050,1,8,0:0:0:0:
168,84,70200,1,0,0:0:0:0:
168,84,70275,1,0,0:0:0:0:
168,84,70350,1,0,0:0:0:0:
168,84,70500,1,8,0:0:0:0:
168,84,70650,1,0,0:0:0:0:
168,84,70725,1,0,0:0:0:0:
168,84,70800,1,0,0:0:0:0:
168,84,70950,1,8,0:0:0:0:
168,84,71100,1,8,0:0:0:0:
168,84,71250,1,8,0:0:0:0:
168,84,71325,1,0,0:0:0:0:
168,84,71400,1,8,0:0:0:0:
168,84,71475,1,8,0:0:0:0:
168,84,71550,1,8,0:0:0:0:
168,84,71625,1,0,0:0:0:0:
168,84,71700,1,8,0:0:0:0:
168,84,71850,1,8,0:0:0:0:
168,84,72000,1,4,0:0:0:0:
148,32,72150,1,0,0:0:0:0:
148,32,72225,1,0,0:0:0:0:
156,128,72300,1,8,0:0:0:0:
168,84,72450,1,0,0:0:0:0:
156,128,72525,1,0,0:0:0:0:
168,84,72600,1,0,0:0:0:0:
168,84,72750,1,0,0:0:0:0:
152,32,72900,1,8,0:0:0:0:
156,128,73050,1,8,0:0:0:0:
156,128,73125,1,8,0:0:0:0:
152,32,73200,1,0,0:0:0:0:
156,128,73350,1,0,0:0:0:0:
156,128,73425,1,0,0:0:0:0:
156,128,73500,1,8,0:0:0:0:
152,32,73650,1,8,0:0:0:0:
156,128,73800,1,0,0:0:0:0:
156,128,73875,1,8,0:0:0:0:
152,32,73950,1,8,0:0:0:0:
156,128,74025,1,0,0:0:0:0:
152,32,74100,1,8,0:0:0:0:
156,128,74250,1,8,0:0:0:0:
156,128,74325,1,8,0:0:0:0:
152,32,74400,1,0,0:0:0:0:
156,128,74550,1,0,0:0:0:0:
156,128,74700,1,8,0:0:0:0:
156,128,74850,1,0,0:0:0:0:
156,128,74925,1,0,0:0:0:0:
156,128,75000,1,8,0:0:0:0:
156,128,75150,1,8,0:0:0:0:
156,128,75300,1,0,0:0:0:0:
156,128,75375,1,8,0:0:0:0:
156,128,75450,1,0,0:0:0:0:
156,128,75525,1,0,0:0:0:0:
156,128,75600,1,8,0:0:0:0:
156,128,75750,1,0,0:0:0:0:
156,128,75900,1,8,0:0:0:0:
156,128,76050,1,0,0:0:0:0:
156,128,76125,1,0,0:0:0:0:
156,128,76200,1,8,0:0:0:0:
156,128,76275,1,8,0:0:0:0:
156,128,76350,1,0,0:0:0:0:
156,128,76500,1,8,0:0:0:0:
156,128,76650,1,0,0:0:0:0:
156,128,76725,1,8,0:0:0:0:
156,128,76800,1,0,0:0:0:0:
156,128,76950,1,0,0:0:0:0:
156,128,77100,1,8,0:0:0:0:
156,128,77250,1,0,0:0:0:0:
156,128,77325,1,0,0:0:0:0:
156,128,77400,1,8,0:0:0:0:
156,128,77475,1,0,0:0:0:0:
156,128,77550,1,0,0:0:0:0:
156,128,77700,1,8,0:0:0:0:
156,128,77850,1,0,0:0:0:0:
156,128,78000,1,8,0:0:0:0:
156,128,78150,1,0,0:0:0:0:
156,128,78225,1,0,0:0:0:0:
156,128,78300,1,8,0:0:0:0:
156,128,78450,1,8,0:0:0:0:
156,128,78600,1,0,0:0:0:0:
156,128,78675,1,8,0:0:0:0:
156,128,78750,1,0,0:0:0:0:
156,128,78825,1,0,0:0:0:0:
156,128,78900,1,8,0:0:0:0:
156,128,79050,1,8,0:0:0:0:
156,128,79200,1,4,0:0:0:0:
224,216,79350,1,4,0:0:0:0:
224,216,79500,1,4,0:0:0:0:
224,216,79650,1,4,0:0:0:0:
224,216,79800,1,4,0:0:0:0:
224,216,79950,1,4,0:0:0:0:
224,216,80100,1,4,0:0:0:0:
224,216,80250,1,4,0:0:0:0:
224,216,80400,1,4,0:0:0:0:
224,216,80550,1,4,0:0:0:0:
256,192,80700,12,0,81450,0:0:0:0:
216,180,81600,5,4,0:0:0:0:
292,204,81750,1,8,0:0:0:0:
292,204,81825,1,8,0:0:0:0:
292,204,81900,1,0,0:0:0:0:
292,204,81975,1,8,0:0:0:0:
292,204,82050,1,0,0:0:0:0:
292,204,82125,1,0,0:0:0:0:
292,204,82200,1,8,0:0:0:0:
292,204,82275,1,0,0:0:0:0:
292,204,82350,1,8,0:0:0:0:
292,204,82425,1,8,0:0:0:0:
292,204,82500,1,0,0:0:0:0:
292,204,82650,1,0,0:0:0:0:
260,196,82800,1,8,0:0:0:0:
260,196,82950,1,0,0:0:0:0:
292,204,83025,1,0,0:0:0:0:
260,196,83100,1,8,0:0:0:0:
292,204,83175,1,8,0:0:0:0:
260,196,83250,1,0,0:0:0:0:
292,204,83325,1,0,0:0:0:0:
260,196,83400,1,8,0:0:0:0:
180,120,83475,1,0,0:0:0:0:
180,120,83550,1,0,0:0:0:0:
180,120,83625,1,8,0:0:0:0:
180,120,83700,1,0,0:0:0:0:
180,120,83850,1,0,0:0:0:0:
180,120,83925,1,0,0:0:0:0:
180,120,84000,1,8,0:0:0:0:
180,120,84150,1,8,0:0:0:0:
180,120,84225,1,8,0:0:0:0:
180,120,84300,1,0,0:0:0:0:
180,120,84450,1,8,0:0:0:0:
180,120,84525,1,8,0:0:0:0:
180,120,84600,1,0,0:0:0:0:
180,120,84675,1,8,0:0:0:0:
180,120,84750,1,8,0:0:0:0:
180,120,84825,1,0,0:0:0:0:
180,120,84900,1,8,0:0:0:0:
180,120,85050,1,0,0:0:0:0:
180,120,85125,1,0,0:0:0:0:
180,120,85200,1,8,0:0:0:0:
180,120,85350,1,8,0:0:0:0:
180,120,85500,1,0,0:0:0:0:
180,120,85650,1,8,0:0:0:0:
208,132,85725,1,8,0:0:0:0:
180,120,85800,1,0,0:0:0:0:
180,120,85875,1,8,0:0:0:0:
180,120,85950,1,8,0:0:0:0:
180,120,86025,1,0,0:0:0:0:
180,120,86100,1,8,0:0:0:0:
180,120,86250,1,0,0:0:0:0:
180,120,86400,1,12,0:0:0:0:
208,96,86550,1,0,0:0:0:0:
180,120,86625,1,8,0:0:0:0:
180,120,86700,1,0,0:0:0:0:
180,120,86775,1,0,0:0:0:0:
180,120,86850,1,8,0:0:0:0:
180,120,86925,1,0,0:0:0:0:
180,120,87000,1,8,0:0:0:0:
208,132,87075,1,8,0:0:0:0:
208,132,87150,1,0,0:0:0:0:
208,132,87225,1,0,0:0:0:0:
208,132,87300,1,8,0:0:0:0:
180,120,87450,1,8,0:0:0:0:
180,120,87525,1,8,0:0:0:0:
208,96,87600,1,0,0:0:0:0:
180,120,87750,1,8,0:0:0:0:
208,96,87825,1,0,0:0:0:0:
208,96,87900,1,0,0:0:0:0:
208,96,87975,1,8,0:0:0:0:
208,96,88050,1,0,0:0:0:0:
208,96,88125,1,0,0:0:0:0:
180,120,88200,1,8,0:0:0:0:
180,120,88275,1,0,0:0:0:0:
180,120,88350,1,8,0:0:0:0:
180,120,88425,1,8,0:0:0:0:
180,120,88500,1,0,0:0:0:0:
156,168,88650,1,0,0:0:0:0:
156,168,88725,1,0,0:0:0:0:
156,168,88800,1,8,0:0:0:0:
156,168,88950,1,0,0:0:0:0:
156,168,89025,1,0,0:0:0:0:
156,168,89100,1,8,0:0:0:0:
156,168,89250,1,8,0:0:0:0:
156,168,89400,1,0,0:0:0:0:
156,168,89550,1,8,0:0:0:0:
224,144,89625,1,0,0:0:0:0:
224,144,89700,1,8,0:0:0:0:
224,144,89775,1,8,0:0:0:0:
224,144,89850,1,0,0:0:0:0:
224,144,90000,1,12,0:0:0:0:
224,144,90300,1,8,0:0:0:0:
224,144,90450,1,12,0:0:0:0:
224,144,90750,1,0,0:0:0:0:
332,156,90900,1,8,0:0:0:0:
332,156,91050,1,8,0:0:0:0:
184,164,91200,1,4,0:0:0:0:
272,156,91350,1,0,0:0:0:0:
272,156,91500,1,0,0:0:0:0:
272,156,91650,1,0,0:0:0:0:
272,156,91800,1,8,0:0:0:0:
272,156,92100,1,0,0:0:0:0:
176,88,92250,1,8,0:0:0:0:
184,164,92400,1,0,0:0:0:0:
184,164,92550,1,8,0:0:0:0:
184,164,92700,1,0,0:0:0:0:
184,164,92850,1,8,0:0:0:0:
184,164,93000,1,8,0:0:0:0:
184,164,93300,1,8,0:0:0:0:
184,164,93600,1,0,0:0:0:0:
184,164,93900,1,0,0:0:0:0:
172,104,94200,1,8,0:0:0:0:
172,104,94500,1,0,0:0:0:0:
172,104,94650,1,0,0:0:0:0:
172,104,94800,1,8,0:0:0:0:
172,104,94950,1,0,0:0:0:0:
172,104,95100,1,8,0:0:0:0:
172,104,95400,1,0,0:0:0:0:
172,104,95475,1,0,0:0:0:0:
172,104,95550,1,0,0:0:0:0:
172,104,95625,1,0,0:0:0:0:
280,176,95700,1,8,0:0:0:0:
232,128,95850,1,8,0:0:0:0:
204,148,96000,1,0,0:0:0:0:
244,196,96300,1,0,0:0:0:0:
184,200,96600,1,8,0:0:0:0:
244,196,96900,1,8,0:0:0:0:
212,96,97200,1,0,0:0:0:0:
232,128,97350,1,0,0:0:0:0:
212,96,97500,1,8,0:0:0:0:
212,96,97650,1,0,0:0:0:0:
212,96,97800,1,8,0:0:0:0:
212,96,98100,1,0,0:0:0:0:
212,96,98400,1,8,0:0:0:0:
212,96,98700,1,8,0:0:0:0:
212,96,99000,1,8,0:0:0:0:
212,96,99150,1,8,0:0:0:0:
212,96,99300,1,8,0:0:0:0:
212,96,99450,1,8,0:0:0:0:
212,96,99600,1,4,0:0:0:0:
212,96,99750,1,0,0:0:0:0:
212,96,99900,1,0,0:0:0:0:
212,96,100050,1,0,0:0:0:0:
212,96,100200,1,12,0:0:0:0:
212,96,100350,1,12,0:0:0:0:
212,96,100500,1,12,0:0:0:0:
212,96,100650,1,12,0:0:0:0:
212,96,100800,1,4,0:0:0:0:
256,192,101100,1,4,0:0:0:0:
256,192,101400,1,8,0:0:0:0:
256,192,101550,1,0,0:0:0:0:
256,192,101700,1,8,0:0:0:0:
256,192,102000,1,0,0:0:0:0:
256,192,102150,1,0,0:0:0:0:
256,192,102300,1,8,0:0:0:0:
256,192,102600,1,0,0:0:0:0:
256,192,102675,1,0,0:0:0:0:
256,192,102750,1,0,0:0:0:0:
256,192,102825,1,0,0:0:0:0:
256,192,102900,1,8,0:0:0:0:
200,168,103050,1,8,0:0:0:0:
200,168,103200,1,0,0:0:0:0:
200,168,103350,1,0,0:0:0:0:
200,168,103500,1,8,0:0:0:0:
200,168,103800,1,8,0:0:0:0:
176,144,103950,1,0,0:0:0:0:
176,144,104100,1,8,0:0:0:0:
176,144,104250,1,4,0:0:0:0:
176,144,104400,1,4,0:0:0:0:
176,144,104550,1,4,0:0:0:0:
176,144,104700,1,4,0:0:0:0:
176,144,104850,1,4,0:0:0:0:
176,144,105000,1,12,0:0:0:0:
176,144,105300,1,12,0:0:0:0:
244,188,105600,1,4,0:0:0:0:
244,188,105750,1,0,0:0:0:0:
244,188,105825,1,0,0:0:0:0:
244,188,105900,1,8,0:0:0:0:
244,188,106200,1,0,0:0:0:0:
244,188,106350,1,8,0:0:0:0:
244,188,106500,1,0,0:0:0:0:
244,188,106650,1,0,0:0:0:0:
244,188,106800,1,8,0:0:0:0:
244,188,107025,1,0,0:0:0:0:
244,188,107100,1,0,0:0:0:0:
244,188,107250,1,8,0:0:0:0:
244,188,107475,1,0,0:0:0:0:
244,188,107550,1,0,0:0:0:0:
244,188,107700,1,8,0:0:0:0:
244,188,107850,1,8,0:0:0:0:
244,188,108000,1,0,0:0:0:0:
244,188,108150,1,0,0:0:0:0:
244,188,108300,1,8,0:0:0:0:
244,188,108375,1,8,0:0:0:0:
244,188,108450,1,8,0:0:0:0:
256,228,108600,1,8,0:0:0:0:
256,228,108675,1,8,0:0:0:0:
256,228,108750,1,8,0:0:0:0:
256,228,108900,1,0,0:0:0:0:
256,228,108975,1,0,0:0:0:0:
256,228,109050,1,0,0:0:0:0:
256,228,109125,1,0,0:0:0:0:
256,228,109200,1,8,0:0:0:0:
244,188,109275,1,8,0:0:0:0:
244,188,109350,1,8,0:0:0:0:
244,188,109500,1,8,0:0:0:0:
216,152,109575,1,8,0:0:0:0:
244,188,109650,1,8,0:0:0:0:
244,188,109800,1,0,0:0:0:0:
312,120,109850,1,0,0:0:0:0:
312,120,109900,1,0,0:0:0:0:
312,120,109950,1,0,0:0:0:0:
312,120,110000,1,0,0:0:0:0:
312,120,110050,1,0,0:0:0:0:
312,120,110100,1,8,0:0:0:0:
312,120,110150,1,8,0:0:0:0:
312,120,110200,1,8,0:0:0:0:
312,120,110250,1,8,0:0:0:0:
312,120,110300,1,8,0:0:0:0:
312,120,110400,1,4,0:0:0:0:
244,188,110550,1,0,0:0:0:0:
232,124,110700,1,8,0:0:0:0:
232,124,110850,1,0,0:0:0:0:
232,124,110925,1,0,0:0:0:0:
232,124,111000,1,8,0:0:0:0:
240,296,111075,1,0,0:0:0:0:
240,296,111150,1,8,0:0:0:0:
240,296,111225,1,8,0:0:0:0:
240,296,111300,1,0,0:0:0:0:
240,296,111450,1,0,0:0:0:0:
240,296,111600,1,8,0:0:0:0:
180,72,111750,1,0,0:0:0:0:
184,112,111825,1,0,0:0:0:0:
184,112,111900,1,8,0:0:0:0:
184,112,112050,1,8,0:0:0:0:
184,112,112125,1,0,0:0:0:0:
184,112,112200,1,0,0:0:0:0:
184,112,112275,1,0,0:0:0:0:
184,112,112350,1,8,0:0:0:0:
184,112,112500,1,8,0:0:0:0:
184,112,112650,1,0,0:0:0:0:
184,112,112725,1,0,0:0:0:0:
184,112,112800,1,8,0:0:0:0:
184,112,112950,1,8,0:0:0:0:
184,112,113025,1,0,0:0:0:0:
184,112,113100,1,8,0:0:0:0:
184,112,113250,1,0,0:0:0:0:
184,112,113325,1,8,0:0:0:0:
184,112,113400,1,8,0:0:0:0:
184,112,113475,1,0,0:0:0:0:
184,112,113550,1,8,0:0:0:0:
184,112,113700,1,8,0:0:0:0:
188,236,113850,1,0,0:0:0:0:
188,236,113925,1,0,0:0:0:0:
188,236,114000,1,8,0:0:0:0:
188,236,114150,1,0,0:0:0:0:
188,236,114300,1,8,0:0:0:0:
188,236,114450,1,0,0:0:0:0:
188,236,114600,1,8,0:0:0:0:
188,236,114675,1,8,0:0:0:0:
188,236,114750,1,0,0:0:0:0:
188,236,114825,1,0,0:0:0:0:
188,236,114900,1,8,0:0:0:0:
188,236,115050,1,8,0:0:0:0:
208,176,115200,1,4,0:0:0:0:
208,176,115350,1,0,0:0:0:0:
248,204,115500,1,8,0:0:0:0:
248,204,115650,1,0,0:0:0:0:
248,204,115725,1,0,0:0:0:0:
248,204,115800,1,8,0:0:0:0:
248,204,115875,1,8,0:0:0:0:
248,204,115950,1,0,0:0:0:0:
248,204,116100,1,8,0:0:0:0:
248,204,116250,1,0,0:0:0:0:
248,204,116400,1,8,0:0:0:0:
248,204,116550,1,0,0:0:0:0:
248,204,116625,1,0,0:0:0:0:
248,204,116700,1,8,0:0:0:0:
188,120,116850,1,8,0:0:0:0:
188,120,116925,1,0,0:0:0:0:
188,120,117000,1,8,0:0:0:0:
160,136,117075,1,8,0:0:0:0:
160,136,117150,1,0,0:0:0:0:
160,136,117225,1,0,0:0:0:0:
160,136,117300,1,8,0:0:0:0:
160,136,117450,1,8,0:0:0:0:
160,100,117525,1,8,0:0:0:0:
188,120,117600,1,0,0:0:0:0:
188,120,117750,1,8,0:0:0:0:
188,120,117825,1,8,0:0:0:0:
188,120,117900,1,8,0:0:0:0:
160,100,117975,1,8,0:0:0:0:
160,100,118050,1,0,0:0:0:0:
160,100,118200,1,0,0:0:0:0:
160,100,118275,1,0,0:0:0:0:
160,100,118350,1,8,0:0:0:0:
160,100,118425,1,0,0:0:0:0:
160,100,118500,1,8,0:0:0:0:
160,100,118650,1,8,0:0:0:0:
160,100,118800,1,4,0:0:0:0:
160,100,118950,1,8,0:0:0:0:
160,100,119100,1,4,0:0:0:0:
160,100,119250,1,8,0:0:0:0:
160,100,119400,1,4,0:0:0:0:
160,100,119550,1,8,0:0:0:0:
160,100,119700,1,4,0:0:0:0:
160,100,119850,1,8,0:0:0:0:
160,100,120000,1,0,0:0:0:0:
236,176,120300,1,12,0:0:0:0:
236,176,120450,1,8,0:0:0:0:
236,176,120525,1,0,0:0:0:0:
236,176,120600,1,0,0:0:0:0:
236,176,120675,1,0,0:0:0:0:
236,176,120750,1,8,0:0:0:0:
232,140,120900,1,0,0:0:0:0:
232,140,121050,1,8,0:0:0:0:
232,140,121125,1,8,0:0:0:0:
232,140,121200,1,0,0:0:0:0:
232,140,121350,1,0,0:0:0:0:
232,140,121425,1,0,0:0:0:0:
232,140,121500,1,8,0:0:0:0:
244,108,121650,1,0,0:0:0:0:
244,108,121725,1,0,0:0:0:0:
232,140,121800,1,8,0:0:0:0:
244,108,121875,1,8,0:0:0:0:
232,140,121950,1,0,0:0:0:0:
244,108,122100,1,8,0:0:0:0:
244,108,122250,1,0,0:0:0:0:
244,108,122325,1,8,0:0:0:0:
244,108,122400,1,0,0:0:0:0:
244,108,122550,1,8,0:0:0:0:
244,108,122625,1,0,0:0:0:0:
244,108,122700,1,8,0:0:0:0:
244,108,122850,1,8,0:0:0:0:
232,140,122925,1,0,0:0:0:0:
232,140,123000,1,8,0:0:0:0:
232,140,123075,1,8,0:0:0:0:
244,108,123150,1,0,0:0:0:0:
244,108,123225,1,8,0:0:0:0:
244,108,123300,1,8,0:0:0:0:
244,108,123375,1,0,0:0:0:0:
244,108,123450,1,8,0:0:0:0:
232,140,123600,1,8,0:0:0:0:
232,140,123675,1,8,0:0:0:0:
232,140,123750,1,0,0:0:0:0:
232,140,123900,1,8,0:0:0:0:
212,164,123975,1,8,0:0:0:0:
212,164,124050,1,0,0:0:0:0:
212,164,124200,1,8,0:0:0:0:
232,140,124275,1,8,0:0:0:0:
232,140,124350,1,8,0:0:0:0:
212,164,124425,1,8,0:0:0:0:
232,140,124500,1,0,0:0:0:0:
232,140,124650,1,8,0:0:0:0:
232,140,124800,1,4,0:0:0:0:
212,164,124950,1,0,0:0:0:0:
208,248,125025,1,0,0:0:0:0:
208,248,125100,1,8,0:0:0:0:
208,248,125250,1,0,0:0:0:0:
208,248,125325,1,0,0:0:0:0:
208,248,125400,1,8,0:0:0:0:
208,248,125475,1,8,0:0:0:0:
208,248,125550,1,0,0:0:0:0:
208,248,125700,1,8,0:0:0:0:
252,232,125850,1,0,0:0:0:0:
252,232,125925,1,0,0:0:0:0:
252,232,126000,1,8,0:0:0:0:
252,232,126150,1,8,0:0:0:0:
252,232,126225,1,8,0:0:0:0:
252,232,126300,1,0,0:0:0:0:
252,232,126450,1,8,0:0:0:0:
252,232,126525,1,0,0:0:0:0:
252,232,126600,1,8,0:0:0:0:
252,232,126675,1,8,0:0:0:0:
252,232,126750,1,0,0:0:0:0:
252,232,126900,1,8,0:0:0:0:
252,232,126975,1,8,0:0:0:0:
252,232,127050,1,0,0:0:0:0:
252,232,127200,1,8,0:0:0:0:
252,232,127350,1,0,0:0:0:0:
184,96,127425,1,0,0:0:0:0:
252,232,127500,1,8,0:0:0:0:
252,232,127650,1,8,0:0:0:0:
208,176,127725,1,0,0:0:0:0:
208,176,127800,1,8,0:0:0:0:
184,96,127875,1,8,0:0:0:0:
184,96,127950,1,0,0:0:0:0:
184,96,128025,1,0,0:0:0:0:
184,96,128100,1,8,0:0:0:0:
208,176,128250,1,0,0:0:0:0:
208,176,128325,1,0,0:0:0:0:
208,176,128400,1,8,0:0:0:0:
208,176,128475,1,0,0:0:0:0:
208,176,128550,1,0,0:0:0:0:
308,248,128600,1,0,0:0:0:0:
308,248,128650,1,0,0:0:0:0:
208,176,128700,1,8,0:0:0:0:
208,176,128850,1,8,0:0:0:0:
336,148,129000,1,0,0:0:0:0:
336,148,129075,1,0,0:0:0:0:
336,148,129150,1,8,0:0:0:0:
360,128,129200,1,8,0:0:0:0:
360,128,129250,1,8,0:0:0:0:
360,128,129300,1,0,0:0:0:0:
360,128,129450,1,0,0:0:0:0:
360,128,129525,1,0,0:0:0:0:
336,148,129600,1,8,0:0:0:0:
360,128,129750,1,0,0:0:0:0:
360,128,129825,1,0,0:0:0:0:
360,128,129900,1,8,0:0:0:0:
360,128,130050,1,0,0:0:0:0:
360,128,130125,1,0,0:0:0:0:
360,128,130200,1,8,0:0:0:0:
360,128,130350,1,0,0:0:0:0:
360,128,130425,1,0,0:0:0:0:
360,128,130500,1,8,0:0:0:0:
360,128,130650,1,0,0:0:0:0:
252,144,130725,1,0,0:0:0:0:
360,128,130800,1,8,0:0:0:0:
360,128,130950,1,8,0:0:0:0:
360,128,131100,1,0,0:0:0:0:
360,128,131150,1,0,0:0:0:0:
360,128,131200,1,0,0:0:0:0:
336,100,131250,1,8,0:0:0:0:
360,128,131300,1,8,0:0:0:0:
360,128,131350,1,8,0:0:0:0:
360,128,131400,1,0,0:0:0:0:
336,100,131550,1,0,0:0:0:0:
304,104,131700,1,8,0:0:0:0:
304,104,131850,1,8,0:0:0:0:
184,132,132000,1,0,0:0:0:0:
184,132,132150,1,8,0:0:0:0:
196,104,132225,1,8,0:0:0:0:
184,132,132300,1,0,0:0:0:0:
196,104,132450,1,8,0:0:0:0:
196,104,132525,1,8,0:0:0:0:
196,104,132600,1,0,0:0:0:0:
196,104,132750,1,8,0:0:0:0:
196,104,132825,1,8,0:0:0:0:
196,104,132900,1,0,0:0:0:0:
196,104,133050,1,8,0:0:0:0:
196,104,133125,1,8,0:0:0:0:
196,104,133200,1,0,0:0:0:0:
196,104,133275,1,0,0:0:0:0:
184,132,133350,1,8,0:0:0:0:
184,132,133425,1,8,0:0:0:0:
184,132,133500,1,0,0:0:0:0:
196,104,133575,1,0,0:0:0:0:
196,104,133650,1,8,0:0:0:0:
196,104,133725,1,8,0:0:0:0:
260,200,133800,5,0,0:0:0:0:
196,104,133875,1,0,0:0:0:0:
196,104,133950,1,0,0:0:0:0:
196,104,134025,1,0,0:0:0:0:
196,104,134100,1,0,0:0:0:0:
196,104,134175,1,0,0:0:0:0:
196,104,134250,1,0,0:0:0:0:
184,132,134325,1,0,0:0:0:0:
260,200,134400,1,12,0:0:0:0:
196,104,134550,1,0,0:0:0:0:
196,104,134625,1,0,0:0:0:0:
196,104,134700,1,8,0:0:0:0:
196,104,134850,1,0,0:0:0:0:
184,132,134925,1,0,0:0:0:0:
184,132,135000,1,8,0:0:0:0:
184,132,135075,1,0,0:0:0:0:
196,104,135150,1,0,0:0:0:0:
328,128,135200,1,0,0:0:0:0:
360,152,135250,1,0,0:0:0:0:
328,128,135300,1,8,0:0:0:0:
328,128,135450,1,0,0:0:0:0:
196,104,135525,1,0,0:0:0:0:
196,104,135600,1,8,0:0:0:0:
224,116,135750,1,8,0:0:0:0:
196,104,135825,1,0,0:0:0:0:
196,104,135900,1,8,0:0:0:0:
312,204,135975,1,8,0:0:0:0:
224,116,136050,1,0,0:0:0:0:
224,116,136125,1,0,0:0:0:0:
224,116,136200,1,8,0:0:0:0:
224,116,136275,1,8,0:0:0:0:
224,116,136350,1,0,0:0:0:0:
228,160,136400,1,0,0:0:0:0:
228,160,136450,1,0,0:0:0:0:
228,160,136500,1,8,0:0:0:0:
228,160,136650,1,0,0:0:0:0:
312,204,136800,1,8,0:0:0:0:
312,204,136950,1,8,0:0:0:0:
312,204,137025,1,8,0:0:0:0:
312,204,137100,1,0,0:0:0:0:
228,160,137250,1,0,0:0:0:0:
228,160,137325,1,0,0:0:0:0:
228,160,137400,1,8,0:0:0:0:
228,160,137475,1,8,0:0:0:0:
228,160,137550,1,0,0:0:0:0:
228,160,137625,1,8,0:0:0:0:
228,160,137700,1,0,0:0:0:0:
228,160,137775,1,0,0:0:0:0:
228,160,137850,1,8,0:0:0:0:
228,160,137925,1,0,0:0:0:0:
228,160,138000,1,0,0:0:0:0:
228,160,138075,1,8,0:0:0:0:
228,160,138150,1,0,0:0:0:0:
228,160,138225,1,8,0:0:0:0:
228,160,138300,1,0,0:0:0:0:
228,160,138375,1,0,0:0:0:0:
228,160,138450,1,8,0:0:0:0:
228,160,138525,1,0,0:0:0:0:
228,160,138600,1,8,0:0:0:0:
228,160,138675,1,8,0:0:0:0:
228,160,138750,1,0,0:0:0:0:
228,160,138825,1,0,0:0:0:0:
228,160,138900,1,8,0:0:0:0:
228,160,138975,1,8,0:0:0:0:
228,160,139050,1,0,0:0:0:0:
228,160,139200,1,12,0:0:0:0:
296,180,139350,1,0,0:0:0:0:
296,180,139425,1,0,0:0:0:0:
296,180,139500,1,8,0:0:0:0:
296,180,139650,1,8,0:0:0:0:
296,180,139800,1,0,0:0:0:0:
320,120,139875,1,8,0:0:0:0:
296,180,139950,1,0,0:0:0:0:
360,144,140000,1,0,0:0:0:0:
360,144,140050,1,0,0:0:0:0:
296,180,140100,1,8,0:0:0:0:
248,96,140250,1,0,0:0:0:0:
248,96,140325,1,0,0:0:0:0:
248,96,140400,1,8,0:0:0:0:
248,96,140550,1,0,0:0:0:0:
272,200,140700,5,12,0:0:0:0:
272,200,141000,1,12,0:0:0:0:
272,200,141300,1,12,0:0:0:0:
272,200,141450,1,12,0:0:0:0:
272,200,141600,1,4,0:0:0:0:
232,200,141750,1,0,0:0:0:0:
232,200,141825,1,0,0:0:0:0:
232,200,141900,1,8,0:0:0:0:
232,200,142050,1,0,0:0:0:0:
240,168,142125,1,0,0:0:0:0:
240,168,142200,1,8,0:0:0:0:
240,168,142275,1,0,0:0:0:0:
240,168,142350,1,0,0:0:0:0:
388,116,142400,1,0,0:0:0:0:
388,116,142450,1,0,0:0:0:0:
240,168,142500,1,8,0:0:0:0:
240,168,142650,1,0,0:0:0:0:
336,216,142800,1,12,0:0:0:0:
360,148,142950,1,8,0:0:0:0:
360,148,143025,1,0,0:0:0:0:
360,148,143100,1,8,0:0:0:0:
392,152,143250,1,0,0:0:0:0:
388,116,143325,1,8,0:0:0:0:
360,148,143400,1,0,0:0:0:0:
360,148,143550,1,8,0:0:0:0:
360,148,143700,1,8,0:0:0:0:
360,148,143775,1,8,0:0:0:0:
360,148,143850,1,0,0:0:0:0:
360,148,144000,1,4,0:0:0:0:
360,148,144150,1,0,0:0:0:0:
360,148,144300,1,8,0:0:0:0:
360,148,144375,1,0,0:0:0:0:
360,148,144450,1,0,0:0:0:0:
360,148,144525,1,8,0:0:0:0:
360,148,144600,1,0,0:0:0:0:
212,160,144675,1,0,0:0:0:0:
392,152,144750,1,8,0:0:0:0:
212,160,144900,1,8,0:0:0:0:
212,160,145050,1,8,0:0:0:0:
212,160,145125,1,8,0:0:0:0:
212,160,145200,1,0,0:0:0:0:
212,160,145350,1,0,0:0:0:0:
232,132,145425,1,0,0:0:0:0:
220,96,145500,1,8,0:0:0:0:
220,96,145575,1,8,0:0:0:0:
220,96,145650,1,0,0:0:0:0:
220,96,145725,1,0,0:0:0:0:
220,96,145800,1,8,0:0:0:0:
232,132,145875,1,8,0:0:0:0:
232,132,145950,1,0,0:0:0:0:
232,132,146025,1,0,0:0:0:0:
232,132,146100,1,8,0:0:0:0:
232,132,146250,1,8,0:0:0:0:
232,132,146325,1,8,0:0:0:0:
232,132,146400,1,0,0:0:0:0:
232,132,146550,1,0,0:0:0:0:
232,132,146625,1,0,0:0:0:0:
232,132,146700,1,8,0:0:0:0:
232,132,146850,1,8,0:0:0:0:
232,132,147000,1,0,0:0:0:0:
220,96,147075,1,8,0:0:0:0:
220,96,147150,1,0,0:0:0:0:
232,132,147225,1,0,0:0:0:0:
232,132,147300,1,8,0:0:0:0:
232,132,147450,1,8,0:0:0:0:
232,132,147525,1,8,0:0:0:0:
232,132,147600,1,0,0:0:0:0:
232,132,147750,1,8,0:0:0:0:
232,132,147825,1,8,0:0:0:0:
232,132,147900,1,0,0:0:0:0:
232,132,147975,1,0,0:0:0:0:
232,132,148050,1,8,0:0:0:0:
268,136,148125,1,8,0:0:0:0:
268,136,148200,1,0,0:0:0:0:
196,160,148275,1,8,0:0:0:0:
196,160,148350,1,0,0:0:0:0:
232,132,148425,1,0,0:0:0:0:
232,132,148500,1,8,0:0:0:0:
232,132,148575,1,8,0:0:0:0:
232,132,148650,1,0,0:0:0:0:
296,192,148800,5,4,0:0:0:0:
296,192,148950,1,8,0:0:0:0:
296,192,149100,1,4,0:0:0:0:
296,192,149250,1,8,0:0:0:0:
296,192,149400,1,4,0:0:0:0:
296,192,149550,1,8,0:0:0:0:
296,192,149700,1,4,0:0:0:0:
296,192,149850,1,8,0:0:0:0:
296,192,150000,1,8,0:0:0:0:
296,192,150075,1,0,0:0:0:0:
296,192,150225,1,0,0:0:0:0:
296,192,150300,1,8,0:0:0:0:
296,192,150375,1,0,0:0:0:0:
268,204,150525,1,0,0:0:0:0:
268,204,150600,1,8,0:0:0:0:
268,204,150675,1,0,0:0:0:0:
268,204,150825,1,0,0:0:0:0:
268,204,150900,1,8,0:0:0:0:
296,192,150975,1,0,0:0:0:0:
200,76,151125,1,0,0:0:0:0:
208,148,151200,1,8,0:0:0:0:
208,148,151350,1,0,0:0:0:0:
324,252,151400,1,0,0:0:0:0:
324,252,151450,1,0,0:0:0:0:
208,148,151500,1,8,0:0:0:0:
296,192,151650,1,8,0:0:0:0:
296,192,151725,1,8,0:0:0:0:
296,192,151800,1,0,0:0:0:0:
288,160,151875,1,0,0:0:0:0:
288,160,151950,1,8,0:0:0:0:
356,132,152000,1,0,0:0:0:0:
356,132,152050,1,0,0:0:0:0:
356,132,152100,1,8,0:0:0:0:
356,132,152250,1,0,0:0:0:0:
356,132,152400,1,8,0:0:0:0:
356,132,152550,1,0,0:0:0:0:
356,132,152625,1,0,0:0:0:0:
356,132,152700,1,0,0:0:0:0:
392,136,152750,1,0,0:0:0:0:
392,136,152800,1,0,0:0:0:0:
392,136,152850,1,8,0:0:0:0:
392,136,152900,1,8,0:0:0:0:
392,136,152950,1,8,0:0:0:0:
392,136,153000,1,0,0:0:0:0:
392,136,153150,1,4,0:0:0:0:
216,144,153300,1,4,0:0:0:0:
356,132,153450,1,4,0:0:0:0:
