osu file format v14

[General]
AudioFilename: [Cytus] yamajet - Logical Steps.mp3
AudioLeadIn: 0
PreviewTime: 46621
Countdown: 0
SampleSet: Soft
StackLeniency: 0.7
Mode: 0
LetterboxInBreaks: 0
WidescreenStoryboard: 0

[Editor]
DistanceSpacing: 1
BeatDivisor: 4
GridSize: 4
TimelineZoom: 1.2

[Metadata]
Title:Logical Steps
TitleUnicode:Logical Steps
Artist:yamajet
ArtistUnicode:yamajet
Creator:LinearFaze
Version:Insane
Source:Cytus
Tags:
BeatmapID:644741
BeatmapSetID:285465

[Difficulty]
HPDrainRate:6
CircleSize:5
OverallDifficulty:9
ApproachRate:9
SliderMultiplier:1.6
SliderTickRate:2

[Events]
//Background and Video events
0,0,"Cytus OST 1.jpg",0,0
//Break Periods
//Storyboard Layer 0 (Background)
//Storyboard Layer 1 (Fail)
//Storyboard Layer 2 (Pass)
//Storyboard Layer 3 (Foreground)
//Storyboard Sound Samples

[TimingPoints]
4160,461.538259165322,4,2,0,65,1,0
18929,-100,4,2,0,70,0,0
26313,-83.3333333333333,4,2,0,75,0,0
33698,-66.6666666666667,4,1,0,55,0,1
48467,-100,4,2,0,75,0,0
63236,-83.3333333333333,4,1,0,55,0,0
78006,-100,4,2,0,75,0,1
90929,-83.3333333333333,4,1,0,60,0,0
107544,-66.6666666666667,4,1,0,75,0,1
122313,-100,4,2,0,65,0,0

[Colours]
Combo1 : 255,128,0
Combo2 : 0,192,255
Combo3 : 240,0,0
Combo4 : 0,128,160
Combo5 : 160,32,240

[HitObjects]
256,192,4160,5,4,0:0:0:0:
144,76,4621,1,0,0:0:0:0:
104,144,4852,1,0,0:0:0:0:
100,224,5083,2,0,B|128:256|128:256|140:292,1,80
164,324,5429,1,0,0:0:0:0:
204,316,5544,2,0,B|244:308|244:308|284:316,1,80,2|0,0:0|0:0,0:0:0:0:
404,312,6006,5,0,0:0:0:0:
440,196,6236,1,0,0:0:0:0:
380,92,6467,1,2,0:0:0:0:
348,64,6583,1,0,0:0:0:0:
308,56,6698,1,0,0:0:0:0:
228,144,6929,2,0,B|244:180|244:180|276:212,1,80
364,288,7390,1,2,0:0:0:0:
360,56,7852,6,0,P|320:60|280:56,1,80
128,56,8313,2,0,P|168:60|208:56,1,80,2|0,0:0|0:0,0:0:0:0:
256,168,8775,1,0,0:0:0:0:
144,216,9006,1,0,0:0:0:0:
132,256,9121,1,0,0:0:0:0:
152,292,9236,1,2,0:0:0:0:
272,344,9467,1,0,0:0:0:0:
380,260,9698,5,0,0:0:0:0:
420,136,9929,1,0,0:0:0:0:
315,212,10159,1,2,0:0:0:0:
444,212,10390,1,0,0:0:0:0:
340,136,10621,2,0,P|284:96|264:92,1,80
128,88,11083,1,0,0:0:0:0:
104,120,11198,1,0,0:0:0:0:
88,156,11313,1,0,0:0:0:0:
80,196,11429,1,0,0:0:0:0:
80,236,11544,5,4,0:0:0:0:
160,336,11775,1,0,0:0:0:0:
260,256,12006,1,0,0:0:0:0:
276,220,12121,1,0,0:0:0:0:
328,104,12352,2,0,P|380:76|440:100,1,120,0|2,0:0|0:0,0:0:0:0:
472,168,12929,1,0,0:0:0:0:
464,208,13044,1,0,0:0:0:0:
444,244,13159,1,0,0:0:0:0:
348,316,13390,6,0,P|292:344|236:340,1,120,0|2,0:0|0:0,0:0:0:0:
80,224,14083,2,0,P|48:152|80:80,1,160,0|2,0:0|0:0,0:0:0:0:
240,80,14775,2,0,B|280:72|280:72|320:80,1,80
420,144,15236,6,0,B|400:224,1,80
400,264,15583,1,0,0:0:0:0:
400,304,15698,1,2,0:0:0:0:
92,144,16159,2,0,B|112:224,1,80
112,264,16506,1,2,0:0:0:0:
372,192,17083,5,0,0:0:0:0:
256,76,17313,1,0,0:0:0:0:
140,192,17544,1,0,0:0:0:0:
256,308,17775,1,0,0:0:0:0:
256,152,18006,2,0,L|256:232,1,80,0|2,0:0|0:0,0:0:0:0:
126,281,18467,1,0,0:0:0:0:
92,259,18582,1,0,0:0:0:0:
67,227,18697,1,0,0:0:0:0:
54,189,18813,1,0,0:0:0:0:
54,149,18928,5,4,0:0:0:0:
67,111,19044,1,0,0:0:0:0:
92,80,19159,1,0,0:0:0:0:
126,58,19274,1,0,0:0:0:0:
164,48,19390,2,2,L|244:48,1,80
356,112,19852,2,0,L|428:156,1,80
428,192,20198,1,8,0:0:0:0:
304,340,20544,1,0,0:0:0:0:
264,336,20659,1,0,0:0:0:0:
224,331,20775,5,2,0:0:0:0:
185,321,20890,1,0,0:0:0:0:
147,305,21006,1,0,0:0:0:0:
111,286,21121,1,0,0:0:0:0:
80,260,21236,2,0,B|92:220|92:220|88:180,1,80,0|2,0:0|0:0,0:0:0:0:
180,64,21698,2,0,L|260:40,1,80
296,40,22044,1,8,0:0:0:0:
440,48,22275,1,0,0:0:0:0:
452,84,22390,1,0,0:0:0:0:
464,120,22506,1,0,0:0:0:0:
436,148,22621,5,2,0:0:0:0:
408,176,22736,1,0,0:0:0:0:
380,204,22852,1,0,0:0:0:0:
392,240,22967,1,0,0:0:0:0:
404,276,23083,2,0,L|348:332,1,80,0|2,0:0|0:0,0:0:0:0:
200,332,23544,2,0,B|160:332|160:332|132:304,1,80
132,264,23890,1,8,0:0:0:0:
56,80,24236,1,0,0:0:0:0:
200,64,24467,5,0,0:0:0:0:
336,64,24698,1,2,0:0:0:0:
200,64,24929,1,0,0:0:0:0:
336,64,25159,1,2,0:0:0:0:
408,180,25390,2,0,P|412:220|396:260,1,80,0|8,0:0|0:0,0:0:0:0:
292,348,25852,1,0,0:0:0:0:
252,352,25967,1,0,0:0:0:0:
212,352,26083,1,0,0:0:0:0:
172,348,26198,1,0,0:0:0:0:
132,340,26313,1,0,0:0:0:0:
88,232,26544,5,0,0:0:0:0:
152,52,26929,1,0,0:0:0:0:
356,52,27236,2,0,P|432:80|460:148,1,159.999995117188,0|2,0:0|0:0,0:0:0:0:
408,296,27929,1,0,0:0:0:0:
292,300,28159,5,0,0:0:0:0:
256,192,28390,1,0,0:0:0:0:
120,56,28775,1,0,0:0:0:0:
68,200,29083,2,0,P|80:288|132:332,1,159.999995117188,0|2,0:0|0:0,0:0:0:0:
316,320,29659,1,0,0:0:0:0:
360,304,29775,1,0,0:0:0:0:
396,272,29890,1,0,0:0:0:0:
412,228,30006,5,0,0:0:0:0:
300,204,30236,1,0,0:0:0:0:
116,152,30621,1,0,0:0:0:0:
308,88,30929,2,0,P|420:120|452:148,1,159.999995117188,0|2,0:0|0:0,0:0:0:0:
452,292,31621,1,0,0:0:0:0:
256,192,31852,12,12,33121,0:0:0:0:
256,192,33698,5,0,0:0:0:0:
171,75,33929,1,0,0:0:0:0:
34,119,34159,1,0,0:0:0:0:
34,263,34390,1,0,0:0:0:0:
171,308,34621,2,0,P|228:328|288:336,1,120.000004577637
336,336,34967,1,0,0:0:0:0:
384,324,35083,1,8,0:0:0:0:
424,296,35198,1,0,0:0:0:0:
452,256,35313,1,0,0:0:0:0:
468,212,35429,1,0,0:0:0:0:
472,164,35544,5,0,0:0:0:0:
348,52,35775,1,0,0:0:0:0:
300,40,35890,1,0,0:0:0:0:
252,52,36006,2,0,P|228:108|248:164,1,120.000004577637
264,320,36467,1,0,0:0:0:0:
216,332,36583,1,0,0:0:0:0:
168,332,36698,1,0,0:0:0:0:
120,320,36813,1,0,0:0:0:0:
84,288,36928,1,8,0:0:0:0:
60,248,37044,1,0,0:0:0:0:
48,200,37159,1,0,0:0:0:0:
48,152,37275,1,0,0:0:0:0:
52,104,37390,5,0,0:0:0:0:
188,72,37621,1,0,0:0:0:0:
232,56,37736,1,0,0:0:0:0:
280,64,37852,2,0,P|332:88|396:84,1,120.000004577637
456,216,38313,2,0,P|432:284|384:312,1,120.000004577637
348,312,38659,1,0,0:0:0:0:
300,296,38775,1,8,0:0:0:0:
252,284,38890,1,0,0:0:0:0:
204,288,39006,1,0,0:0:0:0:
160,308,39121,1,0,0:0:0:0:
120,332,39236,5,0,0:0:0:0:
68,196,39467,1,0,0:0:0:0:
52,152,39583,1,0,0:0:0:0:
68,108,39698,2,0,P|96:64|164:64,1,120.000004577637,8|0,0:0|0:0,0:0:0:0:
196,92,40044,1,0,0:0:0:0:
212,136,40159,1,8,0:0:0:0:
208,184,40275,1,0,0:0:0:0:
212,232,40390,1,0,0:0:0:0:
224,280,40506,1,0,0:0:0:0:
256,316,40621,1,8,0:0:0:0:
300,336,40736,1,0,0:0:0:0:
348,344,40852,1,0,0:0:0:0:
396,336,40967,1,0,0:0:0:0:
436,308,41083,5,0,0:0:0:0:
400,164,41313,1,0,0:0:0:0:
416,120,41429,1,0,0:0:0:0:
432,76,41544,1,0,0:0:0:0:
288,60,41775,1,0,0:0:0:0:
144,116,42006,2,0,P|120:152|100:228,1,120.000004577637
84,272,42352,1,0,0:0:0:0:
92,320,42467,2,0,P|152:312|208:328,1,120.000004577637,8|0,0:0|0:0,0:0:0:0:
252,304,42813,1,0,0:0:0:0:
292,276,42929,6,0,P|356:296|412:292,1,120.000004577637
440,256,43275,1,0,0:0:0:0:
468,216,43390,2,0,P|440:148|440:100,1,120.000004577637
296,60,43852,1,0,0:0:0:0:
248,56,43968,1,0,0:0:0:0:
200,60,44083,1,0,0:0:0:0:
156,76,44198,1,0,0:0:0:0:
120,108,44314,1,8,0:0:0:0:
92,144,44429,1,0,0:0:0:0:
76,188,44545,1,0,0:0:0:0:
68,236,44660,1,0,0:0:0:0:
68,284,44775,6,0,P|136:320|184:324,1,120.000004577637
228,324,45121,1,0,0:0:0:0:
276,324,45236,2,0,B|336:308|336:308|392:324,1,120.000004577637
444,196,45698,1,0,0:0:0:0:
432,148,45813,1,0,0:0:0:0:
400,112,45929,1,0,0:0:0:0:
352,104,46044,1,0,0:0:0:0:
304,112,46159,1,8,0:0:0:0:
268,144,46275,1,0,0:0:0:0:
256,192,46390,1,0,0:0:0:0:
256,192,46621,12,4,48006,0:0:0:0:
256,192,48467,5,0,0:0:0:0:
172,256,48698,2,0,P|152:304|128:328,2,80,0|2|0,0:0|0:0|0:0,0:0:0:0:
96,180,49390,2,0,P|64:136|56:104,1,80
84,80,49736,1,0,0:0:0:0:
120,64,49852,2,0,P|164:80|196:76,1,80,8|0,0:0|0:0,0:0:0:0:
248,176,50313,5,0,0:0:0:0:
224,284,50544,1,0,0:0:0:0:
324,336,50775,1,0,0:0:0:0:
364,324,50890,1,0,0:0:0:0:
396,300,51006,1,2,0:0:0:0:
452,200,51236,2,0,B|468:164|468:164|468:124,1,80
432,104,51583,1,0,0:0:0:0:
396,88,51698,1,8,0:0:0:0:
264,44,51929,1,0,0:0:0:0:
136,92,52159,5,0,0:0:0:0:
80,180,52390,1,0,0:0:0:0:
72,220,52506,1,0,0:0:0:0:
80,260,52621,1,8,0:0:0:0:
312,340,53083,2,0,L|368:284,1,80
408,276,53429,1,0,0:0:0:0:
448,268,53544,1,8,0:0:0:0:
456,132,53775,1,0,0:0:0:0:
332,80,54006,5,0,0:0:0:0:
256,192,54236,1,0,0:0:0:0:
256,232,54352,1,0,0:0:0:0:
256,272,54467,2,0,B|224:304|224:304|188:304,1,80,8|0,0:0|0:0,0:0:0:0:
148,304,54813,1,0,0:0:0:0:
108,304,54929,1,8,0:0:0:0:
60,188,55159,5,2,0:0:0:0:
116,72,55390,1,2,0:0:0:0:
156,72,55506,1,2,0:0:0:0:
284,72,55736,1,2,0:0:0:0:
324,72,55852,1,4,0:0:0:0:
408,176,56083,5,0,0:0:0:0:
408,308,56313,1,0,0:0:0:0:
376,332,56429,1,0,0:0:0:0:
248,288,56659,2,0,B|248:232|280:232|280:172,1,120,0|2,0:0|0:0,0:0:0:0:
232,88,57236,1,0,0:0:0:0:
192,76,57352,1,0,0:0:0:0:
152,80,57467,1,0,0:0:0:0:
64,156,57698,6,0,P|48:236|64:272,1,120,0|2,0:0|0:0,0:0:0:0:
272,320,58390,2,0,P|352:300|384:280,1,120,0|2,0:0|0:0,0:0:0:0:
416,256,58852,1,8,0:0:0:0:
436,156,59083,2,0,B|420:120|420:120|424:76,1,80
312,72,59544,6,0,P|264:88|236:88,1,80
196,84,59890,1,2,0:0:0:0:
156,76,60006,1,8,0:0:0:0:
72,152,60236,1,0,0:0:0:0:
64,272,60467,2,0,P|112:300|136:304,1,80
176,308,60813,1,2,0:0:0:0:
216,304,60929,1,8,0:0:0:0:
340,276,61159,6,0,L|356:312,2,40
428,216,61621,1,8,0:0:0:0:
420,112,61852,1,0,0:0:0:0:
388,88,61967,1,0,0:0:0:0:
352,72,62083,1,0,0:0:0:0:
312,64,62198,1,2,0:0:0:0:
272,64,62313,1,4,0:0:0:0:
149,101,62544,1,4,0:0:0:0:
187,223,62775,1,4,0:0:0:0:
309,186,63006,1,4,0:0:0:0:
436,224,63236,5,10,0:0:0:0:
384,336,63467,1,0,0:0:0:0:
336,348,63583,1,0,0:0:0:0:
288,348,63698,2,0,P|232:336|196:316,1,95.9999970703126
152,328,64044,1,0,0:0:0:0:
104,340,64159,2,0,P|72:296|60:256,1,95.9999970703126
64,208,64506,1,0,0:0:0:0:
80,164,64621,1,8,0:0:0:0:
132,56,64852,1,0,0:0:0:0:
256,64,65083,6,0,P|308:80|352:84,1,95.9999970703126
448,168,65544,1,8,0:0:0:0:
468,212,65659,1,0,0:0:0:0:
460,260,65775,1,0,0:0:0:0:
368,344,66006,1,0,0:0:0:0:
320,340,66121,1,0,0:0:0:0:
272,328,66236,1,0,0:0:0:0:
224,312,66352,1,0,0:0:0:0:
176,308,66467,1,8,0:0:0:0:
80,244,66698,1,0,0:0:0:0:
176,180,66929,5,2,0:0:0:0:
280,224,67159,1,0,0:0:0:0:
320,248,67275,1,0,0:0:0:0:
368,252,67390,2,0,P|420:240|448:204,1,95.9999970703126,8|0,0:0|0:0,0:0:0:0:
400,104,67852,1,0,0:0:0:0:
356,88,67967,1,0,0:0:0:0:
308,88,68083,1,0,0:0:0:0:
264,108,68198,1,0,0:0:0:0:
232,144,68313,1,8,0:0:0:0:
204,268,68544,1,0,0:0:0:0:
80,308,68775,5,2,0:0:0:0:
52,192,69006,1,0,0:0:0:0:
72,148,69121,1,0,0:0:0:0:
64,100,69236,1,8,0:0:0:0:
176,60,69467,1,0,0:0:0:0:
224,52,69583,1,0,0:0:0:0:
268,68,69698,1,2,0:0:0:0:
292,108,69813,1,0,0:0:0:0:
288,156,69929,1,8,0:0:0:0:
256,192,70044,1,0,0:0:0:0:
224,228,70159,1,0,0:0:0:0:
220,276,70275,1,0,0:0:0:0:
244,316,70389,1,8,0:0:0:0:
288,332,70505,1,0,0:0:0:0:
336,324,70620,5,2,0:0:0:0:
440,256,70852,1,0,0:0:0:0:
436,136,71083,1,0,0:0:0:0:
392,116,71198,1,0,0:0:0:0:
276,128,71429,2,0,B|264:184|208:192|196:248,1,143.999995605469,0|8,0:0|0:0,0:0:0:0:
120,336,72006,1,0,0:0:0:0:
80,308,72121,1,0,0:0:0:0:
60,264,72236,1,2,0:0:0:0:
60,152,72467,6,0,B|60:104|60:104|88:64,1,95.9999970703126
132,44,72813,1,0,0:0:0:0:
180,44,72929,1,8,0:0:0:0:
300,60,73159,2,0,L|388:96,1,95.9999970703126
416,136,73506,2,0,L|448:228,1,95.9999970703126
444,276,73852,1,2,0:0:0:0:
332,332,74083,1,0,0:0:0:0:
208,328,74313,6,0,B|172:292|172:292|152:248,1,95.9999970703126
120,216,74659,1,0,0:0:0:0:
100,172,74775,1,8,0:0:0:0:
216,84,75006,1,0,0:0:0:0:
344,124,75236,2,0,B|356:172|356:172|344:220,1,95.9999970703126
312,252,75583,1,0,0:0:0:0:
276,284,75698,1,2,0:0:0:0:
156,240,75929,1,0,0:0:0:0:
256,192,76159,12,4,77544,0:0:0:0:
84,100,78006,5,0,0:0:0:0:
120,84,78121,1,0,0:0:0:0:
160,76,78236,1,0,0:0:0:0:
200,72,78352,1,0,0:0:0:0:
240,80,78467,1,8,0:0:0:0:
316,108,78698,1,0,0:0:0:0:
348,132,78813,1,0,0:0:0:0:
376,164,78929,1,0,0:0:0:0:
396,196,79044,1,0,0:0:0:0:
412,232,79159,1,8,0:0:0:0:
436,308,79390,1,0,0:0:0:0:
396,304,79506,1,0,0:0:0:0:
360,288,79621,1,8,0:0:0:0:
328,264,79736,1,0,0:0:0:0:
300,236,79852,5,0,0:0:0:0:
268,212,79967,1,0,0:0:0:0:
228,204,80083,1,0,0:0:0:0:
192,220,80198,1,0,0:0:0:0:
176,256,80313,1,8,0:0:0:0:
120,312,80544,1,0,0:0:0:0:
84,296,80659,1,0,0:0:0:0:
60,264,80775,1,0,0:0:0:0:
48,228,80890,1,0,0:0:0:0:
44,188,81006,1,8,0:0:0:0:
48,148,81121,1,0,0:0:0:0:
64,112,81236,1,0,0:0:0:0:
92,84,81352,1,0,0:0:0:0:
128,64,81467,1,8,0:0:0:0:
168,60,81583,1,0,0:0:0:0:
208,60,81698,5,0,0:0:0:0:
248,64,81813,1,0,0:0:0:0:
284,80,81929,1,0,0:0:0:0:
316,104,82044,1,0,0:0:0:0:
340,136,82159,1,8,0:0:0:0:
324,216,82390,1,0,0:0:0:0:
292,244,82506,1,0,0:0:0:0:
256,264,82621,1,0,0:0:0:0:
216,276,82736,1,0,0:0:0:0:
176,280,82852,1,8,0:0:0:0:
108,320,83083,1,0,0:0:0:0:
96,284,83198,1,0,0:0:0:0:
88,244,83313,1,8,0:0:0:0:
92,204,83429,1,0,0:0:0:0:
112,168,83544,5,0,0:0:0:0:
148,156,83659,1,0,0:0:0:0:
184,176,83775,1,0,0:0:0:0:
204,212,83890,1,0,0:0:0:0:
224,248,84006,1,8,0:0:0:0:
284,300,84236,1,0,0:0:0:0:
320,320,84352,1,0,0:0:0:0:
360,324,84467,1,0,0:0:0:0:
396,308,84583,1,0,0:0:0:0:
416,276,84698,1,8,0:0:0:0:
412,236,84813,1,0,0:0:0:0:
388,204,84929,1,0,0:0:0:0:
356,184,85044,1,0,0:0:0:0:
316,180,85159,1,8,0:0:0:0:
280,160,85275,1,0,0:0:0:0:
264,124,85390,5,0,0:0:0:0:
276,84,85506,1,0,0:0:0:0:
308,60,85621,1,0,0:0:0:0:
348,56,85736,1,0,0:0:0:0:
388,64,85852,1,8,0:0:0:0:
440,128,86083,1,0,0:0:0:0:
404,148,86198,1,0,0:0:0:0:
364,160,86313,1,0,0:0:0:0:
324,164,86429,1,0,0:0:0:0:
284,164,86544,1,8,0:0:0:0:
244,160,86659,1,0,0:0:0:0:
208,144,86775,1,0,0:0:0:0:
176,124,86890,1,0,0:0:0:0:
140,112,87006,1,8,0:0:0:0:
100,116,87121,1,0,0:0:0:0:
68,140,87236,5,0,0:0:0:0:
56,176,87352,1,0,0:0:0:0:
68,216,87467,1,0,0:0:0:0:
104,236,87583,1,0,0:0:0:0:
144,232,87698,1,8,0:0:0:0:
220,212,87929,1,0,0:0:0:0:
260,212,88044,1,0,0:0:0:0:
288,240,88159,1,0,0:0:0:0:
292,280,88275,1,0,0:0:0:0:
260,304,88390,1,8,0:0:0:0:
220,308,88506,1,0,0:0:0:0:
180,308,88621,1,0,0:0:0:0:
140,304,88736,1,0,0:0:0:0:
100,292,88852,1,8,0:0:0:0:
64,272,88967,1,0,0:0:0:0:
48,236,89083,5,0,0:0:0:0:
52,196,89198,1,0,0:0:0:0:
76,164,89313,1,0,0:0:0:0:
116,156,89429,1,0,0:0:0:0:
156,164,89544,1,8,0:0:0:0:
236,160,89775,1,0,0:0:0:0:
272,148,89890,1,0,0:0:0:0:
292,116,90006,1,0,0:0:0:0:
316,84,90121,1,0,0:0:0:0:
352,68,90236,1,8,0:0:0:0:
392,68,90352,1,0,0:0:0:0:
428,88,90467,1,0,0:0:0:0:
444,124,90583,1,0,0:0:0:0:
448,164,90698,1,8,0:0:0:0:
448,204,90813,1,0,0:0:0:0:
436,252,90929,5,0,0:0:0:0:
408,292,91044,1,0,0:0:0:0:
364,312,91159,1,10,0:0:0:0:
316,312,91275,1,0,0:0:0:0:
272,292,91390,1,0,0:0:0:0:
252,248,91506,1,0,0:0:0:0:
264,204,91621,1,10,0:0:0:0:
296,168,91736,1,0,0:0:0:0:
312,124,91852,5,0,0:0:0:0:
304,76,91967,1,0,0:0:0:0:
268,44,92083,1,10,0:0:0:0:
220,36,92198,1,0,0:0:0:0:
172,48,92313,1,0,0:0:0:0:
132,76,92429,1,0,0:0:0:0:
104,116,92544,1,10,0:0:0:0:
92,160,92659,1,0,0:0:0:0:
88,208,92775,6,0,P|96:252|136:292,1,95.9999970703126
180,212,93236,2,0,P|204:168|244:144,1,95.9999970703126,8|0,0:0|0:0,0:0:0:0:
272,236,93698,2,0,P|284:288|316:320,1,95.9999970703126
360,332,94044,1,0,0:0:0:0:
404,320,94159,1,8,0:0:0:0:
452,216,94390,1,0,0:0:0:0:
424,104,94621,5,0,0:0:0:0:
316,60,94852,1,0,0:0:0:0:
264,52,94967,1,0,0:0:0:0:
212,60,95083,1,8,0:0:0:0:
96,56,95313,1,0,0:0:0:0:
56,164,95544,2,0,P|68:212|60:260,1,95.9999970703126
80,300,95890,1,0,0:0:0:0:
116,332,96006,1,8,0:0:0:0:
240,312,96236,1,0,0:0:0:0:
284,328,96352,1,0,0:0:0:0:
328,344,96467,6,0,L|424:344,1,95.9999970703126
424,248,96929,2,0,L|328:248,1,95.9999970703126,8|0,0:0|0:0,0:0:0:0:
328,152,97390,2,0,L|424:152,1,95.9999970703126
460,120,97736,1,0,0:0:0:0:
460,72,97852,1,8,0:0:0:0:
336,48,98083,1,0,0:0:0:0:
292,64,98198,1,0,0:0:0:0:
244,72,98313,6,0,P|196:64|144:72,1,95.9999970703126
108,96,98659,1,0,0:0:0:0:
92,140,98775,1,8,0:0:0:0:
200,196,99006,1,0,0:0:0:0:
244,212,99121,1,0,0:0:0:0:
292,204,99236,2,0,P|336:176|380:176,1,95.9999970703126
424,192,99583,1,0,0:0:0:0:
452,232,99698,1,8,0:0:0:0:
408,340,99929,1,0,0:0:0:0:
296,316,100159,6,0,L|204:340,1,95.9999970703126
92,300,100621,2,0,L|186:277,1,95.9999970703126,8|0,0:0|0:0,0:0:0:0:
264,192,101083,2,0,L|170:215,1,95.9999970703126
124,212,101429,1,0,0:0:0:0:
84,188,101544,1,8,0:0:0:0:
40,76,101775,1,0,0:0:0:0:
156,40,102006,5,0,0:0:0:0:
264,76,102236,1,0,0:0:0:0:
312,64,102352,1,0,0:0:0:0:
360,68,102467,1,8,0:0:0:0:
448,148,102698,1,0,0:0:0:0:
408,172,102813,1,0,0:0:0:0:
360,188,102929,2,0,P|308:188|264:172,1,95.9999970703126
220,188,103275,1,0,0:0:0:0:
180,212,103390,1,8,0:0:0:0:
60,244,103621,1,0,0:0:0:0:
136,328,103852,6,0,L|232:328,1,95.9999970703126
352,304,104313,2,0,L|420:236,1,95.9999970703126,8|0,0:0|0:0,0:0:0:0:
384,128,104775,2,0,L|316:60,1,95.9999970703126
268,52,105121,1,0,0:0:0:0:
224,72,105236,1,8,0:0:0:0:
256,192,105467,1,0,0:0:0:0:
256,192,105698,12,4,106852,0:0:0:0:
204,88,107083,5,0,0:0:0:0:
176,92,107198,1,0,0:0:0:0:
148,96,107313,1,0,0:0:0:0:
120,100,107429,1,0,0:0:0:0:
92,104,107544,2,0,P|72:160|92:216,1,120.000004577637
200,267,108006,2,0,P|255:248|311:267,1,120.000004577637,8|0,0:0|0:0,0:0:0:0:
420,216,108467,2,0,P|440:160|420:104,1,120.000004577637
380,76,108813,1,0,0:0:0:0:
332,76,108929,1,10,0:0:0:0:
200,112,109159,1,0,0:0:0:0:
156,156,109275,1,0,0:0:0:0:
112,200,109390,5,0,0:0:0:0:
100,344,109621,1,0,0:0:0:0:
156,328,109736,1,0,0:0:0:0:
212,312,109852,1,10,0:0:0:0:
364,304,110083,1,0,0:0:0:0:
328,256,110198,1,0,0:0:0:0:
292,208,110313,1,10,0:0:0:0:
336,64,110544,1,0,0:0:0:0:
388,92,110659,1,0,0:0:0:0:
440,120,110775,1,10,0:0:0:0:
436,288,111006,1,0,0:0:0:0:
272,324,111236,6,0,B|212:304|212:304|152:312,1,120.000004577637
92,208,111698,2,0,B|88:148|88:148|112:92,1,120.000004577637,8|0,0:0|0:0,0:0:0:0:
204,168,112159,2,0,B|252:200|252:200|312:216,1,120.000004577637
360,208,112506,1,0,0:0:0:0:
400,184,112621,1,10,0:0:0:0:
428,40,112852,1,0,0:0:0:0:
280,44,113083,5,0,0:0:0:0:
220,56,113198,1,0,0:0:0:0:
160,68,113313,1,0,0:0:0:0:
100,80,113429,1,0,0:0:0:0:
40,92,113544,1,10,0:0:0:0:
52,232,113775,1,0,0:0:0:0:
96,272,113890,1,0,0:0:0:0:
140,312,114006,1,10,0:0:0:0:
248,208,114236,1,0,0:0:0:0:
300,176,114352,1,0,0:0:0:0:
352,144,114467,1,10,0:0:0:0:
424,276,114698,1,0,0:0:0:0:
288,328,114929,6,0,P|232:340|168:320,1,120.000004577637
236,220,115390,2,0,P|232:164|260:104,1,120.000004577637,8|0,0:0|0:0,0:0:0:0:
352,184,115852,2,0,P|416:168|456:200,1,120.000004577637
468,244,116198,1,0,0:0:0:0:
444,284,116313,1,10,0:0:0:0:
304,336,116544,1,0,0:0:0:0:
160,328,116775,5,0,0:0:0:0:
92,204,117006,1,0,0:0:0:0:
132,160,117121,1,0,0:0:0:0:
172,116,117236,1,10,0:0:0:0:
312,72,117467,1,0,0:0:0:0:
352,116,117583,1,0,0:0:0:0:
392,160,117698,1,10,0:0:0:0:
256,196,117929,1,0,0:0:0:0:
228,248,118044,1,0,0:0:0:0:
200,300,118159,1,10,0:0:0:0:
348,292,118390,1,0,0:0:0:0:
440,180,118621,6,0,L|396:68,1,120.000004577637
280,104,119083,2,0,L|320:220,1,120.000004577637,8|0,0:0|0:0,0:0:0:0:
404,304,119544,2,0,P|348:332|284:332,1,120.000004577637
236,312,119890,1,0,0:0:0:0:
192,268,120006,1,10,0:0:0:0:
184,208,120121,1,0,0:0:0:0:
208,152,120236,1,0,0:0:0:0:
264,132,120352,1,0,0:0:0:0:
256,192,120467,12,4,121852,0:0:0:0:
96,112,122313,6,0,L|96:192,1,80
176,192,122775,2,0,L|176:112,1,80
256,112,123236,2,0,L|256:192,1,80
256,192,123583,1,0,0:0:0:0:
256,192,123698,1,12,0:0:0:0:
256,272,123929,1,0,0:0:0:0:
336,272,124159,6,0,L|336:192,1,80
336,112,124621,2,0,L|416:112,1,80
416,192,125083,2,0,L|416:272,1,80
416,272,125429,1,0,0:0:0:0:
416,272,125544,1,12,0:0:0:0:
340,300,125775,1,0,0:0:0:0:
260,308,126006,5,0,0:0:0:0:
152,276,126236,1,0,0:0:0:0:
136,240,126352,1,0,0:0:0:0:
120,204,126467,1,0,0:0:0:0:
120,92,126698,1,0,0:0:0:0:
232,92,126929,1,0,0:0:0:0:
264,116,127044,1,0,0:0:0:0:
304,124,127159,1,0,0:0:0:0:
344,116,127275,1,0,0:0:0:0:
376,92,127390,1,12,0:0:0:0:
420,196,127621,1,0,0:0:0:0:
388,220,127736,1,0,0:0:0:0:
356,244,127852,5,0,0:0:0:0:
260,304,128083,1,0,0:0:0:0:
244,268,128198,1,0,0:0:0:0:
228,232,128313,1,0,0:0:0:0:
116,248,128544,1,0,0:0:0:0:
116,208,128659,1,0,0:0:0:0:
124,168,128775,1,0,0:0:0:0:
140,132,128890,1,0,0:0:0:0:
164,100,129006,1,8,0:0:0:0:
196,76,129121,1,0,0:0:0:0:
236,64,129236,1,2,0:0:0:0:
276,64,129352,1,0,0:0:0:0:
316,76,129467,1,12,0:0:0:0:
