osu file format v14

[General]
AudioFilename: Lucid.mp3
AudioLeadIn: 0
PreviewTime: 46554
Countdown: 0
SampleSet: Soft
StackLeniency: 0.7
Mode: 3
LetterboxInBreaks: 0
SpecialStyle: 0
WidescreenStoryboard: 0

[Editor]
Bookmarks: 64640
DistanceSpacing: 0.9
BeatDivisor: 4
GridSize: 8
TimelineZoom: 2.2

[Metadata]
Title:Lucid
TitleUnicode:Lucid
Artist:yak_won
ArtistUnicode:yak_won
Creator:Critical_Star
Version:NM
Source:Ez2Dj 7th TraX -Resistance-
Tags:D.N.Concerto version 1.50 Ez2ON
BeatmapID:476044
BeatmapSetID:200945

[Difficulty]
HPDrainRate:7
CircleSize:4
OverallDifficulty:7
ApproachRate:5
SliderMultiplier:0.8
SliderTickRate:1

[Events]
//Background and Video events
0,0,"Fantasy-Piano-Other.jpg",0,0
//Break Periods
//Storyboard Layer 0 (Background)
//Storyboard Layer 1 (Fail)
//Storyboard Layer 2 (Pass)
//Storyboard Layer 3 (Foreground)
//Storyboard Sound Samples

[TimingPoints]
2669,342.857142857143,4,2,0,40,1,0
19126,-100,4,2,0,40,0,1
30097,-100,4,2,0,40,0,0
57526,-100,4,2,0,40,0,1
68497,-100,4,2,0,40,0,0
93183,-100,4,2,0,40,0,1
104154,-100,4,2,0,40,0,0

[HitObjects]
64,192,1297,5,0,0:0:0:0:
448,192,1297,1,0,0:0:0:0:
192,192,2326,1,0,0:0:0:0:
320,192,2668,5,0,0:0:0:0:
448,192,2668,1,4,0:0:0:0:
192,192,2840,1,0,0:0:0:0:
64,192,3011,1,8,0:0:0:0:
448,192,3011,1,0,0:0:0:0:
320,192,3183,1,0,0:0:0:0:
192,192,3354,1,0,0:0:0:0:
320,192,3526,1,0,0:0:0:0:
64,192,3697,1,0,0:0:0:0:
448,192,3697,1,8,0:0:0:0:
192,192,3869,1,0,0:0:0:0:
320,192,4040,1,0,0:0:0:0:
64,192,4211,1,0,0:0:0:0:
320,192,4383,1,0,0:0:0:0:
448,192,4383,1,8,0:0:0:0:
192,192,4726,1,0,0:0:0:0:
448,192,4897,1,0,0:0:0:0:
192,192,5069,1,0,0:0:0:0:
64,192,5069,1,8,0:0:0:0:
320,192,5411,1,0,0:0:0:0:
192,192,5583,1,0,0:0:0:0:
64,192,5754,1,8,0:0:0:0:
448,192,5754,1,0,0:0:0:0:
192,192,6097,1,0,0:0:0:0:
320,192,6269,1,0,0:0:0:0:
448,192,6440,1,0,0:0:0:0:
64,192,6440,1,8,0:0:0:0:
192,192,6783,1,0,0:0:0:0:
320,192,6954,1,0,0:0:0:0:
64,192,7126,1,8,0:0:0:0:
448,192,7126,1,0,0:0:0:0:
192,192,7297,1,0,0:0:0:0:
320,192,7469,128,4,7811:0:0:0:0:
192,192,7811,128,4,8154:0:0:0:0:
64,192,8154,1,4,0:0:0:0:
448,192,8154,1,0,0:0:0:0:
192,192,8497,1,0,0:0:0:0:
64,192,8497,1,8,0:0:0:0:
320,192,8840,1,0,0:0:0:0:
448,192,9183,1,8,0:0:0:0:
64,192,9183,1,0,0:0:0:0:
192,192,9526,1,2,0:0:0:0:
320,192,9783,1,2,0:0:0:0:
64,192,10040,1,2,0:0:0:0:
448,192,10211,1,2,0:0:0:0:
192,192,10554,1,8,0:0:0:0:
320,192,10897,1,0,0:0:0:0:
192,192,11240,1,0,0:0:0:0:
64,192,11240,1,8,0:0:0:0:
320,192,11583,1,0,0:0:0:0:
64,192,11926,1,8,0:0:0:0:
448,192,11926,1,0,0:0:0:0:
192,192,12269,1,0,0:0:0:0:
320,192,12611,1,8,0:0:0:0:
64,192,12611,1,0,0:0:0:0:
448,192,12954,128,4,13297:0:0:0:0:
64,192,13297,128,4,13640:0:0:0:0:
320,192,13640,1,4,0:0:0:0:
192,192,13811,1,0,0:0:0:0:
64,192,13983,1,8,0:0:0:0:
448,192,13983,1,0,0:0:0:0:
320,192,14326,1,0,0:0:0:0:
448,192,14669,1,0,0:0:0:0:
64,192,14669,1,8,0:0:0:0:
192,192,15011,1,0,0:0:0:0:
320,192,15183,1,0,0:0:0:0:
64,192,15354,1,0,0:0:0:0:
448,192,15354,1,8,0:0:0:0:
192,192,15697,1,0,0:0:0:0:
448,192,16040,1,8,0:0:0:0:
64,192,16040,1,0,0:0:0:0:
320,192,16383,1,0,0:0:0:0:
192,192,16554,1,0,0:0:0:0:
448,192,16726,1,0,0:0:0:0:
64,192,16726,1,8,0:0:0:0:
320,192,17069,1,0,0:0:0:0:
448,192,17411,1,0,0:0:0:0:
64,192,17411,1,8,0:0:0:0:
192,192,17754,1,0,0:0:0:0:
320,192,17926,1,0,0:0:0:0:
448,192,18097,1,0,0:0:0:0:
64,192,18097,1,8,0:0:0:0:
192,192,18269,1,0,0:0:0:0:
320,192,18440,128,4,18783:0:0:0:0:
64,192,18783,128,4,19126:0:0:0:0:
192,192,19126,1,4,0:0:0:0:
448,192,19126,128,0,19811:0:0:0:0:
192,192,19811,128,0,20154:0:0:0:0:
320,192,20154,128,0,20497:0:0:0:0:
64,192,20497,128,0,21183:0:0:0:0:
448,192,21183,128,0,21526:0:0:0:0:
320,192,21526,128,0,21869:0:0:0:0:
192,192,21869,128,0,22554:0:0:0:0:
64,192,22554,128,0,22897:0:0:0:0:
448,192,22897,128,0,23240:0:0:0:0:
320,192,23240,128,0,23926:0:0:0:0:
64,192,23926,128,0,24269:0:0:0:0:
192,192,24269,128,0,24611:0:0:0:0:
320,192,24611,1,4,0:0:0:0:
448,192,24611,128,0,25297:0:0:0:0:
64,192,25297,128,0,25640:0:0:0:0:
192,192,25640,128,0,25983:0:0:0:0:
320,192,25983,128,0,26669:0:0:0:0:
448,192,26669,128,0,27011:0:0:0:0:
192,192,27011,128,0,27354:0:0:0:0:
64,192,27354,128,0,28040:0:0:0:0:
320,192,28040,128,0,28383:0:0:0:0:
448,192,28383,128,0,28726:0:0:0:0:
192,192,28726,128,0,29411:0:0:0:0:
320,192,29411,128,0,29754:0:0:0:0:
64,192,29754,128,0,30097:0:0:0:0:
448,192,30097,1,0,0:0:0:0:
192,192,30097,1,4,0:0:0:0:
320,192,30269,1,0,0:0:0:0:
192,192,30440,1,0,0:0:0:0:
64,192,30440,1,8,0:0:0:0:
448,192,30611,1,0,0:0:0:0:
320,192,30783,1,0,0:0:0:0:
192,192,30954,1,0,0:0:0:0:
448,192,31126,1,8,0:0:0:0:
320,192,31126,1,0,0:0:0:0:
64,192,31297,1,0,0:0:0:0:
320,192,31469,1,0,0:0:0:0:
192,192,31640,1,0,0:0:0:0:
448,192,31811,1,0,0:0:0:0:
64,192,31811,1,8,0:0:0:0:
192,192,32154,1,0,0:0:0:0:
320,192,32326,1,0,0:0:0:0:
448,192,32497,1,8,0:0:0:0:
64,192,32497,1,0,0:0:0:0:
64,192,32840,1,0,0:0:0:0:
192,192,33011,1,0,0:0:0:0:
320,192,33183,1,0,0:0:0:0:
448,192,33183,1,8,0:0:0:0:
448,192,33526,1,0,0:0:0:0:
320,192,33697,1,0,0:0:0:0:
192,192,33869,1,0,0:0:0:0:
64,192,33869,1,8,0:0:0:0:
192,192,34211,1,0,0:0:0:0:
320,192,34383,1,0,0:0:0:0:
448,192,34554,1,8,0:0:0:0:
64,192,34554,1,0,0:0:0:0:
192,192,34726,1,0,0:0:0:0:
320,192,34897,128,4,35240:0:0:0:0:
192,192,35240,128,4,35583:0:0:0:0:
64,192,35583,128,0,36269:0:0:0:0:
448,192,35583,1,4,0:0:0:0:
448,192,36269,128,0,36611:0:0:0:0:
320,192,36611,128,0,36954:0:0:0:0:
192,192,36954,128,0,37640:0:0:0:0:
448,192,37640,128,0,38326:0:0:0:0:
64,192,38326,128,0,39697:0:0:0:0:
448,192,39697,128,0,40040:0:0:0:0:
320,192,40040,128,0,40383:0:0:0:0:
192,192,40383,128,0,40726:0:0:0:0:
320,192,40726,128,0,41069:0:0:0:0:
64,192,41069,128,0,41754:0:0:0:0:
448,192,41754,128,0,42097:0:0:0:0:
320,192,42097,128,0,42440:0:0:0:0:
64,192,42440,128,0,43126:0:0:0:0:
192,192,43126,128,0,43811:0:0:0:0:
448,192,43811,128,0,44840:0:0:0:0:
64,192,44840,128,0,45183:0:0:0:0:
320,192,45183,128,0,45869:0:0:0:0:
192,192,45869,1,0,0:0:0:0:
320,192,46040,1,0,0:0:0:0:
64,192,46211,1,8,0:0:0:0:
448,192,46211,1,0,0:0:0:0:
192,192,46383,1,0,0:0:0:0:
320,192,46554,1,0,0:0:0:0:
448,192,46554,1,4,0:0:0:0:
192,192,46897,1,8,0:0:0:0:
64,192,46897,1,0,0:0:0:0:
320,192,47240,1,0,0:0:0:0:
448,192,47583,1,8,0:0:0:0:
64,192,47583,1,0,0:0:0:0:
192,192,47926,1,0,0:0:0:0:
64,192,48269,1,8,0:0:0:0:
448,192,48269,1,0,0:0:0:0:
320,192,48611,1,0,0:0:0:0:
448,192,48954,1,8,0:0:0:0:
64,192,48954,1,0,0:0:0:0:
192,192,49126,1,0,0:0:0:0:
320,192,49297,1,0,0:0:0:0:
64,192,49640,1,8,0:0:0:0:
192,192,49640,1,0,0:0:0:0:
320,192,49983,1,0,0:0:0:0:
448,192,50326,1,8,0:0:0:0:
192,192,50326,1,0,0:0:0:0:
64,192,50669,1,4,0:0:0:0:
320,192,50669,1,0,0:0:0:0:
192,192,51011,1,8,0:0:0:0:
448,192,51011,1,4,0:0:0:0:
448,192,51354,1,4,0:0:0:0:
320,192,51354,1,0,0:0:0:0:
192,192,51697,1,8,0:0:0:0:
64,192,51697,1,4,0:0:0:0:
320,192,52040,1,0,0:0:0:0:
448,192,52040,1,0,0:0:0:0:
320,192,52383,1,0,0:0:0:0:
64,192,52383,1,8,0:0:0:0:
192,192,52726,1,0,0:0:0:0:
192,192,53069,1,0,0:0:0:0:
448,192,53069,1,8,0:0:0:0:
320,192,53411,1,0,0:0:0:0:
448,192,53754,1,8,0:0:0:0:
320,192,53754,1,0,0:0:0:0:
192,192,54097,1,0,0:0:0:0:
192,192,54440,1,0,0:0:0:0:
64,192,54440,1,8,0:0:0:0:
320,192,54783,1,0,0:0:0:0:
448,192,55126,1,8,0:0:0:0:
64,192,55126,1,0,0:0:0:0:
320,192,55469,1,0,0:0:0:0:
192,192,55811,1,0,0:0:0:0:
448,192,55811,1,8,0:0:0:0:
64,192,56154,1,0,0:0:0:0:
448,192,56497,1,8,0:0:0:0:
320,192,56497,1,0,0:0:0:0:
192,192,56840,1,0,0:0:0:0:
448,192,57183,1,8,0:0:0:0:
64,192,57183,1,0,0:0:0:0:
192,192,57526,1,0,0:0:0:0:
64,192,57526,1,4,0:0:0:0:
320,192,57697,1,0,0:0:0:0:
448,192,57869,1,8,0:0:0:0:
192,192,58040,1,0,0:0:0:0:
64,192,58211,1,0,0:0:0:0:
320,192,58383,1,0,0:0:0:0:
192,192,58554,1,8,0:0:0:0:
448,192,58726,1,0,0:0:0:0:
64,192,58897,1,0,0:0:0:0:
192,192,59069,1,0,0:0:0:0:
320,192,59240,1,8,0:0:0:0:
192,192,59411,1,0,0:0:0:0:
448,192,59583,1,0,0:0:0:0:
192,192,59754,1,0,0:0:0:0:
320,192,59926,1,8,0:0:0:0:
64,192,60097,1,0,0:0:0:0:
448,192,60269,1,0,0:0:0:0:
320,192,60440,1,0,0:0:0:0:
192,192,60611,1,8,0:0:0:0:
64,192,60783,1,0,0:0:0:0:
448,192,60954,1,0,0:0:0:0:
192,192,61126,1,0,0:0:0:0:
448,192,61297,1,8,0:0:0:0:
64,192,61469,1,0,0:0:0:0:
192,192,61640,1,0,0:0:0:0:
320,192,61811,1,0,0:0:0:0:
448,192,61983,1,8,0:0:0:0:
192,192,62154,1,0,0:0:0:0:
448,192,62326,1,0,0:0:0:0:
320,192,62497,1,0,0:0:0:0:
192,192,62669,1,8,0:0:0:0:
64,192,62840,1,0,0:0:0:0:
320,192,63011,1,4,0:0:0:0:
192,192,63183,1,0,0:0:0:0:
448,192,63354,1,8,0:0:0:0:
64,192,63526,1,0,0:0:0:0:
448,192,63697,1,0,0:0:0:0:
320,192,63869,1,0,0:0:0:0:
448,192,64040,1,8,0:0:0:0:
64,192,64211,1,0,0:0:0:0:
448,192,64383,1,0,0:0:0:0:
64,192,64554,1,0,0:0:0:0:
320,192,64726,1,8,0:0:0:0:
192,192,64897,1,0,0:0:0:0:
448,192,65069,1,0,0:0:0:0:
192,192,65240,1,0,0:0:0:0:
320,192,65411,1,8,0:0:0:0:
64,192,65583,1,0,0:0:0:0:
448,192,65754,1,0,0:0:0:0:
64,192,65926,1,0,0:0:0:0:
192,192,66097,1,8,0:0:0:0:
320,192,66269,1,0,0:0:0:0:
448,192,66440,1,0,0:0:0:0:
64,192,66611,1,0,0:0:0:0:
448,192,66783,1,8,0:0:0:0:
64,192,66954,1,0,0:0:0:0:
320,192,67126,1,0,0:0:0:0:
64,192,67297,1,0,0:0:0:0:
448,192,67469,1,8,0:0:0:0:
192,192,67640,1,0,0:0:0:0:
448,192,67811,1,0,0:0:0:0:
64,192,67983,1,0,0:0:0:0:
320,192,68154,1,8,0:0:0:0:
192,192,68326,1,0,0:0:0:0:
64,192,68497,128,0,71240:0:0:0:0:
320,192,68840,1,0,0:0:0:0:
448,192,69183,1,0,0:0:0:0:
320,192,69526,1,0,0:0:0:0:
192,192,69869,1,0,0:0:0:0:
448,192,70211,1,0,0:0:0:0:
192,192,70554,1,0,0:0:0:0:
320,192,70897,1,0,0:0:0:0:
448,192,71240,128,0,73297:0:0:0:0:
320,192,71583,1,0,0:0:0:0:
192,192,71926,1,0,0:0:0:0:
64,192,72269,1,0,0:0:0:0:
320,192,72611,1,0,0:0:0:0:
64,192,72954,1,0,0:0:0:0:
320,192,73297,128,4,73640:0:0:0:0:
192,192,73640,128,4,73983:0:0:0:0:
64,192,73983,1,4,0:0:0:0:
448,192,73983,1,0,0:0:0:0:
320,192,74326,1,8,0:0:0:0:
192,192,74326,1,0,0:0:0:0:
64,192,74669,1,0,0:0:0:0:
448,192,75011,1,8,0:0:0:0:
320,192,75011,1,0,0:0:0:0:
64,192,75354,1,2,0:0:0:0:
192,192,75611,1,2,0:0:0:0:
320,192,75869,1,2,0:0:0:0:
448,192,76040,1,2,0:0:0:0:
320,192,76383,1,0,0:0:0:0:
192,192,76383,1,8,0:0:0:0:
64,192,76726,1,0,0:0:0:0:
192,192,77069,1,0,0:0:0:0:
448,192,77069,1,8,0:0:0:0:
320,192,77411,1,0,0:0:0:0:
448,192,77754,1,8,0:0:0:0:
64,192,77754,1,0,0:0:0:0:
192,192,78097,1,0,0:0:0:0:
64,192,78440,1,0,0:0:0:0:
448,192,78440,1,8,0:0:0:0:
320,192,78783,128,4,79126:0:0:0:0:
192,192,79126,128,4,79469:0:0:0:0:
448,192,79469,1,0,0:0:0:0:
64,192,79469,1,4,0:0:0:0:
64,192,79811,1,8,0:0:0:0:
320,192,79811,1,0,0:0:0:0:
192,192,80154,1,0,0:0:0:0:
448,192,80497,1,0,0:0:0:0:
320,192,80497,1,8,0:0:0:0:
64,192,80840,1,2,0:0:0:0:
192,192,81097,1,2,0:0:0:0:
448,192,81354,1,2,0:0:0:0:
320,192,81526,1,2,0:0:0:0:
64,192,81869,1,8,0:0:0:0:
192,192,81869,1,0,0:0:0:0:
448,192,82211,1,0,0:0:0:0:
320,192,82554,1,0,0:0:0:0:
64,192,82554,1,8,0:0:0:0:
192,192,82897,1,0,0:0:0:0:
448,192,83240,1,0,0:0:0:0:
64,192,83240,1,8,0:0:0:0:
320,192,83583,1,0,0:0:0:0:
64,192,83926,1,8,0:0:0:0:
192,192,83926,1,0,0:0:0:0:
448,192,84269,128,4,84611:0:0:0:0:
64,192,84611,128,4,84954:0:0:0:0:
448,192,84954,1,4,0:0:0:0:
320,192,85126,1,0,0:0:0:0:
192,192,85297,1,8,0:0:0:0:
64,192,85469,1,0,0:0:0:0:
448,192,85640,1,0,0:0:0:0:
320,192,85811,1,0,0:0:0:0:
192,192,85983,1,8,0:0:0:0:
320,192,86154,1,0,0:0:0:0:
64,192,86326,1,0,0:0:0:0:
192,192,86497,1,0,0:0:0:0:
320,192,86669,1,8,0:0:0:0:
448,192,86840,1,0,0:0:0:0:
64,192,87011,1,0,0:0:0:0:
192,192,87183,1,0,0:0:0:0:
320,192,87354,1,8,0:0:0:0:
448,192,87526,1,0,0:0:0:0:
64,192,87697,1,0,0:0:0:0:
192,192,87869,1,0,0:0:0:0:
448,192,88040,1,8,0:0:0:0:
320,192,88211,1,0,0:0:0:0:
64,192,88383,1,0,0:0:0:0:
192,192,88554,1,0,0:0:0:0:
320,192,88726,1,8,0:0:0:0:
192,192,88897,1,0,0:0:0:0:
448,192,89069,1,0,0:0:0:0:
320,192,89240,1,0,0:0:0:0:
64,192,89411,1,8,0:0:0:0:
192,192,89583,1,0,0:0:0:0:
320,192,89754,128,4,90097:0:0:0:0:
192,192,90097,128,4,90440:0:0:0:0:
64,192,90440,128,2,90783:0:0:0:0:
320,192,90783,1,2,0:0:0:0:
320,192,91126,128,2,91469:0:0:0:0:
192,192,91469,1,2,0:0:0:0:
192,192,91811,128,2,92154:0:0:0:0:
448,192,92154,1,2,0:0:0:0:
448,192,92497,128,2,92840:0:0:0:0:
64,192,92840,1,2,0:0:0:0:
64,192,93183,1,4,0:0:0:0:
448,192,93183,1,0,0:0:0:0:
320,192,93526,1,0,0:0:0:0:
192,192,93526,1,8,0:0:0:0:
192,192,93869,1,0,0:0:0:0:
448,192,94211,1,8,0:0:0:0:
64,192,94383,1,0,0:0:0:0:
320,192,94554,1,0,0:0:0:0:
192,192,94897,1,8,0:0:0:0:
448,192,94897,1,0,0:0:0:0:
320,192,95240,1,0,0:0:0:0:
64,192,95583,1,8,0:0:0:0:
448,192,95583,1,0,0:0:0:0:
320,192,95754,1,0,0:0:0:0:
192,192,95926,1,0,0:0:0:0:
448,192,96269,1,0,0:0:0:0:
64,192,96269,1,8,0:0:0:0:
320,192,96611,1,0,0:0:0:0:
448,192,96954,1,8,0:0:0:0:
192,192,97126,1,0,0:0:0:0:
320,192,97297,1,0,0:0:0:0:
192,192,97640,1,0,0:0:0:0:
64,192,97640,1,8,0:0:0:0:
448,192,97983,1,0,0:0:0:0:
192,192,98326,1,8,0:0:0:0:
320,192,98497,1,0,0:0:0:0:
192,192,98669,1,0,0:0:0:0:
64,192,98669,1,4,0:0:0:0:
320,192,99011,1,0,0:0:0:0:
448,192,99011,1,8,0:0:0:0:
192,192,99354,1,0,0:0:0:0:
320,192,99697,1,8,0:0:0:0:
64,192,99869,1,0,0:0:0:0:
448,192,100040,1,0,0:0:0:0:
192,192,100383,1,8,0:0:0:0:
320,192,100383,1,0,0:0:0:0:
64,192,100726,1,0,0:0:0:0:
320,192,101069,1,8,0:0:0:0:
192,192,101240,1,0,0:0:0:0:
64,192,101411,1,0,0:0:0:0:
448,192,101754,1,8,0:0:0:0:
192,192,101754,1,0,0:0:0:0:
320,192,102097,1,0,0:0:0:0:
448,192,102440,1,8,0:0:0:0:
192,192,102611,1,0,0:0:0:0:
64,192,102783,1,0,0:0:0:0:
320,192,103126,1,0,0:0:0:0:
448,192,103126,1,8,0:0:0:0:
448,192,103469,1,0,0:0:0:0:
320,192,103640,1,0,0:0:0:0:
192,192,103811,1,8,0:0:0:0:
64,192,103983,1,0,0:0:0:0:
448,192,104154,1,0,0:0:0:0:
320,192,104154,1,4,0:0:0:0:
64,192,104326,1,0,0:0:0:0:
320,192,104497,1,8,0:0:0:0:
192,192,104497,1,0,0:0:0:0:
448,192,104669,1,0,0:0:0:0:
64,192,104840,1,0,0:0:0:0:
192,192,104840,1,0,0:0:0:0:
320,192,105011,1,0,0:0:0:0:
448,192,105183,1,8,0:0:0:0:
64,192,105183,1,0,0:0:0:0:
192,192,105354,1,0,0:0:0:0:
320,192,105526,1,0,0:0:0:0:
64,192,105697,1,0,0:0:0:0:
448,192,105869,1,8,0:0:0:0:
320,192,105869,1,0,0:0:0:0:
192,192,106211,1,0,0:0:0:0:
448,192,106383,1,0,0:0:0:0:
192,192,106554,1,0,0:0:0:0:
64,192,106554,1,8,0:0:0:0:
64,192,106897,1,0,0:0:0:0:
192,192,107069,1,0,0:0:0:0:
448,192,107240,1,0,0:0:0:0:
320,192,107240,1,8,0:0:0:0:
192,192,107583,1,0,0:0:0:0:
320,192,107754,1,0,0:0:0:0:
448,192,107926,1,0,0:0:0:0:
64,192,107926,1,8,0:0:0:0:
192,192,108269,1,0,0:0:0:0:
320,192,108440,1,0,0:0:0:0:
64,192,108611,1,8,0:0:0:0:
448,192,108611,1,0,0:0:0:0:
192,192,108783,1,0,0:0:0:0:
320,192,108954,128,4,109297:0:0:0:0:
192,192,109297,128,4,109640:0:0:0:0:
64,192,109640,1,4,0:0:0:0:
320,192,109811,1,0,0:0:0:0:
192,192,109983,1,8,0:0:0:0:
448,192,110154,1,0,0:0:0:0:
64,192,110326,1,0,0:0:0:0:
192,192,110497,1,0,0:0:0:0:
448,192,110669,1,8,0:0:0:0:
320,192,110840,1,0,0:0:0:0:
64,192,111011,128,4,111697:0:0:0:0:
448,192,111354,1,8,0:0:0:0:
320,192,111697,1,8,0:0:0:0:
192,192,111697,1,0,0:0:0:0:
64,192,112040,1,0,0:0:0:0:
320,192,112040,1,0,0:0:0:0:
448,192,112383,128,4,113754:0:0:0:0:
192,192,112383,1,0,0:0:0:0:
64,192,113754,128,4,117183:0:0:0:0:
320,192,113754,1,0,0:0:0:0:
192,192,113926,128,4,117183:0:0:0:0:
