osu file format v14

[General]
AudioFilename: Lucid.mp3
AudioLeadIn: 0
PreviewTime: 46554
Countdown: 0
SampleSet: Soft
StackLeniency: 0.7
Mode: 3
LetterboxInBreaks: 0
SpecialStyle: 0
WidescreenStoryboard: 0

[Editor]
DistanceSpacing: 0.9
BeatDivisor: 4
GridSize: 8
TimelineZoom: 3.299999

[Metadata]
Title:Lucid
TitleUnicode:Lucid
Artist:yak_won
ArtistUnicode:yak_won
Creator:Critical_Star
Version:MX
Source:Ez2Dj 7th TraX -Resistance-
Tags:D.N.Concerto version 1.50 Ez2ON
BeatmapID:476043
BeatmapSetID:200945

[Difficulty]
HPDrainRate:8
CircleSize:4
OverallDifficulty:8
ApproachRate:5
SliderMultiplier:0.8
SliderTickRate:1

[Events]
//Background and Video events
0,0,"Fantasy-Piano-Other.jpg",0,0
//Break Periods
//Storyboard Layer 0 (Background)
//Storyboard Layer 1 (Fail)
//Storyboard Layer 2 (Pass)
//Storyboard Layer 3 (Foreground)
//Storyboard Sound Samples

[TimingPoints]
2669,342.857142857143,4,2,0,40,1,0
19126,-100,4,2,0,40,0,1
30097,-100,4,2,0,40,0,0
57526,-100,4,2,0,40,0,1
68497,-100,4,2,0,40,0,0
93183,-100,4,2,0,40,0,1
104154,-100,4,2,0,40,0,0

[HitObjects]
448,192,1297,5,0,0:0:0:0:
192,192,1297,1,0,0:0:0:0:
64,192,1297,1,0,0:0:0:0:
64,192,1640,1,0,0:0:0:0:
448,192,1640,1,0,0:0:0:0:
192,192,1726,1,0,0:0:0:0:
320,192,1811,1,0,0:0:0:0:
448,192,1897,1,0,0:0:0:0:
192,192,1983,1,0,0:0:0:0:
320,192,2068,1,0,0:0:0:0:
192,192,2154,1,0,0:0:0:0:
64,192,2326,1,0,0:0:0:0:
448,192,2326,1,0,0:0:0:0:
192,192,2411,1,0,0:0:0:0:
320,192,2497,1,0,0:0:0:0:
192,192,2668,5,0,0:0:0:0:
64,192,2668,1,0,0:0:0:0:
448,192,2668,1,4,0:0:0:0:
320,192,2840,1,0,0:0:0:0:
192,192,2840,1,0,0:0:0:0:
64,192,3011,1,8,0:0:0:0:
448,192,3011,1,0,0:0:0:0:
320,192,3011,1,0,0:0:0:0:
192,192,3183,1,0,0:0:0:0:
448,192,3183,1,0,0:0:0:0:
320,192,3354,1,0,0:0:0:0:
64,192,3354,1,0,0:0:0:0:
192,192,3526,1,0,0:0:0:0:
320,192,3526,1,0,0:0:0:0:
448,192,3697,1,0,0:0:0:0:
64,192,3697,1,8,0:0:0:0:
192,192,3697,1,0,0:0:0:0:
64,192,3869,1,0,0:0:0:0:
320,192,3869,1,0,0:0:0:0:
192,192,4040,1,0,0:0:0:0:
320,192,4126,1,0,0:0:0:0:
192,192,4211,1,0,0:0:0:0:
320,192,4297,1,0,0:0:0:0:
448,192,4383,1,0,0:0:0:0:
64,192,4383,1,8,0:0:0:0:
192,192,4469,1,0,0:0:0:0:
320,192,4554,1,0,0:0:0:0:
192,192,4640,1,0,0:0:0:0:
64,192,4726,1,0,0:0:0:0:
448,192,4811,1,0,0:0:0:0:
320,192,4897,1,0,0:0:0:0:
192,192,4983,1,0,0:0:0:0:
448,192,5069,1,8,0:0:0:0:
64,192,5069,1,0,0:0:0:0:
320,192,5154,1,0,0:0:0:0:
192,192,5240,1,0,0:0:0:0:
320,192,5326,1,0,0:0:0:0:
448,192,5411,1,0,0:0:0:0:
64,192,5497,1,0,0:0:0:0:
192,192,5583,1,0,0:0:0:0:
320,192,5669,1,0,0:0:0:0:
448,192,5754,1,8,0:0:0:0:
64,192,5754,1,0,0:0:0:0:
192,192,5840,1,0,0:0:0:0:
320,192,5926,1,0,0:0:0:0:
448,192,6011,1,0,0:0:0:0:
320,192,6097,1,0,0:0:0:0:
192,192,6183,1,0,0:0:0:0:
64,192,6269,1,0,0:0:0:0:
192,192,6354,1,0,0:0:0:0:
320,192,6440,1,8,0:0:0:0:
448,192,6440,1,0,0:0:0:0:
192,192,6526,1,0,0:0:0:0:
320,192,6611,1,0,0:0:0:0:
448,192,6697,1,0,0:0:0:0:
64,192,6783,1,0,0:0:0:0:
192,192,6869,1,0,0:0:0:0:
320,192,6954,1,0,0:0:0:0:
448,192,7040,1,0,0:0:0:0:
320,192,7126,1,0,0:0:0:0:
64,192,7126,1,8,0:0:0:0:
192,192,7211,1,0,0:0:0:0:
64,192,7297,1,0,0:0:0:0:
192,192,7383,1,0,0:0:0:0:
320,192,7469,1,4,0:0:0:0:
448,192,7469,128,0,7811:0:0:0:0:
64,192,7811,1,4,0:0:0:0:
320,192,7811,128,0,8154:0:0:0:0:
192,192,7811,1,0,0:0:0:0:
192,192,8154,1,0,0:0:0:0:
448,192,8154,1,0,0:0:0:0:
64,192,8154,1,4,0:0:0:0:
320,192,8326,1,0,0:0:0:0:
64,192,8497,1,8,0:0:0:0:
448,192,8497,1,0,0:0:0:0:
192,192,8669,1,0,0:0:0:0:
320,192,8754,1,0,0:0:0:0:
64,192,8840,1,0,0:0:0:0:
448,192,8840,1,0,0:0:0:0:
320,192,9011,1,0,0:0:0:0:
448,192,9183,1,8,0:0:0:0:
64,192,9183,1,0,0:0:0:0:
192,192,9183,1,0,0:0:0:0:
320,192,9354,1,0,0:0:0:0:
64,192,9526,1,0,0:0:0:0:
192,192,9526,128,2,9783:0:0:0:0:
320,192,9783,128,2,10040:0:0:0:0:
448,192,9783,1,0,0:0:0:0:
448,192,10040,128,2,10211:0:0:0:0:
64,192,10040,1,0,0:0:0:0:
192,192,10211,128,2,10554:0:0:0:0:
320,192,10211,1,0,0:0:0:0:
64,192,10554,128,8,10897:0:0:0:0:
448,192,10554,1,0,0:0:0:0:
320,192,10726,1,0,0:0:0:0:
448,192,10897,1,0,0:0:0:0:
192,192,10897,1,0,0:0:0:0:
320,192,11069,1,0,0:0:0:0:
64,192,11240,1,8,0:0:0:0:
448,192,11240,1,0,0:0:0:0:
320,192,11411,1,0,0:0:0:0:
192,192,11497,1,0,0:0:0:0:
448,192,11583,1,0,0:0:0:0:
64,192,11583,1,0,0:0:0:0:
192,192,11754,1,0,0:0:0:0:
320,192,11926,1,0,0:0:0:0:
64,192,11926,1,8,0:0:0:0:
448,192,11926,1,0,0:0:0:0:
192,192,12097,1,0,0:0:0:0:
448,192,12269,1,0,0:0:0:0:
320,192,12269,1,0,0:0:0:0:
192,192,12354,1,0,0:0:0:0:
64,192,12354,1,0,0:0:0:0:
320,192,12440,1,0,0:0:0:0:
448,192,12440,1,0,0:0:0:0:
448,192,12611,1,0,0:0:0:0:
64,192,12611,1,8,0:0:0:0:
192,192,12783,1,0,0:0:0:0:
320,192,12954,128,4,13297:0:0:0:0:
448,192,12954,1,0,0:0:0:0:
448,192,13297,1,0,0:0:0:0:
64,192,13297,1,0,0:0:0:0:
192,192,13297,128,4,13640:0:0:0:0:
448,192,13640,1,0,0:0:0:0:
64,192,13640,1,4,0:0:0:0:
320,192,13640,1,0,0:0:0:0:
192,192,13726,1,0,0:0:0:0:
320,192,13811,1,0,0:0:0:0:
192,192,13897,1,0,0:0:0:0:
448,192,13983,1,0,0:0:0:0:
64,192,13983,1,8,0:0:0:0:
320,192,14069,1,0,0:0:0:0:
192,192,14154,1,0,0:0:0:0:
320,192,14240,1,0,0:0:0:0:
448,192,14326,1,0,0:0:0:0:
64,192,14411,1,0,0:0:0:0:
192,192,14497,1,0,0:0:0:0:
320,192,14583,1,0,0:0:0:0:
64,192,14669,1,0,0:0:0:0:
448,192,14669,1,8,0:0:0:0:
192,192,14754,1,0,0:0:0:0:
320,192,14840,1,0,0:0:0:0:
192,192,14926,1,0,0:0:0:0:
448,192,15011,1,0,0:0:0:0:
64,192,15011,1,0,0:0:0:0:
320,192,15097,1,0,0:0:0:0:
192,192,15183,1,0,0:0:0:0:
320,192,15269,1,0,0:0:0:0:
64,192,15354,1,0,0:0:0:0:
448,192,15354,1,8,0:0:0:0:
320,192,15440,1,0,0:0:0:0:
192,192,15526,1,0,0:0:0:0:
64,192,15611,1,0,0:0:0:0:
192,192,15697,1,0,0:0:0:0:
448,192,15783,1,0,0:0:0:0:
320,192,15869,1,0,0:0:0:0:
192,192,15954,1,0,0:0:0:0:
448,192,16040,1,8,0:0:0:0:
64,192,16040,1,0,0:0:0:0:
320,192,16126,1,0,0:0:0:0:
192,192,16211,1,0,0:0:0:0:
320,192,16297,1,0,0:0:0:0:
64,192,16383,1,0,0:0:0:0:
448,192,16383,1,0,0:0:0:0:
192,192,16469,1,0,0:0:0:0:
320,192,16554,1,0,0:0:0:0:
448,192,16640,1,0,0:0:0:0:
192,192,16726,1,0,0:0:0:0:
64,192,16726,1,8,0:0:0:0:
320,192,16811,1,0,0:0:0:0:
192,192,16897,1,0,0:0:0:0:
448,192,16983,1,0,0:0:0:0:
320,192,17069,1,0,0:0:0:0:
192,192,17154,1,0,0:0:0:0:
320,192,17240,1,0,0:0:0:0:
192,192,17326,1,0,0:0:0:0:
64,192,17411,1,0,0:0:0:0:
448,192,17411,1,8,0:0:0:0:
320,192,17497,1,0,0:0:0:0:
192,192,17583,1,0,0:0:0:0:
320,192,17669,1,0,0:0:0:0:
64,192,17754,1,0,0:0:0:0:
448,192,17754,1,0,0:0:0:0:
192,192,17840,1,0,0:0:0:0:
320,192,17926,1,0,0:0:0:0:
448,192,18011,1,0,0:0:0:0:
64,192,18097,1,8,0:0:0:0:
320,192,18097,1,0,0:0:0:0:
192,192,18183,1,0,0:0:0:0:
64,192,18269,1,0,0:0:0:0:
192,192,18354,1,0,0:0:0:0:
448,192,18440,128,4,18783:0:0:0:0:
320,192,18440,1,0,0:0:0:0:
320,192,18783,128,4,19126:0:0:0:0:
192,192,18783,1,0,0:0:0:0:
64,192,18783,1,0,0:0:0:0:
192,192,19126,1,0,0:0:0:0:
448,192,19126,1,0,0:0:0:0:
64,192,19126,1,4,0:0:0:0:
320,192,19211,1,0,0:0:0:0:
192,192,19297,1,0,0:0:0:0:
320,192,19383,1,0,0:0:0:0:
64,192,19469,1,8,0:0:0:0:
448,192,19469,1,0,0:0:0:0:
192,192,19554,1,0,0:0:0:0:
320,192,19640,1,0,0:0:0:0:
448,192,19726,1,0,0:0:0:0:
192,192,19811,1,0,0:0:0:0:
64,192,19811,1,0,0:0:0:0:
320,192,19897,1,0,0:0:0:0:
192,192,19983,1,0,0:0:0:0:
320,192,20069,1,0,0:0:0:0:
64,192,20154,1,0,0:0:0:0:
448,192,20154,1,8,0:0:0:0:
192,192,20240,1,0,0:0:0:0:
320,192,20326,1,0,0:0:0:0:
192,192,20411,1,0,0:0:0:0:
448,192,20497,1,0,0:0:0:0:
64,192,20497,1,0,0:0:0:0:
320,192,20583,1,0,0:0:0:0:
192,192,20669,1,0,0:0:0:0:
320,192,20754,1,0,0:0:0:0:
64,192,20840,1,8,0:0:0:0:
448,192,20840,1,0,0:0:0:0:
192,192,20926,1,0,0:0:0:0:
320,192,21011,1,0,0:0:0:0:
64,192,21097,1,0,0:0:0:0:
448,192,21183,1,0,0:0:0:0:
192,192,21183,1,0,0:0:0:0:
320,192,21269,1,0,0:0:0:0:
64,192,21354,1,0,0:0:0:0:
192,192,21440,1,0,0:0:0:0:
320,192,21526,1,8,0:0:0:0:
448,192,21526,1,0,0:0:0:0:
192,192,21611,1,0,0:0:0:0:
448,192,21697,1,0,0:0:0:0:
64,192,21697,1,0,0:0:0:0:
320,192,21783,1,0,0:0:0:0:
64,192,21869,1,0,0:0:0:0:
192,192,21869,1,0,0:0:0:0:
448,192,21954,1,0,0:0:0:0:
320,192,22040,1,0,0:0:0:0:
192,192,22126,1,0,0:0:0:0:
64,192,22211,1,8,0:0:0:0:
448,192,22211,1,0,0:0:0:0:
192,192,22297,1,0,0:0:0:0:
320,192,22383,1,0,0:0:0:0:
192,192,22469,1,0,0:0:0:0:
64,192,22554,1,0,0:0:0:0:
320,192,22554,1,0,0:0:0:0:
448,192,22640,1,0,0:0:0:0:
320,192,22726,1,0,0:0:0:0:
192,192,22811,1,0,0:0:0:0:
448,192,22897,1,0,0:0:0:0:
64,192,22897,1,8,0:0:0:0:
192,192,22983,1,0,0:0:0:0:
320,192,23069,1,0,0:0:0:0:
192,192,23154,1,0,0:0:0:0:
320,192,23240,1,0,0:0:0:0:
64,192,23240,1,0,0:0:0:0:
448,192,23326,1,0,0:0:0:0:
320,192,23411,1,0,0:0:0:0:
192,192,23497,1,0,0:0:0:0:
448,192,23583,1,0,0:0:0:0:
64,192,23583,1,8,0:0:0:0:
192,192,23669,1,0,0:0:0:0:
320,192,23754,1,0,0:0:0:0:
448,192,23840,1,0,0:0:0:0:
320,192,23926,1,0,0:0:0:0:
64,192,23926,1,0,0:0:0:0:
192,192,24011,1,0,0:0:0:0:
320,192,24097,1,0,0:0:0:0:
192,192,24183,1,0,0:0:0:0:
448,192,24269,1,0,0:0:0:0:
64,192,24269,1,8,0:0:0:0:
320,192,24354,1,0,0:0:0:0:
192,192,24440,1,0,0:0:0:0:
64,192,24440,1,0,0:0:0:0:
320,192,24526,1,0,0:0:0:0:
192,192,24611,1,0,0:0:0:0:
448,192,24611,1,0,0:0:0:0:
64,192,24611,1,4,0:0:0:0:
320,192,24697,1,0,0:0:0:0:
192,192,24783,1,0,0:0:0:0:
64,192,24869,1,0,0:0:0:0:
448,192,24954,1,8,0:0:0:0:
192,192,24954,1,0,0:0:0:0:
320,192,25040,1,0,0:0:0:0:
192,192,25126,1,0,0:0:0:0:
320,192,25211,1,0,0:0:0:0:
64,192,25297,1,0,0:0:0:0:
448,192,25297,1,0,0:0:0:0:
192,192,25383,1,0,0:0:0:0:
320,192,25469,1,0,0:0:0:0:
192,192,25554,1,0,0:0:0:0:
448,192,25640,1,0,0:0:0:0:
64,192,25640,1,8,0:0:0:0:
320,192,25726,1,0,0:0:0:0:
192,192,25811,1,0,0:0:0:0:
320,192,25897,1,0,0:0:0:0:
448,192,25983,1,0,0:0:0:0:
64,192,25983,1,0,0:0:0:0:
192,192,26069,1,0,0:0:0:0:
320,192,26154,1,0,0:0:0:0:
192,192,26240,1,0,0:0:0:0:
64,192,26326,1,8,0:0:0:0:
448,192,26326,1,0,0:0:0:0:
192,192,26411,1,0,0:0:0:0:
320,192,26497,1,0,0:0:0:0:
448,192,26583,1,0,0:0:0:0:
320,192,26669,1,0,0:0:0:0:
64,192,26669,1,0,0:0:0:0:
192,192,26754,1,0,0:0:0:0:
320,192,26840,1,0,0:0:0:0:
448,192,26926,1,0,0:0:0:0:
64,192,27011,1,8,0:0:0:0:
192,192,27011,1,0,0:0:0:0:
320,192,27097,1,0,0:0:0:0:
64,192,27183,1,0,0:0:0:0:
448,192,27183,1,0,0:0:0:0:
192,192,27269,1,0,0:0:0:0:
320,192,27354,1,0,0:0:0:0:
64,192,27354,1,0,0:0:0:0:
448,192,27440,1,0,0:0:0:0:
320,192,27526,1,0,0:0:0:0:
192,192,27611,1,0,0:0:0:0:
64,192,27697,1,0,0:0:0:0:
448,192,27697,1,8,0:0:0:0:
192,192,27783,1,0,0:0:0:0:
320,192,27869,1,0,0:0:0:0:
192,192,27954,1,0,0:0:0:0:
320,192,28040,1,0,0:0:0:0:
64,192,28040,1,0,0:0:0:0:
448,192,28126,1,0,0:0:0:0:
320,192,28211,1,0,0:0:0:0:
192,192,28297,1,0,0:0:0:0:
448,192,28383,1,0,0:0:0:0:
64,192,28383,1,8,0:0:0:0:
192,192,28469,1,0,0:0:0:0:
320,192,28554,1,0,0:0:0:0:
448,192,28640,1,0,0:0:0:0:
192,192,28726,1,0,0:0:0:0:
64,192,28726,1,0,0:0:0:0:
320,192,28897,1,0,0:0:0:0:
192,192,28983,1,0,0:0:0:0:
64,192,28983,1,0,0:0:0:0:
448,192,29069,1,0,0:0:0:0:
320,192,29069,1,8,0:0:0:0:
192,192,29240,1,0,0:0:0:0:
320,192,29240,1,0,0:0:0:0:
64,192,29411,1,0,0:0:0:0:
192,192,29411,1,0,0:0:0:0:
448,192,29497,1,0,0:0:0:0:
320,192,29583,1,0,0:0:0:0:
192,192,29669,1,0,0:0:0:0:
64,192,29754,1,8,0:0:0:0:
448,192,29754,1,0,0:0:0:0:
320,192,29840,1,0,0:0:0:0:
192,192,29926,1,0,0:0:0:0:
320,192,30011,1,0,0:0:0:0:
64,192,30097,1,4,0:0:0:0:
192,192,30097,1,0,0:0:0:0:
448,192,30097,1,0,0:0:0:0:
192,192,30269,1,0,0:0:0:0:
320,192,30269,1,0,0:0:0:0:
64,192,30440,1,8,0:0:0:0:
448,192,30440,1,0,0:0:0:0:
192,192,30440,1,0,0:0:0:0:
448,192,30611,1,0,0:0:0:0:
320,192,30611,1,0,0:0:0:0:
192,192,30783,1,0,0:0:0:0:
64,192,30783,1,0,0:0:0:0:
448,192,30954,1,0,0:0:0:0:
192,192,30954,1,0,0:0:0:0:
320,192,31126,1,0,0:0:0:0:
64,192,31126,1,8,0:0:0:0:
448,192,31297,1,0,0:0:0:0:
64,192,31297,1,0,0:0:0:0:
192,192,31469,1,0,0:0:0:0:
320,192,31554,1,0,0:0:0:0:
192,192,31640,1,0,0:0:0:0:
320,192,31726,1,0,0:0:0:0:
64,192,31811,1,8,0:0:0:0:
448,192,31811,1,0,0:0:0:0:
192,192,31897,1,0,0:0:0:0:
320,192,31983,1,0,0:0:0:0:
192,192,32069,1,0,0:0:0:0:
64,192,32154,1,0,0:0:0:0:
448,192,32240,1,0,0:0:0:0:
320,192,32326,1,0,0:0:0:0:
192,192,32411,1,0,0:0:0:0:
448,192,32497,1,8,0:0:0:0:
320,192,32497,1,0,0:0:0:0:
64,192,32583,1,0,0:0:0:0:
192,192,32669,1,0,0:0:0:0:
320,192,32754,1,0,0:0:0:0:
64,192,32840,1,0,0:0:0:0:
448,192,32840,1,0,0:0:0:0:
192,192,32926,1,0,0:0:0:0:
320,192,33011,1,0,0:0:0:0:
192,192,33097,1,0,0:0:0:0:
448,192,33183,1,0,0:0:0:0:
64,192,33183,1,8,0:0:0:0:
320,192,33269,1,0,0:0:0:0:
192,192,33354,1,0,0:0:0:0:
320,192,33440,1,0,0:0:0:0:
448,192,33526,1,0,0:0:0:0:
64,192,33611,1,0,0:0:0:0:
192,192,33697,1,0,0:0:0:0:
320,192,33783,1,0,0:0:0:0:
448,192,33869,1,0,0:0:0:0:
64,192,33869,1,8,0:0:0:0:
192,192,33954,1,0,0:0:0:0:
320,192,34040,1,0,0:0:0:0:
192,192,34126,1,0,0:0:0:0:
64,192,34211,1,0,0:0:0:0:
448,192,34211,1,0,0:0:0:0:
320,192,34297,1,0,0:0:0:0:
192,192,34383,1,0,0:0:0:0:
320,192,34469,1,0,0:0:0:0:
64,192,34554,1,0,0:0:0:0:
448,192,34554,1,8,0:0:0:0:
192,192,34640,1,0,0:0:0:0:
320,192,34726,1,0,0:0:0:0:
192,192,34811,1,0,0:0:0:0:
320,192,34897,128,4,35240:0:0:0:0:
448,192,34897,1,0,0:0:0:0:
192,192,35240,128,4,35583:0:0:0:0:
448,192,35240,1,0,0:0:0:0:
64,192,35240,1,0,0:0:0:0:
448,192,35583,1,4,0:0:0:0:
64,192,35583,128,0,36269:0:0:0:0:
320,192,35583,1,0,0:0:0:0:
448,192,36269,128,0,36611:0:0:0:0:
320,192,36269,1,0,0:0:0:0:
320,192,36611,128,0,36954:0:0:0:0:
192,192,36611,1,0,0:0:0:0:
64,192,36954,1,0,0:0:0:0:
192,192,36954,128,0,37640:0:0:0:0:
320,192,37297,1,0,0:0:0:0:
448,192,37640,128,0,38326:0:0:0:0:
64,192,37640,1,0,0:0:0:0:
192,192,37983,1,0,0:0:0:0:
64,192,38326,128,0,39697:0:0:0:0:
320,192,38326,1,0,0:0:0:0:
448,192,38669,1,0,0:0:0:0:
320,192,39011,1,0,0:0:0:0:
192,192,39354,1,0,0:0:0:0:
448,192,39697,128,0,40040:0:0:0:0:
320,192,39697,1,0,0:0:0:0:
320,192,40040,128,0,40383:0:0:0:0:
192,192,40040,1,0,0:0:0:0:
192,192,40383,128,0,40726:0:0:0:0:
64,192,40383,1,0,0:0:0:0:
448,192,40726,1,0,0:0:0:0:
320,192,40726,128,0,41069:0:0:0:0:
64,192,41069,128,0,41754:0:0:0:0:
192,192,41069,1,0,0:0:0:0:
320,192,41411,1,0,0:0:0:0:
192,192,41754,1,0,0:0:0:0:
448,192,41754,128,0,42097:0:0:0:0:
320,192,42097,128,0,42440:0:0:0:0:
64,192,42097,1,0,0:0:0:0:
64,192,42440,128,0,43126:0:0:0:0:
192,192,42440,1,0,0:0:0:0:
320,192,42783,1,0,0:0:0:0:
448,192,43126,1,0,0:0:0:0:
192,192,43126,128,0,43811:0:0:0:0:
320,192,43469,1,0,0:0:0:0:
448,192,43811,128,0,44840:0:0:0:0:
64,192,43811,1,0,0:0:0:0:
192,192,44154,1,0,0:0:0:0:
320,192,44497,1,0,0:0:0:0:
64,192,44840,128,0,45183:0:0:0:0:
192,192,44840,1,0,0:0:0:0:
448,192,45183,1,0,0:0:0:0:
320,192,45183,128,0,45869:0:0:0:0:
64,192,45526,1,0,0:0:0:0:
448,192,45869,1,0,0:0:0:0:
64,192,45869,1,0,0:0:0:0:
192,192,46040,1,0,0:0:0:0:
320,192,46040,1,0,0:0:0:0:
64,192,46211,1,8,0:0:0:0:
448,192,46211,1,0,0:0:0:0:
192,192,46383,1,0,0:0:0:0:
320,192,46383,1,0,0:0:0:0:
320,192,46554,128,0,47240:0:0:0:0:
64,192,46554,1,4,0:0:0:0:
448,192,46554,1,0,0:0:0:0:
192,192,46726,1,0,0:0:0:0:
448,192,46897,1,0,0:0:0:0:
64,192,46897,1,8,0:0:0:0:
64,192,47069,1,0,0:0:0:0:
448,192,47240,128,0,47583:0:0:0:0:
192,192,47240,1,0,0:0:0:0:
320,192,47411,1,0,0:0:0:0:
192,192,47583,128,0,47926:0:0:0:0:
64,192,47583,1,8,0:0:0:0:
448,192,47754,1,0,0:0:0:0:
64,192,47926,128,0,48611:0:0:0:0:
320,192,47926,1,0,0:0:0:0:
192,192,48097,1,0,0:0:0:0:
448,192,48269,1,8,0:0:0:0:
320,192,48269,1,0,0:0:0:0:
192,192,48440,1,0,0:0:0:0:
448,192,48611,128,0,49297:0:0:0:0:
320,192,48611,1,0,0:0:0:0:
192,192,48783,1,0,0:0:0:0:
320,192,48954,1,0,0:0:0:0:
64,192,48954,1,8,0:0:0:0:
64,192,49126,1,0,0:0:0:0:
192,192,49297,1,0,0:0:0:0:
320,192,49297,128,0,50669:0:0:0:0:
448,192,49469,1,0,0:0:0:0:
64,192,49640,1,0,0:0:0:0:
192,192,49640,1,8,0:0:0:0:
448,192,49811,1,0,0:0:0:0:
192,192,49983,1,0,0:0:0:0:
64,192,49983,1,0,0:0:0:0:
64,192,50154,1,0,0:0:0:0:
448,192,50326,1,8,0:0:0:0:
192,192,50326,1,0,0:0:0:0:
64,192,50497,1,0,0:0:0:0:
448,192,50669,128,0,51011:0:0:0:0:
192,192,50669,128,0,51011:0:0:0:0:
320,192,51011,128,0,51354:0:0:0:0:
64,192,51011,128,8,51354:0:0:0:0:
192,192,51354,128,0,51697:0:0:0:0:
448,192,51354,128,0,51697:0:0:0:0:
320,192,51697,128,0,52040:0:0:0:0:
64,192,51697,1,8,0:0:0:0:
448,192,51869,1,0,0:0:0:0:
192,192,52040,128,0,52726:0:0:0:0:
64,192,52040,1,0,0:0:0:0:
448,192,52211,1,0,0:0:0:0:
320,192,52383,1,0,0:0:0:0:
64,192,52383,1,8,0:0:0:0:
64,192,52554,1,0,0:0:0:0:
448,192,52726,128,0,53069:0:0:0:0:
320,192,52726,1,0,0:0:0:0:
64,192,52897,1,0,0:0:0:0:
320,192,53069,128,0,53411:0:0:0:0:
192,192,53069,1,8,0:0:0:0:
448,192,53240,1,0,0:0:0:0:
64,192,53411,128,0,54097:0:0:0:0:
192,192,53411,1,0,0:0:0:0:
320,192,53583,1,0,0:0:0:0:
448,192,53754,1,8,0:0:0:0:
192,192,53754,1,0,0:0:0:0:
448,192,53926,1,0,0:0:0:0:
192,192,54097,128,0,54783:0:0:0:0:
320,192,54097,1,0,0:0:0:0:
64,192,54269,1,0,0:0:0:0:
448,192,54440,1,8,0:0:0:0:
320,192,54440,1,0,0:0:0:0:
64,192,54611,1,0,0:0:0:0:
448,192,54783,128,0,55811:0:0:0:0:
320,192,54783,1,0,0:0:0:0:
64,192,54954,1,0,0:0:0:0:
192,192,55126,1,8,0:0:0:0:
320,192,55126,1,0,0:0:0:0:
192,192,55297,1,0,0:0:0:0:
320,192,55469,1,0,0:0:0:0:
64,192,55469,1,0,0:0:0:0:
192,192,55640,1,0,0:0:0:0:
320,192,55811,1,8,0:0:0:0:
64,192,55811,128,0,56154:0:0:0:0:
192,192,55983,1,0,0:0:0:0:
320,192,56154,128,0,57526:0:0:0:0:
448,192,56154,1,0,0:0:0:0:
64,192,56326,1,0,0:0:0:0:
192,192,56497,1,8,0:0:0:0:
448,192,56497,1,0,0:0:0:0:
192,192,56669,1,0,0:0:0:0:
64,192,56840,1,0,0:0:0:0:
448,192,56840,1,0,0:0:0:0:
192,192,57011,1,0,0:0:0:0:
64,192,57183,1,8,0:0:0:0:
448,192,57183,1,0,0:0:0:0:
192,192,57354,1,0,0:0:0:0:
448,192,57526,1,0,0:0:0:0:
192,192,57526,1,0,0:0:0:0:
64,192,57526,1,4,0:0:0:0:
320,192,57611,1,0,0:0:0:0:
448,192,57697,1,0,0:0:0:0:
320,192,57783,1,0,0:0:0:0:
192,192,57869,1,0,0:0:0:0:
64,192,57869,1,8,0:0:0:0:
448,192,57954,1,0,0:0:0:0:
320,192,58040,1,0,0:0:0:0:
192,192,58126,1,0,0:0:0:0:
448,192,58211,1,0,0:0:0:0:
64,192,58211,1,0,0:0:0:0:
320,192,58297,1,0,0:0:0:0:
192,192,58383,1,0,0:0:0:0:
320,192,58469,1,0,0:0:0:0:
448,192,58554,1,0,0:0:0:0:
64,192,58554,1,8,0:0:0:0:
192,192,58640,1,0,0:0:0:0:
320,192,58726,1,0,0:0:0:0:
192,192,58811,1,0,0:0:0:0:
448,192,58897,1,0,0:0:0:0:
64,192,58897,1,0,0:0:0:0:
192,192,58983,1,0,0:0:0:0:
320,192,59069,1,0,0:0:0:0:
448,192,59154,1,0,0:0:0:0:
192,192,59240,1,0,0:0:0:0:
64,192,59240,1,8,0:0:0:0:
320,192,59326,1,0,0:0:0:0:
192,192,59411,1,0,0:0:0:0:
64,192,59497,1,0,0:0:0:0:
192,192,59583,1,0,0:0:0:0:
320,192,59583,1,0,0:0:0:0:
448,192,59669,1,0,0:0:0:0:
320,192,59754,1,0,0:0:0:0:
192,192,59840,1,0,0:0:0:0:
64,192,59926,1,8,0:0:0:0:
448,192,59926,1,0,0:0:0:0:
192,192,60011,1,0,0:0:0:0:
320,192,60097,1,0,0:0:0:0:
192,192,60183,1,0,0:0:0:0:
448,192,60269,1,0,0:0:0:0:
64,192,60269,1,0,0:0:0:0:
320,192,60354,1,0,0:0:0:0:
192,192,60440,1,0,0:0:0:0:
320,192,60526,1,0,0:0:0:0:
192,192,60611,1,8,0:0:0:0:
64,192,60611,1,0,0:0:0:0:
448,192,60697,1,0,0:0:0:0:
320,192,60783,1,0,0:0:0:0:
192,192,60869,1,0,0:0:0:0:
448,192,60954,1,0,0:0:0:0:
320,192,60954,1,0,0:0:0:0:
64,192,61040,1,0,0:0:0:0:
192,192,61126,1,0,0:0:0:0:
320,192,61211,1,0,0:0:0:0:
64,192,61297,1,8,0:0:0:0:
448,192,61297,1,0,0:0:0:0:
192,192,61383,1,0,0:0:0:0:
320,192,61469,1,0,0:0:0:0:
192,192,61554,1,0,0:0:0:0:
64,192,61640,1,0,0:0:0:0:
448,192,61640,1,0,0:0:0:0:
320,192,61726,1,0,0:0:0:0:
192,192,61811,1,0,0:0:0:0:
320,192,61897,1,0,0:0:0:0:
64,192,61983,1,0,0:0:0:0:
448,192,61983,1,8,0:0:0:0:
192,192,62069,1,0,0:0:0:0:
320,192,62154,1,0,0:0:0:0:
448,192,62240,1,0,0:0:0:0:
64,192,62326,1,0,0:0:0:0:
192,192,62326,1,0,0:0:0:0:
320,192,62411,1,0,0:0:0:0:
192,192,62497,1,0,0:0:0:0:
320,192,62583,1,0,0:0:0:0:
64,192,62669,1,8,0:0:0:0:
448,192,62669,1,0,0:0:0:0:
192,192,62754,1,0,0:0:0:0:
320,192,62840,1,0,0:0:0:0:
192,192,62926,1,0,0:0:0:0:
448,192,63011,1,0,0:0:0:0:
320,192,63011,1,0,0:0:0:0:
64,192,63011,1,4,0:0:0:0:
192,192,63097,1,0,0:0:0:0:
320,192,63183,1,0,0:0:0:0:
448,192,63269,1,0,0:0:0:0:
64,192,63354,1,0,0:0:0:0:
192,192,63354,1,8,0:0:0:0:
320,192,63440,1,0,0:0:0:0:
192,192,63526,1,0,0:0:0:0:
320,192,63611,1,0,0:0:0:0:
448,192,63697,1,0,0:0:0:0:
64,192,63697,1,0,0:0:0:0:
192,192,63783,1,0,0:0:0:0:
320,192,63869,1,0,0:0:0:0:
448,192,63954,1,0,0:0:0:0:
64,192,64040,1,0,0:0:0:0:
192,192,64040,1,8,0:0:0:0:
320,192,64126,1,0,0:0:0:0:
192,192,64211,1,0,0:0:0:0:
320,192,64297,1,0,0:0:0:0:
448,192,64383,1,0,0:0:0:0:
64,192,64383,1,0,0:0:0:0:
192,192,64469,1,0,0:0:0:0:
320,192,64554,1,0,0:0:0:0:
192,192,64640,1,0,0:0:0:0:
64,192,64726,1,8,0:0:0:0:
320,192,64726,1,0,0:0:0:0:
448,192,64811,1,0,0:0:0:0:
192,192,64897,1,0,0:0:0:0:
320,192,64983,1,0,0:0:0:0:
448,192,65069,1,0,0:0:0:0:
64,192,65069,1,0,0:0:0:0:
320,192,65154,1,0,0:0:0:0:
192,192,65240,1,0,0:0:0:0:
64,192,65326,1,0,0:0:0:0:
192,192,65411,1,8,0:0:0:0:
448,192,65411,1,0,0:0:0:0:
320,192,65497,1,0,0:0:0:0:
192,192,65583,1,0,0:0:0:0:
64,192,65669,1,0,0:0:0:0:
448,192,65754,1,0,0:0:0:0:
320,192,65754,1,0,0:0:0:0:
192,192,65840,1,0,0:0:0:0:
320,192,65926,1,0,0:0:0:0:
192,192,66011,1,0,0:0:0:0:
64,192,66097,1,8,0:0:0:0:
448,192,66097,1,0,0:0:0:0:
320,192,66183,1,0,0:0:0:0:
192,192,66269,1,0,0:0:0:0:
320,192,66354,1,0,0:0:0:0:
448,192,66440,1,0,0:0:0:0:
64,192,66440,1,0,0:0:0:0:
192,192,66526,1,0,0:0:0:0:
320,192,66611,1,0,0:0:0:0:
448,192,66697,1,0,0:0:0:0:
64,192,66783,1,8,0:0:0:0:
320,192,66783,1,0,0:0:0:0:
192,192,66869,1,0,0:0:0:0:
320,192,66954,1,0,0:0:0:0:
448,192,67040,1,0,0:0:0:0:
320,192,67126,1,0,0:0:0:0:
192,192,67126,1,0,0:0:0:0:
64,192,67211,1,0,0:0:0:0:
192,192,67297,1,0,0:0:0:0:
320,192,67383,1,0,0:0:0:0:
64,192,67469,1,0,0:0:0:0:
448,192,67469,1,8,0:0:0:0:
192,192,67554,1,0,0:0:0:0:
320,192,67640,1,0,0:0:0:0:
448,192,67726,1,0,0:0:0:0:
64,192,67811,1,0,0:0:0:0:
192,192,67811,1,0,0:0:0:0:
320,192,67897,1,0,0:0:0:0:
192,192,67983,1,0,0:0:0:0:
320,192,68069,1,0,0:0:0:0:
448,192,68154,1,0,0:0:0:0:
64,192,68154,1,8,0:0:0:0:
192,192,68240,1,0,0:0:0:0:
320,192,68326,1,0,0:0:0:0:
448,192,68411,1,0,0:0:0:0:
192,192,68497,1,0,0:0:0:0:
64,192,68583,1,0,0:0:0:0:
320,192,68669,1,0,0:0:0:0:
448,192,68754,1,0,0:0:0:0:
64,192,68840,1,0,0:0:0:0:
192,192,68926,1,0,0:0:0:0:
448,192,69011,1,0,0:0:0:0:
320,192,69097,1,0,0:0:0:0:
64,192,69183,1,0,0:0:0:0:
192,192,69269,1,0,0:0:0:0:
320,192,69354,1,0,0:0:0:0:
192,192,69440,1,0,0:0:0:0:
448,192,69526,1,0,0:0:0:0:
320,192,69611,1,0,0:0:0:0:
192,192,69697,1,0,0:0:0:0:
64,192,69783,1,0,0:0:0:0:
320,192,69869,1,0,0:0:0:0:
448,192,69954,1,0,0:0:0:0:
320,192,70040,1,0,0:0:0:0:
192,192,70126,1,0,0:0:0:0:
320,192,70211,1,0,0:0:0:0:
64,192,70297,1,0,0:0:0:0:
192,192,70383,1,0,0:0:0:0:
320,192,70469,1,0,0:0:0:0:
448,192,70554,1,0,0:0:0:0:
320,192,70640,1,0,0:0:0:0:
192,192,70726,1,0,0:0:0:0:
64,192,70811,1,0,0:0:0:0:
448,192,70897,1,0,0:0:0:0:
320,192,70983,1,0,0:0:0:0:
192,192,71069,1,0,0:0:0:0:
64,192,71154,1,0,0:0:0:0:
448,192,71240,1,0,0:0:0:0:
320,192,71326,1,0,0:0:0:0:
64,192,71411,1,0,0:0:0:0:
192,192,71497,1,0,0:0:0:0:
320,192,71583,1,0,0:0:0:0:
448,192,71669,1,0,0:0:0:0:
192,192,71754,1,0,0:0:0:0:
320,192,71840,1,0,0:0:0:0:
448,192,71926,1,0,0:0:0:0:
320,192,72011,1,0,0:0:0:0:
192,192,72097,1,0,0:0:0:0:
64,192,72183,1,0,0:0:0:0:
448,192,72269,1,0,0:0:0:0:
320,192,72354,1,0,0:0:0:0:
192,192,72440,1,0,0:0:0:0:
320,192,72526,1,0,0:0:0:0:
448,192,72611,1,0,0:0:0:0:
320,192,72697,1,0,0:0:0:0:
192,192,72783,1,0,0:0:0:0:
64,192,72869,1,0,0:0:0:0:
448,192,72954,1,0,0:0:0:0:
320,192,73040,1,0,0:0:0:0:
192,192,73126,1,0,0:0:0:0:
64,192,73211,1,0,0:0:0:0:
320,192,73297,1,4,0:0:0:0:
448,192,73297,128,0,73640:0:0:0:0:
64,192,73640,1,4,0:0:0:0:
320,192,73640,1,0,0:0:0:0:
192,192,73640,128,0,73983:0:0:0:0:
448,192,73983,1,0,0:0:0:0:
320,192,73983,1,0,0:0:0:0:
64,192,73983,1,4,0:0:0:0:
64,192,74154,1,0,0:0:0:0:
320,192,74154,1,0,0:0:0:0:
192,192,74326,1,8,0:0:0:0:
448,192,74326,1,0,0:0:0:0:
448,192,74497,1,0,0:0:0:0:
64,192,74497,1,0,0:0:0:0:
320,192,74583,1,0,0:0:0:0:
192,192,74583,1,0,0:0:0:0:
64,192,74669,1,0,0:0:0:0:
448,192,74669,1,0,0:0:0:0:
320,192,74840,1,0,0:0:0:0:
192,192,74840,1,0,0:0:0:0:
448,192,75011,1,0,0:0:0:0:
64,192,75011,1,8,0:0:0:0:
192,192,75011,1,0,0:0:0:0:
320,192,75183,1,0,0:0:0:0:
64,192,75354,128,2,75611:0:0:0:0:
192,192,75354,1,0,0:0:0:0:
192,192,75611,128,2,75869:0:0:0:0:
320,192,75611,1,0,0:0:0:0:
320,192,75869,128,2,76040:0:0:0:0:
448,192,75869,1,0,0:0:0:0:
448,192,76040,128,2,76383:0:0:0:0:
64,192,76040,1,0,0:0:0:0:
320,192,76383,128,0,76726:0:0:0:0:
192,192,76383,1,8,0:0:0:0:
64,192,76554,1,0,0:0:0:0:
448,192,76726,1,0,0:0:0:0:
192,192,76726,1,0,0:0:0:0:
320,192,76897,1,0,0:0:0:0:
448,192,77069,1,0,0:0:0:0:
64,192,77069,1,8,0:0:0:0:
192,192,77240,1,0,0:0:0:0:
320,192,77240,1,0,0:0:0:0:
64,192,77326,1,0,0:0:0:0:
448,192,77326,1,0,0:0:0:0:
320,192,77411,1,0,0:0:0:0:
192,192,77411,1,0,0:0:0:0:
448,192,77583,1,0,0:0:0:0:
64,192,77583,1,0,0:0:0:0:
64,192,77754,1,8,0:0:0:0:
448,192,77754,1,0,0:0:0:0:
192,192,77754,1,0,0:0:0:0:
320,192,77926,1,0,0:0:0:0:
192,192,78097,1,0,0:0:0:0:
64,192,78097,1,0,0:0:0:0:
320,192,78183,1,0,0:0:0:0:
448,192,78183,1,0,0:0:0:0:
192,192,78269,1,0,0:0:0:0:
64,192,78269,1,0,0:0:0:0:
64,192,78440,1,8,0:0:0:0:
448,192,78440,1,0,0:0:0:0:
320,192,78611,1,0,0:0:0:0:
64,192,78783,1,0,0:0:0:0:
448,192,78783,128,4,79126:0:0:0:0:
64,192,79126,1,0,0:0:0:0:
192,192,79126,128,4,79469:0:0:0:0:
320,192,79126,1,0,0:0:0:0:
64,192,79469,1,0,0:0:0:0:
448,192,79469,1,4,0:0:0:0:
320,192,79640,1,0,0:0:0:0:
64,192,79811,1,8,0:0:0:0:
192,192,79811,1,0,0:0:0:0:
448,192,79983,1,0,0:0:0:0:
320,192,79983,1,0,0:0:0:0:
64,192,80069,1,0,0:0:0:0:
192,192,80069,1,0,0:0:0:0:
448,192,80154,1,0,0:0:0:0:
320,192,80154,1,0,0:0:0:0:
192,192,80326,1,0,0:0:0:0:
448,192,80497,1,0,0:0:0:0:
64,192,80497,1,8,0:0:0:0:
320,192,80497,1,0,0:0:0:0:
192,192,80669,1,0,0:0:0:0:
448,192,80840,1,0,0:0:0:0:
64,192,80840,128,2,81097:0:0:0:0:
192,192,81097,128,2,81354:0:0:0:0:
320,192,81097,1,0,0:0:0:0:
448,192,81354,128,2,81526:0:0:0:0:
64,192,81354,1,0,0:0:0:0:
320,192,81526,128,2,81869:0:0:0:0:
192,192,81526,1,0,0:0:0:0:
64,192,81869,1,8,0:0:0:0:
448,192,81869,1,0,0:0:0:0:
192,192,81869,128,0,82211:0:0:0:0:
320,192,82040,1,0,0:0:0:0:
448,192,82211,1,0,0:0:0:0:
64,192,82211,1,0,0:0:0:0:
320,192,82383,1,0,0:0:0:0:
192,192,82383,1,0,0:0:0:0:
448,192,82554,1,0,0:0:0:0:
64,192,82554,1,8,0:0:0:0:
192,192,82726,1,0,0:0:0:0:
448,192,82726,1,0,0:0:0:0:
320,192,82811,1,0,0:0:0:0:
64,192,82811,1,0,0:0:0:0:
192,192,82897,1,0,0:0:0:0:
448,192,82897,1,0,0:0:0:0:
320,192,83069,1,0,0:0:0:0:
64,192,83069,1,0,0:0:0:0:
64,192,83240,1,8,0:0:0:0:
448,192,83240,1,0,0:0:0:0:
192,192,83240,1,0,0:0:0:0:
320,192,83411,1,0,0:0:0:0:
64,192,83583,1,0,0:0:0:0:
448,192,83583,1,0,0:0:0:0:
192,192,83669,1,0,0:0:0:0:
320,192,83754,1,0,0:0:0:0:
64,192,83926,1,8,0:0:0:0:
448,192,83926,1,0,0:0:0:0:
192,192,84097,1,0,0:0:0:0:
448,192,84269,128,4,84611:0:0:0:0:
64,192,84269,1,0,0:0:0:0:
64,192,84611,128,4,84954:0:0:0:0:
320,192,84611,1,0,0:0:0:0:
192,192,84611,1,0,0:0:0:0:
448,192,84954,1,4,0:0:0:0:
320,192,84954,1,0,0:0:0:0:
192,192,85040,1,0,0:0:0:0:
320,192,85126,1,0,0:0:0:0:
192,192,85211,1,0,0:0:0:0:
64,192,85297,1,8,0:0:0:0:
448,192,85297,1,0,0:0:0:0:
320,192,85383,1,0,0:0:0:0:
192,192,85469,1,0,0:0:0:0:
64,192,85554,1,0,0:0:0:0:
320,192,85640,1,0,0:0:0:0:
192,192,85726,1,0,0:0:0:0:
448,192,85811,1,0,0:0:0:0:
320,192,85897,1,0,0:0:0:0:
64,192,85983,1,8,0:0:0:0:
192,192,85983,1,0,0:0:0:0:
448,192,86069,1,0,0:0:0:0:
320,192,86154,1,0,0:0:0:0:
192,192,86240,1,0,0:0:0:0:
64,192,86326,1,0,0:0:0:0:
448,192,86326,1,0,0:0:0:0:
320,192,86411,1,0,0:0:0:0:
192,192,86497,1,0,0:0:0:0:
320,192,86583,1,0,0:0:0:0:
64,192,86669,1,8,0:0:0:0:
192,192,86669,1,0,0:0:0:0:
448,192,86754,1,0,0:0:0:0:
320,192,86840,1,0,0:0:0:0:
192,192,86926,1,0,0:0:0:0:
320,192,87011,1,0,0:0:0:0:
64,192,87097,1,0,0:0:0:0:
192,192,87183,1,0,0:0:0:0:
320,192,87269,1,0,0:0:0:0:
448,192,87354,1,0,0:0:0:0:
64,192,87354,1,8,0:0:0:0:
320,192,87440,1,0,0:0:0:0:
192,192,87526,1,0,0:0:0:0:
64,192,87611,1,0,0:0:0:0:
192,192,87697,1,0,0:0:0:0:
320,192,87697,1,0,0:0:0:0:
448,192,87783,1,0,0:0:0:0:
320,192,87869,1,0,0:0:0:0:
192,192,87954,1,0,0:0:0:0:
64,192,88040,1,8,0:0:0:0:
448,192,88040,1,0,0:0:0:0:
320,192,88126,1,0,0:0:0:0:
192,192,88211,1,0,0:0:0:0:
320,192,88297,1,0,0:0:0:0:
448,192,88383,1,0,0:0:0:0:
64,192,88469,1,0,0:0:0:0:
192,192,88554,1,0,0:0:0:0:
320,192,88640,1,0,0:0:0:0:
448,192,88726,1,8,0:0:0:0:
64,192,88726,1,0,0:0:0:0:
320,192,88811,1,0,0:0:0:0:
192,192,88897,1,0,0:0:0:0:
320,192,88983,1,0,0:0:0:0:
448,192,89069,1,0,0:0:0:0:
320,192,89154,1,0,0:0:0:0:
192,192,89240,1,0,0:0:0:0:
64,192,89326,1,0,0:0:0:0:
448,192,89411,1,0,0:0:0:0:
192,192,89411,1,8,0:0:0:0:
320,192,89497,1,0,0:0:0:0:
192,192,89583,1,0,0:0:0:0:
64,192,89669,1,0,0:0:0:0:
448,192,89754,128,4,90097:0:0:0:0:
320,192,89754,1,0,0:0:0:0:
64,192,90097,128,4,90440:0:0:0:0:
192,192,90097,1,0,0:0:0:0:
320,192,90097,1,0,0:0:0:0:
448,192,90440,1,2,0:0:0:0:
320,192,90440,1,0,0:0:0:0:
192,192,90526,1,0,0:0:0:0:
64,192,90526,1,2,0:0:0:0:
448,192,90611,1,2,0:0:0:0:
320,192,90611,1,0,0:0:0:0:
64,192,90697,1,2,0:0:0:0:
192,192,90697,1,0,0:0:0:0:
448,192,90783,1,2,0:0:0:0:
320,192,90783,1,0,0:0:0:0:
64,192,91126,1,2,0:0:0:0:
192,192,91126,1,0,0:0:0:0:
320,192,91211,1,0,0:0:0:0:
448,192,91211,1,2,0:0:0:0:
192,192,91297,1,0,0:0:0:0:
64,192,91297,1,2,0:0:0:0:
320,192,91383,1,0,0:0:0:0:
448,192,91383,1,2,0:0:0:0:
192,192,91469,1,0,0:0:0:0:
64,192,91469,1,2,0:0:0:0:
192,192,91811,1,0,0:0:0:0:
320,192,91811,1,2,0:0:0:0:
448,192,91897,1,0,0:0:0:0:
64,192,91897,1,2,0:0:0:0:
192,192,91983,1,0,0:0:0:0:
320,192,91983,1,2,0:0:0:0:
448,192,92069,1,0,0:0:0:0:
64,192,92069,1,2,0:0:0:0:
320,192,92154,1,2,0:0:0:0:
192,192,92154,1,0,0:0:0:0:
64,192,92497,1,0,0:0:0:0:
448,192,92497,1,2,0:0:0:0:
192,192,92583,1,0,0:0:0:0:
320,192,92583,1,2,0:0:0:0:
64,192,92669,1,0,0:0:0:0:
448,192,92669,1,2,0:0:0:0:
192,192,92754,1,0,0:0:0:0:
320,192,92754,1,2,0:0:0:0:
64,192,92840,1,0,0:0:0:0:
448,192,92840,1,2,0:0:0:0:
64,192,93183,1,4,0:0:0:0:
448,192,93183,1,0,0:0:0:0:
192,192,93269,1,0,0:0:0:0:
320,192,93354,1,0,0:0:0:0:
448,192,93440,1,0,0:0:0:0:
64,192,93526,1,8,0:0:0:0:
192,192,93526,1,0,0:0:0:0:
320,192,93611,1,0,0:0:0:0:
192,192,93697,1,0,0:0:0:0:
320,192,93783,1,0,0:0:0:0:
64,192,93869,1,0,0:0:0:0:
448,192,93869,1,0,0:0:0:0:
192,192,93954,1,0,0:0:0:0:
320,192,94040,1,0,0:0:0:0:
448,192,94126,1,0,0:0:0:0:
64,192,94211,1,8,0:0:0:0:
192,192,94211,1,0,0:0:0:0:
320,192,94297,1,0,0:0:0:0:
448,192,94383,1,0,0:0:0:0:
64,192,94383,1,0,0:0:0:0:
192,192,94469,1,0,0:0:0:0:
448,192,94554,1,0,0:0:0:0:
320,192,94554,1,0,0:0:0:0:
64,192,94640,1,0,0:0:0:0:
192,192,94726,1,0,0:0:0:0:
320,192,94811,1,0,0:0:0:0:
64,192,94897,1,8,0:0:0:0:
448,192,94897,1,0,0:0:0:0:
320,192,94983,1,0,0:0:0:0:
192,192,95069,1,0,0:0:0:0:
64,192,95154,1,0,0:0:0:0:
448,192,95240,1,0,0:0:0:0:
192,192,95240,1,0,0:0:0:0:
320,192,95326,1,0,0:0:0:0:
192,192,95411,1,0,0:0:0:0:
64,192,95497,1,0,0:0:0:0:
448,192,95583,1,0,0:0:0:0:
320,192,95583,1,8,0:0:0:0:
192,192,95669,1,0,0:0:0:0:
320,192,95754,1,0,0:0:0:0:
192,192,95840,1,0,0:0:0:0:
448,192,95926,1,0,0:0:0:0:
64,192,95926,1,0,0:0:0:0:
320,192,96011,1,0,0:0:0:0:
192,192,96097,1,0,0:0:0:0:
320,192,96183,1,0,0:0:0:0:
64,192,96269,1,8,0:0:0:0:
448,192,96269,1,0,0:0:0:0:
192,192,96354,1,0,0:0:0:0:
320,192,96440,1,0,0:0:0:0:
192,192,96526,1,0,0:0:0:0:
64,192,96611,1,0,0:0:0:0:
448,192,96611,1,0,0:0:0:0:
320,192,96697,1,0,0:0:0:0:
192,192,96783,1,0,0:0:0:0:
320,192,96869,1,0,0:0:0:0:
192,192,96954,1,8,0:0:0:0:
64,192,96954,1,0,0:0:0:0:
320,192,97040,1,0,0:0:0:0:
448,192,97126,1,0,0:0:0:0:
64,192,97126,1,0,0:0:0:0:
192,192,97211,1,0,0:0:0:0:
320,192,97297,1,0,0:0:0:0:
448,192,97297,1,0,0:0:0:0:
64,192,97383,1,0,0:0:0:0:
192,192,97469,1,0,0:0:0:0:
320,192,97554,1,0,0:0:0:0:
448,192,97640,1,0,0:0:0:0:
64,192,97640,1,8,0:0:0:0:
320,192,97726,1,0,0:0:0:0:
192,192,97811,1,0,0:0:0:0:
64,192,97897,1,0,0:0:0:0:
448,192,97983,1,0,0:0:0:0:
320,192,97983,1,0,0:0:0:0:
192,192,98069,1,0,0:0:0:0:
320,192,98154,1,0,0:0:0:0:
192,192,98240,1,0,0:0:0:0:
64,192,98326,1,8,0:0:0:0:
448,192,98326,1,0,0:0:0:0:
320,192,98411,1,0,0:0:0:0:
192,192,98497,1,0,0:0:0:0:
320,192,98583,1,0,0:0:0:0:
448,192,98669,1,0,0:0:0:0:
64,192,98669,1,4,0:0:0:0:
192,192,98669,1,0,0:0:0:0:
320,192,98754,1,0,0:0:0:0:
192,192,98840,1,0,0:0:0:0:
64,192,98926,1,0,0:0:0:0:
448,192,99011,1,0,0:0:0:0:
192,192,99011,1,8,0:0:0:0:
320,192,99097,1,0,0:0:0:0:
64,192,99183,1,0,0:0:0:0:
192,192,99269,1,0,0:0:0:0:
448,192,99354,1,0,0:0:0:0:
320,192,99354,1,0,0:0:0:0:
192,192,99440,1,0,0:0:0:0:
320,192,99526,1,0,0:0:0:0:
192,192,99611,1,0,0:0:0:0:
64,192,99697,1,8,0:0:0:0:
448,192,99697,1,8,0:0:0:0:
320,192,99783,1,0,0:0:0:0:
192,192,99869,1,0,0:0:0:0:
64,192,99869,1,0,0:0:0:0:
320,192,99954,1,0,0:0:0:0:
64,192,100040,1,0,0:0:0:0:
448,192,100040,1,0,0:0:0:0:
192,192,100126,1,0,0:0:0:0:
320,192,100211,1,0,0:0:0:0:
448,192,100297,1,0,0:0:0:0:
192,192,100383,1,0,0:0:0:0:
64,192,100383,1,8,0:0:0:0:
320,192,100469,1,0,0:0:0:0:
192,192,100554,1,0,0:0:0:0:
64,192,100640,1,0,0:0:0:0:
192,192,100726,1,0,0:0:0:0:
320,192,100726,1,0,0:0:0:0:
448,192,100811,1,0,0:0:0:0:
320,192,100897,1,0,0:0:0:0:
192,192,100983,1,0,0:0:0:0:
64,192,101069,1,0,0:0:0:0:
448,192,101069,1,8,0:0:0:0:
192,192,101154,1,0,0:0:0:0:
320,192,101240,1,0,0:0:0:0:
448,192,101326,1,0,0:0:0:0:
64,192,101411,1,0,0:0:0:0:
192,192,101411,1,0,0:0:0:0:
320,192,101497,1,0,0:0:0:0:
192,192,101583,1,0,0:0:0:0:
320,192,101669,1,0,0:0:0:0:
448,192,101754,1,0,0:0:0:0:
64,192,101754,1,8,0:0:0:0:
192,192,101840,1,0,0:0:0:0:
320,192,101926,1,0,0:0:0:0:
192,192,102011,1,0,0:0:0:0:
64,192,102097,1,0,0:0:0:0:
448,192,102097,1,0,0:0:0:0:
320,192,102183,1,0,0:0:0:0:
192,192,102269,1,0,0:0:0:0:
64,192,102354,1,0,0:0:0:0:
448,192,102440,1,8,0:0:0:0:
320,192,102440,1,0,0:0:0:0:
192,192,102526,1,0,0:0:0:0:
64,192,102611,1,0,0:0:0:0:
448,192,102611,1,0,0:0:0:0:
320,192,102697,1,0,0:0:0:0:
192,192,102783,1,0,0:0:0:0:
64,192,102783,1,0,0:0:0:0:
320,192,102869,1,0,0:0:0:0:
192,192,102954,1,0,0:0:0:0:
320,192,103040,1,0,0:0:0:0:
64,192,103126,1,8,0:0:0:0:
448,192,103126,1,0,0:0:0:0:
192,192,103211,1,0,0:0:0:0:
320,192,103297,1,0,0:0:0:0:
192,192,103383,1,0,0:0:0:0:
448,192,103469,1,0,0:0:0:0:
64,192,103469,1,0,0:0:0:0:
320,192,103554,1,0,0:0:0:0:
192,192,103640,1,0,0:0:0:0:
64,192,103726,1,0,0:0:0:0:
448,192,103811,1,8,0:0:0:0:
320,192,103811,1,0,0:0:0:0:
192,192,103897,1,0,0:0:0:0:
320,192,103983,1,0,0:0:0:0:
192,192,104069,1,0,0:0:0:0:
320,192,104154,1,0,0:0:0:0:
448,192,104154,1,4,0:0:0:0:
64,192,104154,1,0,0:0:0:0:
320,192,104326,1,0,0:0:0:0:
192,192,104326,1,0,0:0:0:0:
448,192,104497,1,0,0:0:0:0:
64,192,104497,1,8,0:0:0:0:
192,192,104497,1,0,0:0:0:0:
320,192,104669,1,0,0:0:0:0:
448,192,104669,1,0,0:0:0:0:
64,192,104840,1,0,0:0:0:0:
192,192,104840,1,0,0:0:0:0:
192,192,105011,1,0,0:0:0:0:
320,192,105011,1,0,0:0:0:0:
64,192,105183,1,8,0:0:0:0:
448,192,105183,1,0,0:0:0:0:
320,192,105183,1,0,0:0:0:0:
192,192,105354,1,0,0:0:0:0:
448,192,105354,1,0,0:0:0:0:
192,192,105526,1,0,0:0:0:0:
64,192,105526,1,0,0:0:0:0:
320,192,105611,1,0,0:0:0:0:
448,192,105697,1,0,0:0:0:0:
320,192,105783,1,0,0:0:0:0:
64,192,105869,1,0,0:0:0:0:
448,192,105869,1,8,0:0:0:0:
192,192,105954,1,0,0:0:0:0:
320,192,106040,1,0,0:0:0:0:
192,192,106126,1,0,0:0:0:0:
64,192,106211,1,0,0:0:0:0:
448,192,106297,1,0,0:0:0:0:
320,192,106383,1,0,0:0:0:0:
192,192,106469,1,0,0:0:0:0:
448,192,106554,1,8,0:0:0:0:
64,192,106554,1,0,0:0:0:0:
320,192,106640,1,0,0:0:0:0:
192,192,106726,1,0,0:0:0:0:
320,192,106811,1,0,0:0:0:0:
448,192,106897,1,0,0:0:0:0:
64,192,106897,1,0,0:0:0:0:
192,192,106983,1,0,0:0:0:0:
320,192,107069,1,0,0:0:0:0:
192,192,107154,1,0,0:0:0:0:
320,192,107240,1,0,0:0:0:0:
448,192,107240,1,8,0:0:0:0:
64,192,107326,1,0,0:0:0:0:
192,192,107411,1,0,0:0:0:0:
320,192,107497,1,0,0:0:0:0:
448,192,107583,1,0,0:0:0:0:
320,192,107669,1,0,0:0:0:0:
192,192,107754,1,0,0:0:0:0:
320,192,107840,1,0,0:0:0:0:
448,192,107926,1,0,0:0:0:0:
64,192,107926,1,8,0:0:0:0:
192,192,108011,1,0,0:0:0:0:
320,192,108097,1,0,0:0:0:0:
448,192,108183,1,0,0:0:0:0:
320,192,108269,1,0,0:0:0:0:
64,192,108269,1,0,0:0:0:0:
192,192,108354,1,0,0:0:0:0:
320,192,108440,1,0,0:0:0:0:
192,192,108526,1,0,0:0:0:0:
64,192,108611,1,8,0:0:0:0:
448,192,108611,1,0,0:0:0:0:
320,192,108697,1,0,0:0:0:0:
192,192,108783,1,0,0:0:0:0:
320,192,108869,1,0,0:0:0:0:
64,192,108954,1,0,0:0:0:0:
448,192,108954,128,4,109297:0:0:0:0:
64,192,109297,1,0,0:0:0:0:
192,192,109297,1,0,0:0:0:0:
320,192,109297,128,4,109640:0:0:0:0:
448,192,109640,1,4,0:0:0:0:
192,192,109640,1,0,0:0:0:0:
320,192,109811,1,0,0:0:0:0:
64,192,109811,1,0,0:0:0:0:
64,192,109983,1,8,0:0:0:0:
192,192,109983,1,0,0:0:0:0:
448,192,109983,1,0,0:0:0:0:
192,192,110154,1,0,0:0:0:0:
320,192,110154,1,0,0:0:0:0:
448,192,110326,1,0,0:0:0:0:
64,192,110326,1,0,0:0:0:0:
192,192,110497,1,0,0:0:0:0:
320,192,110497,1,0,0:0:0:0:
448,192,110669,1,8,0:0:0:0:
64,192,110669,1,0,0:0:0:0:
320,192,110669,1,0,0:0:0:0:
320,192,110840,1,0,0:0:0:0:
192,192,110840,1,0,0:0:0:0:
64,192,111011,1,4,0:0:0:0:
448,192,111011,1,0,0:0:0:0:
192,192,111097,1,0,0:0:0:0:
320,192,111183,1,0,0:0:0:0:
448,192,111269,1,0,0:0:0:0:
320,192,111354,1,0,0:0:0:0:
64,192,111354,1,8,0:0:0:0:
192,192,111440,1,0,0:0:0:0:
320,192,111526,1,0,0:0:0:0:
448,192,111611,1,0,0:0:0:0:
320,192,111697,1,0,0:0:0:0:
192,192,111697,1,0,0:0:0:0:
64,192,111697,1,8,0:0:0:0:
64,192,112040,1,0,0:0:0:0:
448,192,112040,1,0,0:0:0:0:
192,192,112040,1,0,0:0:0:0:
448,192,112383,128,4,113754:0:0:0:0:
320,192,112383,1,0,0:0:0:0:
192,192,112383,1,0,0:0:0:0:
64,192,112383,1,0,0:0:0:0:
320,192,113754,1,0,0:0:0:0:
64,192,113754,128,4,117183:0:0:0:0:
448,192,113926,1,0,0:0:0:0:
192,192,113926,128,4,117183:0:0:0:0:
