osu file format v12

[General]
AudioFilename: Crisp.mp3
AudioLeadIn: 1000
PreviewTime: 82361
Countdown: 0
SampleSet: Soft
StackLeniency: 0.7
Mode: 3
LetterboxInBreaks: 0
SpecialStyle: 0
WidescreenStoryboard: 0

[Editor]
Bookmarks: -9,12376,15161,15205,26091,37062,37104,48034,59005,60462,82319,93291,104262
DistanceSpacing: 0.9
BeatDivisor: 4
GridSize: 32

[Metadata]
Title:Crisp
TitleUnicode:Crisp
Artist:yak_won
ArtistUnicode:yak_won
Creator:Xin_U
Version:Mania 4K
Source:Ez2Dj : AZURE EXPRESSION INTEGRAL COMPOSITION
Tags:Mintice Kazukisinx EZ2AC
BeatmapID:228505
BeatmapSetID:61362

[Difficulty]
HPDrainRate:7
CircleSize:4
OverallDifficulty:8
ApproachRate:10
SliderMultiplier:0.999999999999999
SliderTickRate:4

[Events]
//Background and Video events
Video,0,"Crisp.flv"
0,0,"crisp nm.jpg",0,0
//Break Periods
//Storyboard Layer 0 (Background)
//Storyboard Layer 1 (Fail)
//Storyboard Layer 2 (Pass)
//Storyboard Layer 3 (Foreground)
//Storyboard Sound Samples
//Background Colour Transformations
3,100,163,162,255

[TimingPoints]
1430,342.857142857143,4,2,0,18,1,0
12401,-100,4,2,0,20,0,0
13087,-100,4,2,0,24,0,0
13772,-100,4,2,0,28,0,0
14458,-100,4,2,0,32,0,0
15144,-100,4,2,0,34,0,0
37087,-100,4,2,0,28,0,0
59030,-100,4,2,0,10,0,0
59715,-100,4,2,0,14,0,0
60058,-100,4,2,0,18,0,0
60401,-100,4,2,0,22,0,0
61087,-50,4,2,0,22,0,0
61172,-200,4,2,0,22,0,0
61344,-50,4,2,0,22,0,0
61430,-100,4,2,0,40,0,0
61772,-100,4,2,0,22,0,0
62458,-50,4,2,0,22,0,0
62544,-200,4,2,0,22,0,0
62715,-50,4,2,0,22,0,0
62801,-100,4,2,0,35,0,0
63144,-100,4,2,0,22,0,0
63830,-50,4,2,0,22,0,0
63915,-200,4,2,0,22,0,0
64087,-50,4,2,0,22,0,0
64172,-100,4,2,0,35,0,0
64515,-100,4,2,0,22,0,0
65201,-50,4,2,0,22,0,0
65287,-200,4,2,0,22,0,0
65458,-50,4,2,0,22,0,0
65544,-100,4,2,0,35,0,0
65887,-100,4,2,0,22,0,0
66572,-50,4,2,0,22,0,0
66658,-200,4,2,0,22,0,0
66830,-50,4,2,0,22,0,0
66915,-100,4,2,0,35,0,0
67258,-100,4,2,0,22,0,0
67944,-50,4,2,0,22,0,0
68030,-200,4,2,0,22,0,0
68201,-50,4,2,0,22,0,0
68287,-100,4,2,0,35,0,0
68630,-100,4,2,0,22,0,0
69315,-50,4,2,0,22,0,0
69401,-200,4,2,0,22,0,0
69572,-50,4,2,0,22,0,0
69658,-100,4,2,0,35,0,0
70001,-100,4,2,0,22,0,0
70687,-50,4,2,0,22,0,0
70772,-200,4,2,0,22,0,0
70944,-50,4,2,0,22,0,0
71030,-100,4,2,0,35,0,0
82344,-100,4,2,0,35,0,1
104287,-100,4,2,0,20,0,0
115258,-10,4,2,0,5,0,0
115280,-400,4,2,0,5,0,0

[HitObjects]
448,192,1430,1,0,0:0:0:0:
320,192,1515,1,0,0:0:0:0:
192,192,1601,1,0,0:0:0:0:
64,192,1687,1,0,0:0:0:0:
448,192,1772,1,0,0:0:0:0:
192,192,1858,1,0,0:0:0:0:
320,192,1944,1,0,0:0:0:0:
64,192,2030,1,0,0:0:0:0:
192,192,2115,1,0,0:0:0:0:
64,192,2201,1,0,0:0:0:0:
192,192,2287,1,0,0:0:0:0:
320,192,2372,1,0,0:0:0:0:
448,192,2458,1,0,0:0:0:0:
192,192,2544,1,0,0:0:0:0:
64,192,2630,1,0,0:0:0:0:
320,192,2715,1,0,0:0:0:0:
448,192,2801,1,0,0:0:0:0:
320,192,2887,1,0,0:0:0:0:
64,192,2972,1,0,0:0:0:0:
192,192,3058,1,0,0:0:0:0:
320,192,3144,1,0,0:0:0:0:
64,192,3230,1,0,0:0:0:0:
448,192,3315,1,0,0:0:0:0:
320,192,3401,1,0,0:0:0:0:
64,192,3487,1,0,0:0:0:0:
448,192,3572,1,0,0:0:0:0:
320,192,3658,1,0,0:0:0:0:
192,192,3744,1,0,0:0:0:0:
320,192,3830,1,0,0:0:0:0:
192,192,3915,1,0,0:0:0:0:
64,192,4001,1,0,0:0:0:0:
320,192,4087,1,0,0:0:0:0:
448,192,4172,1,0,0:0:0:0:
192,192,4258,1,0,0:0:0:0:
64,192,4344,1,0,0:0:0:0:
192,192,4430,1,0,0:0:0:0:
448,192,4515,1,0,0:0:0:0:
320,192,4601,1,0,0:0:0:0:
192,192,4687,1,0,0:0:0:0:
64,192,4772,1,0,0:0:0:0:
320,192,4858,1,0,0:0:0:0:
192,192,4944,1,0,0:0:0:0:
64,192,5030,1,0,0:0:0:0:
448,192,5115,1,0,0:0:0:0:
192,192,5201,1,0,0:0:0:0:
448,192,5287,1,0,0:0:0:0:
320,192,5372,1,0,0:0:0:0:
64,192,5458,1,0,0:0:0:0:
192,192,5544,1,0,0:0:0:0:
64,192,5630,1,0,0:0:0:0:
320,192,5715,1,0,0:0:0:0:
192,192,5801,1,0,0:0:0:0:
448,192,5887,1,0,0:0:0:0:
320,192,5972,1,0,0:0:0:0:
192,192,6058,1,0,0:0:0:0:
64,192,6144,1,0,0:0:0:0:
448,192,6230,1,0,0:0:0:0:
192,192,6315,1,0,0:0:0:0:
64,192,6401,1,0,0:0:0:0:
320,192,6487,1,0,0:0:0:0:
192,192,6572,1,0,0:0:0:0:
448,192,6658,1,0,0:0:0:0:
64,192,6744,1,0,0:0:0:0:
192,192,6830,1,0,0:0:0:0:
320,192,6915,1,0,0:0:0:0:
192,192,7001,1,0,0:0:0:0:
64,192,7087,1,0,0:0:0:0:
320,192,7172,1,0,0:0:0:0:
192,192,7258,1,0,0:0:0:0:
448,192,7344,1,0,0:0:0:0:
192,192,7430,1,0,0:0:0:0:
64,192,7515,1,0,0:0:0:0:
448,192,7601,1,0,0:0:0:0:
320,192,7687,1,0,0:0:0:0:
192,192,7772,1,0,0:0:0:0:
320,192,7858,1,0,0:0:0:0:
64,192,7944,1,0,0:0:0:0:
448,192,8030,1,0,0:0:0:0:
320,192,8115,1,0,0:0:0:0:
192,192,8201,1,0,0:0:0:0:
448,192,8287,1,0,0:0:0:0:
192,192,8372,1,0,0:0:0:0:
64,192,8458,1,0,0:0:0:0:
320,192,8544,1,0,0:0:0:0:
192,192,8630,1,0,0:0:0:0:
64,192,8715,1,0,0:0:0:0:
448,192,8801,1,0,0:0:0:0:
320,192,8887,1,0,0:0:0:0:
448,192,8972,1,0,0:0:0:0:
320,192,9058,1,0,0:0:0:0:
192,192,9144,1,0,0:0:0:0:
64,192,9230,1,0,0:0:0:0:
320,192,9315,1,0,0:0:0:0:
192,192,9401,1,0,0:0:0:0:
448,192,9487,1,0,0:0:0:0:
64,192,9572,1,0,0:0:0:0:
320,192,9658,1,0,0:0:0:0:
192,192,9744,1,0,0:0:0:0:
64,192,9830,1,0,0:0:0:0:
320,192,9915,1,0,0:0:0:0:
192,192,10001,1,0,0:0:0:0:
320,192,10087,1,0,0:0:0:0:
448,192,10172,1,0,0:0:0:0:
64,192,10258,1,0,0:0:0:0:
192,192,10344,1,0,0:0:0:0:
64,192,10430,1,0,0:0:0:0:
192,192,10515,1,0,0:0:0:0:
320,192,10601,1,0,0:0:0:0:
448,192,10687,1,0,0:0:0:0:
320,192,10772,1,0,0:0:0:0:
192,192,10858,1,0,0:0:0:0:
64,192,10944,1,0,0:0:0:0:
448,192,11030,1,0,0:0:0:0:
192,192,11115,1,0,0:0:0:0:
320,192,11201,1,0,0:0:0:0:
64,192,11287,1,0,0:0:0:0:
320,192,11372,1,0,0:0:0:0:
192,192,11458,1,0,0:0:0:0:
64,192,11544,1,0,0:0:0:0:
320,192,11630,1,0,0:0:0:0:
448,192,11715,1,0,0:0:0:0:
192,192,11801,1,0,0:0:0:0:
320,192,11887,1,0,0:0:0:0:
64,192,11972,1,0,0:0:0:0:
448,192,12058,1,0,0:0:0:0:
192,192,12144,1,0,0:0:0:0:
320,192,12230,1,0,0:0:0:0:
64,192,12315,1,0,0:0:0:0:
448,192,12401,128,2,15144:0:0:0:0:
192,192,12401,128,2,15144:0:0:0:0:
64,192,13772,1,0,0:0:0:0:
64,192,13944,1,0,0:0:0:0:
320,192,14115,1,0,0:0:0:0:
320,192,14458,1,0,0:0:0:0:
320,192,14630,1,0,0:0:0:0:
64,192,14801,1,0,0:0:0:0:
64,192,15144,1,0,0:0:0:0:
320,192,15230,1,0,0:0:0:0:
192,192,15315,1,0,0:0:0:0:
448,192,15401,1,0,0:0:0:0:
320,192,15487,1,0,0:0:0:0:
192,192,15572,1,0,0:0:0:0:
64,192,15658,1,0,0:0:0:0:
448,192,15744,1,0,0:0:0:0:
192,192,15830,1,0,0:0:0:0:
320,192,15915,1,0,0:0:0:0:
64,192,16001,1,0,0:0:0:0:
192,192,16087,1,0,0:0:0:0:
448,192,16172,1,0,0:0:0:0:
64,192,16258,1,0,0:0:0:0:
320,192,16344,1,0,0:0:0:0:
192,192,16430,1,0,0:0:0:0:
448,192,16515,1,0,0:0:0:0:
320,192,16601,1,0,0:0:0:0:
64,192,16687,1,0,0:0:0:0:
320,192,16772,1,0,0:0:0:0:
192,192,16858,1,0,0:0:0:0:
64,192,16944,1,0,0:0:0:0:
320,192,17030,1,0,0:0:0:0:
448,192,17115,1,0,0:0:0:0:
192,192,17201,1,0,0:0:0:0:
320,192,17287,1,0,0:0:0:0:
64,192,17372,1,0,0:0:0:0:
448,192,17458,1,0,0:0:0:0:
320,192,17544,1,0,0:0:0:0:
192,192,17630,1,0,0:0:0:0:
320,192,17715,1,0,0:0:0:0:
64,192,17801,1,0,0:0:0:0:
192,192,17887,1,0,0:0:0:0:
64,192,17972,1,0,0:0:0:0:
320,192,18058,1,0,0:0:0:0:
448,192,18144,1,0,0:0:0:0:
192,192,18230,1,0,0:0:0:0:
320,192,18315,1,0,0:0:0:0:
64,192,18401,1,0,0:0:0:0:
320,192,18487,1,0,0:0:0:0:
192,192,18572,1,0,0:0:0:0:
448,192,18658,1,0,0:0:0:0:
320,192,18744,1,0,0:0:0:0:
64,192,18830,5,0,0:0:0:0:
448,192,18915,1,0,0:0:0:0:
320,192,19001,1,0,0:0:0:0:
192,192,19087,1,0,0:0:0:0:
64,192,19172,1,0,0:0:0:0:
320,192,19258,5,0,0:0:0:0:
192,192,19344,1,0,0:0:0:0:
64,192,19430,1,0,0:0:0:0:
448,192,19515,1,0,0:0:0:0:
64,192,19601,1,0,0:0:0:0:
320,192,19687,1,0,0:0:0:0:
448,192,19772,1,0,0:0:0:0:
192,192,19858,1,0,0:0:0:0:
320,192,19944,1,0,0:0:0:0:
192,192,20030,1,0,0:0:0:0:
64,192,20115,1,0,0:0:0:0:
320,192,20201,1,0,0:0:0:0:
448,192,20287,1,0,0:0:0:0:
192,192,20372,1,0,0:0:0:0:
448,192,20458,1,0,0:0:0:0:
64,192,20544,1,0,0:0:0:0:
320,192,20630,1,0,0:0:0:0:
192,192,20715,1,0,0:0:0:0:
64,192,20801,1,0,0:0:0:0:
320,192,20887,1,0,0:0:0:0:
192,192,20972,1,0,0:0:0:0:
320,192,21058,1,0,0:0:0:0:
448,192,21144,1,0,0:0:0:0:
192,192,21230,1,0,0:0:0:0:
64,192,21315,1,0,0:0:0:0:
192,192,21401,1,0,0:0:0:0:
320,192,21487,1,0,0:0:0:0:
448,192,21572,1,0,0:0:0:0:
192,192,21658,1,0,0:0:0:0:
448,192,21744,1,0,0:0:0:0:
192,192,21830,1,0,0:0:0:0:
64,192,21915,1,0,0:0:0:0:
320,192,22001,1,0,0:0:0:0:
64,192,22087,1,0,0:0:0:0:
320,192,22172,1,0,0:0:0:0:
192,192,22258,1,0,0:0:0:0:
64,192,22344,1,0,0:0:0:0:
320,192,22430,1,0,0:0:0:0:
448,192,22515,1,0,0:0:0:0:
192,192,22601,1,0,0:0:0:0:
320,192,22687,1,0,0:0:0:0:
192,192,22772,1,0,0:0:0:0:
448,192,22858,1,0,0:0:0:0:
64,192,22944,1,0,0:0:0:0:
448,192,23030,1,0,0:0:0:0:
320,192,23115,1,0,0:0:0:0:
192,192,23201,1,0,0:0:0:0:
64,192,23287,1,0,0:0:0:0:
192,192,23372,1,0,0:0:0:0:
320,192,23458,1,0,0:0:0:0:
64,192,23544,1,0,0:0:0:0:
192,192,23630,1,0,0:0:0:0:
448,192,23715,1,0,0:0:0:0:
64,192,23801,1,0,0:0:0:0:
192,192,23887,1,0,0:0:0:0:
320,192,23972,1,0,0:0:0:0:
192,192,24058,1,0,0:0:0:0:
320,192,24144,1,0,0:0:0:0:
448,192,24230,1,0,0:0:0:0:
64,192,24315,1,0,0:0:0:0:
448,192,24401,1,0,0:0:0:0:
320,192,24487,1,0,0:0:0:0:
192,192,24572,1,0,0:0:0:0:
64,192,24658,1,0,0:0:0:0:
320,192,24744,1,0,0:0:0:0:
192,192,24830,1,0,0:0:0:0:
320,192,24915,1,0,0:0:0:0:
448,192,25001,1,0,0:0:0:0:
64,192,25087,1,0,0:0:0:0:
320,192,25172,1,0,0:0:0:0:
192,192,25258,1,0,0:0:0:0:
448,192,25344,1,0,0:0:0:0:
192,192,25430,1,0,0:0:0:0:
64,192,25515,1,0,0:0:0:0:
320,192,25601,1,0,0:0:0:0:
192,192,25687,1,0,0:0:0:0:
448,192,25772,1,0,0:0:0:0:
192,192,25858,1,0,0:0:0:0:
320,192,25944,1,0,0:0:0:0:
64,192,26030,1,0,0:0:0:0:
192,192,26115,1,0,0:0:0:0:
64,192,26201,1,0,0:0:0:0:
320,192,26287,1,0,0:0:0:0:
192,192,26372,1,0,0:0:0:0:
320,192,26458,1,0,0:0:0:0:
448,192,26544,1,0,0:0:0:0:
192,192,26630,1,0,0:0:0:0:
320,192,26715,1,0,0:0:0:0:
64,192,26801,1,0,0:0:0:0:
448,192,26887,1,0,0:0:0:0:
192,192,26972,1,0,0:0:0:0:
320,192,27058,1,0,0:0:0:0:
64,192,27144,1,0,0:0:0:0:
448,192,27230,1,0,0:0:0:0:
320,192,27315,1,0,0:0:0:0:
192,192,27401,1,0,0:0:0:0:
64,192,27487,1,0,0:0:0:0:
448,192,27572,1,0,0:0:0:0:
64,192,27658,1,0,0:0:0:0:
192,192,27744,1,0,0:0:0:0:
448,192,27830,1,0,0:0:0:0:
320,192,27915,1,0,0:0:0:0:
192,192,28001,1,0,0:0:0:0:
448,192,28087,1,0,0:0:0:0:
320,192,28172,1,0,0:0:0:0:
64,192,28258,1,0,0:0:0:0:
192,192,28344,1,0,0:0:0:0:
64,192,28430,1,0,0:0:0:0:
448,192,28515,1,0,0:0:0:0:
320,192,28601,1,0,0:0:0:0:
64,192,28687,1,0,0:0:0:0:
320,192,28772,1,0,0:0:0:0:
192,192,28858,1,0,0:0:0:0:
64,192,28944,1,0,0:0:0:0:
320,192,29030,1,0,0:0:0:0:
64,192,29115,1,0,0:0:0:0:
448,192,29201,1,0,0:0:0:0:
192,192,29287,1,0,0:0:0:0:
320,192,29372,1,0,0:0:0:0:
64,192,29458,1,0,0:0:0:0:
320,192,29544,1,0,0:0:0:0:
192,192,29630,1,0,0:0:0:0:
320,192,29715,1,0,0:0:0:0:
448,192,29801,1,0,0:0:0:0:
320,192,29887,1,0,0:0:0:0:
192,192,29972,1,0,0:0:0:0:
64,192,30058,1,0,0:0:0:0:
192,192,30144,1,0,0:0:0:0:
64,192,30230,1,0,0:0:0:0:
320,192,30315,1,0,0:0:0:0:
448,192,30401,1,0,0:0:0:0:
320,192,30487,1,0,0:0:0:0:
64,192,30572,1,0,0:0:0:0:
192,192,30658,1,0,0:0:0:0:
320,192,30744,1,0,0:0:0:0:
448,192,30830,1,0,0:0:0:0:
192,192,30915,1,0,0:0:0:0:
320,192,31001,1,0,0:0:0:0:
64,192,31087,1,0,0:0:0:0:
448,192,31172,1,0,0:0:0:0:
320,192,31258,1,0,0:0:0:0:
192,192,31344,1,0,0:0:0:0:
448,192,31430,1,0,0:0:0:0:
64,192,31515,1,0,0:0:0:0:
192,192,31601,1,0,0:0:0:0:
64,192,31687,1,0,0:0:0:0:
192,192,31772,1,0,0:0:0:0:
448,192,31858,1,0,0:0:0:0:
320,192,31944,1,0,0:0:0:0:
192,192,32030,1,0,0:0:0:0:
320,192,32115,1,0,0:0:0:0:
448,192,32201,1,0,0:0:0:0:
64,192,32287,1,0,0:0:0:0:
192,192,32372,1,0,0:0:0:0:
320,192,32458,1,0,0:0:0:0:
192,192,32544,1,0,0:0:0:0:
448,192,32630,1,0,0:0:0:0:
320,192,32715,1,0,0:0:0:0:
448,192,32801,1,0,0:0:0:0:
192,192,32887,1,0,0:0:0:0:
320,192,32972,1,0,0:0:0:0:
64,192,33058,1,0,0:0:0:0:
192,192,33144,1,0,0:0:0:0:
320,192,33230,1,0,0:0:0:0:
192,192,33315,1,0,0:0:0:0:
448,192,33401,1,0,0:0:0:0:
64,192,33487,1,0,0:0:0:0:
320,192,33572,1,0,0:0:0:0:
192,192,33658,1,0,0:0:0:0:
64,192,33744,1,0,0:0:0:0:
320,192,33830,1,0,0:0:0:0:
192,192,33915,1,0,0:0:0:0:
448,192,34001,1,0,0:0:0:0:
320,192,34087,1,0,0:0:0:0:
192,192,34172,1,0,0:0:0:0:
320,192,34258,1,0,0:0:0:0:
64,192,34344,1,0,0:0:0:0:
192,192,34430,1,0,0:0:0:0:
448,192,34515,1,0,0:0:0:0:
320,192,34601,1,0,0:0:0:0:
192,192,34687,1,0,0:0:0:0:
320,192,34772,1,0,0:0:0:0:
192,192,34858,1,0,0:0:0:0:
448,192,34944,1,0,0:0:0:0:
64,192,35030,1,0,0:0:0:0:
192,192,35115,1,0,0:0:0:0:
320,192,35201,1,0,0:0:0:0:
448,192,35287,1,0,0:0:0:0:
320,192,35372,1,0,0:0:0:0:
192,192,35458,1,0,0:0:0:0:
448,192,35544,1,0,0:0:0:0:
320,192,35630,1,0,0:0:0:0:
448,192,35715,1,0,0:0:0:0:
64,192,35801,1,0,0:0:0:0:
192,192,35887,1,0,0:0:0:0:
64,192,35972,1,0,0:0:0:0:
320,192,36058,1,0,0:0:0:0:
192,192,36144,1,0,0:0:0:0:
448,192,36230,1,0,0:0:0:0:
192,192,36315,1,0,0:0:0:0:
320,192,36401,1,0,0:0:0:0:
192,192,36487,1,0,0:0:0:0:
64,192,36572,1,0,0:0:0:0:
320,192,36658,1,0,0:0:0:0:
448,192,36744,1,0,0:0:0:0:
320,192,36830,1,0,0:0:0:0:
64,192,36915,1,0,0:0:0:0:
448,192,37001,1,0,0:0:0:0:
192,192,37087,128,0,37430:0:0:0:0:
320,192,37087,1,4,0:0:0:0:
320,192,37430,128,0,37772:0:0:0:0:
448,192,37430,1,8,0:0:0:0:
64,192,37772,128,0,38115:0:0:0:0:
448,192,38115,128,0,38458:0:0:0:0:
192,192,38115,1,8,0:0:0:0:
320,192,38458,128,0,38801:0:0:0:0:
192,192,38801,128,0,39144:0:0:0:0:
448,192,38801,1,8,0:0:0:0:
64,192,39144,128,0,39487:0:0:0:0:
192,192,39487,128,0,39830:0:0:0:0:
320,192,39487,1,8,0:0:0:0:
320,192,39830,128,0,40172:0:0:0:0:
448,192,40172,128,0,40515:0:0:0:0:
64,192,40172,1,8,0:0:0:0:
192,192,40515,128,0,40858:0:0:0:0:
320,192,40858,128,0,41201:0:0:0:0:
448,192,40858,1,8,0:0:0:0:
64,192,41201,128,0,42230:0:0:0:0:
192,192,41544,1,8,0:0:0:0:
192,192,42230,128,0,42572:0:0:0:0:
320,192,42230,1,8,0:0:0:0:
64,192,42572,128,0,42915:0:0:0:0:
448,192,42915,128,0,43258:0:0:0:0:
192,192,42915,1,8,0:0:0:0:
320,192,43258,128,0,43601:0:0:0:0:
192,192,43601,128,0,43944:0:0:0:0:
64,192,43601,1,8,0:0:0:0:
320,192,43944,128,0,44287:0:0:0:0:
64,192,44287,128,0,44630:0:0:0:0:
448,192,44287,1,8,0:0:0:0:
320,192,44630,128,0,44972:0:0:0:0:
448,192,44972,128,0,45315:0:0:0:0:
64,192,44972,1,8,0:0:0:0:
320,192,45315,128,0,45658:0:0:0:0:
64,192,45658,128,0,46001:0:0:0:0:
192,192,45658,1,8,0:0:0:0:
192,192,46001,128,0,46344:0:0:0:0:
448,192,46344,128,0,46687:0:0:0:0:
320,192,46344,1,8,0:0:0:0:
320,192,46687,128,0,47030:0:0:0:0:
192,192,47030,128,0,47372:0:0:0:0:
64,192,47030,1,8,0:0:0:0:
448,192,47372,128,0,48058:0:0:0:0:
192,192,47715,1,8,0:0:0:0:
192,192,48058,128,0,48401:0:0:0:0:
320,192,48401,128,0,48743:0:0:0:0:
64,192,48401,1,8,0:0:0:0:
64,192,48743,128,0,49086:0:0:0:0:
448,192,49087,128,0,49430:0:0:0:0:
192,192,49087,1,8,0:0:0:0:
64,192,49430,128,0,49772:0:0:0:0:
448,192,49772,1,8,0:0:0:0:
320,192,49772,128,0,50115:0:0:0:0:
448,192,50115,128,0,50458:0:0:0:0:
192,192,50458,128,0,50801:0:0:0:0:
64,192,50458,1,8,0:0:0:0:
320,192,50801,128,0,51143:0:0:0:0:
448,192,51143,128,0,51486:0:0:0:0:
192,192,51144,1,8,0:0:0:0:
192,192,51486,128,0,51829:0:0:0:0:
320,192,51829,128,0,52172:0:0:0:0:
64,192,51830,1,8,0:0:0:0:
64,192,52172,128,0,52858:0:0:0:0:
448,192,52515,1,8,0:0:0:0:
320,192,52858,128,0,53544:0:0:0:0:
192,192,53201,1,8,0:0:0:0:
192,192,53544,128,0,53887:0:0:0:0:
448,192,53886,128,0,54229:0:0:0:0:
64,192,53887,1,8,0:0:0:0:
320,192,54229,128,0,54572:0:0:0:0:
192,192,54572,128,0,54915:0:0:0:0:
448,192,54572,1,8,0:0:0:0:
64,192,54915,128,0,55258:0:0:0:0:
192,192,55258,128,0,55601:0:0:0:0:
320,192,55258,1,8,0:0:0:0:
320,192,55601,128,0,55943:0:0:0:0:
448,192,55943,128,0,56286:0:0:0:0:
64,192,55944,1,8,0:0:0:0:
320,192,56286,128,0,56629:0:0:0:0:
64,192,56629,128,0,56972:0:0:0:0:
448,192,56630,1,8,0:0:0:0:
192,192,56972,128,0,57315:0:0:0:0:
448,192,57315,128,0,57658:0:0:0:0:
320,192,57315,1,8,0:0:0:0:
320,192,57658,128,0,58001:0:0:0:0:
192,192,58001,128,0,58343:0:0:0:0:
64,192,58001,1,8,0:0:0:0:
448,192,58344,128,0,59030:0:0:0:0:
192,192,58687,1,8,0:0:0:0:
192,192,59030,1,0,0:0:0:0:
320,192,59115,1,0,0:0:0:0:
192,192,59201,1,0,0:0:0:0:
320,192,59287,1,0,0:0:0:0:
192,192,59372,1,0,0:0:0:0:
320,192,59458,1,0,0:0:0:0:
192,192,59544,1,0,0:0:0:0:
320,192,59630,1,0,0:0:0:0:
192,192,59715,1,0,0:0:0:0:
320,192,59801,1,0,0:0:0:0:
192,192,59887,1,0,0:0:0:0:
320,192,59972,1,0,0:0:0:0:
192,192,60058,1,0,0:0:0:0:
320,192,60144,1,0,0:0:0:0:
192,192,60230,1,0,0:0:0:0:
320,192,60315,1,0,0:0:0:0:
192,192,60401,1,0,0:0:0:0:
64,192,60487,1,0,0:0:0:0:
448,192,60572,1,0,0:0:0:0:
192,192,60658,1,0,0:0:0:0:
320,192,60744,1,0,0:0:0:0:
64,192,60830,1,0,0:0:0:0:
448,192,60915,1,0,0:0:0:0:
192,192,61001,1,0,0:0:0:0:
64,192,61087,1,0,0:0:0:0:
448,192,61087,1,0,0:0:0:0:
320,192,61430,1,0,0:0:0:0:
192,192,61430,1,0,0:0:0:0:
448,192,61772,1,0,0:0:0:0:
320,192,61858,1,0,0:0:0:0:
64,192,61944,1,0,0:0:0:0:
448,192,62030,1,0,0:0:0:0:
192,192,62115,1,0,0:0:0:0:
64,192,62201,1,0,0:0:0:0:
320,192,62287,1,0,0:0:0:0:
192,192,62372,1,0,0:0:0:0:
64,192,62458,1,0,0:0:0:0:
448,192,62458,1,0,0:0:0:0:
192,192,62801,1,0,0:0:0:0:
320,192,62801,1,0,0:0:0:0:
320,192,63144,1,0,0:0:0:0:
64,192,63230,1,0,0:0:0:0:
448,192,63315,1,0,0:0:0:0:
64,192,63401,1,0,0:0:0:0:
320,192,63487,1,0,0:0:0:0:
192,192,63572,1,0,0:0:0:0:
448,192,63658,1,0,0:0:0:0:
320,192,63744,1,0,0:0:0:0:
448,192,63830,1,0,0:0:0:0:
64,192,63830,1,0,0:0:0:0:
192,192,64172,1,0,0:0:0:0:
320,192,64172,1,0,0:0:0:0:
448,192,64515,1,0,0:0:0:0:
64,192,64601,1,0,0:0:0:0:
320,192,64687,1,0,0:0:0:0:
192,192,64772,1,0,0:0:0:0:
320,192,64858,1,0,0:0:0:0:
64,192,64944,1,0,0:0:0:0:
448,192,65030,1,0,0:0:0:0:
192,192,65115,1,0,0:0:0:0:
448,192,65201,1,0,0:0:0:0:
64,192,65201,1,0,0:0:0:0:
192,192,65544,1,0,0:0:0:0:
320,192,65544,1,0,0:0:0:0:
448,192,65887,1,0,0:0:0:0:
64,192,65887,1,0,0:0:0:35:normal-hitnormal2.ogg
320,192,65972,1,0,0:0:0:0:
192,192,66058,1,0,0:0:0:0:
448,192,66144,1,0,0:0:0:0:
192,192,66230,1,0,0:0:0:0:
64,192,66315,1,0,0:0:0:0:
448,192,66401,1,0,0:0:0:0:
320,192,66401,1,0,0:0:0:35:normal-hitnormal2.ogg
192,192,66487,1,0,0:0:0:0:
448,192,66572,1,0,0:0:0:0:
64,192,66572,1,0,0:0:0:0:
64,192,66915,1,0,0:0:0:35:normal-hitnormal2.ogg
192,192,66915,1,0,0:0:0:0:
320,192,66915,1,0,0:0:0:0:
64,192,67258,1,0,0:0:0:0:
448,192,67258,1,0,0:0:0:35:normal-hitnormal2.ogg
192,192,67344,1,0,0:0:0:0:
320,192,67430,1,0,0:0:0:0:
64,192,67515,1,0,0:0:0:0:
448,192,67601,1,0,0:0:0:0:
192,192,67687,1,0,0:0:0:0:
64,192,67772,1,0,0:0:0:35:normal-hitnormal2.ogg
448,192,67772,1,0,0:0:0:0:
320,192,67858,1,0,0:0:0:0:
64,192,67944,1,0,0:0:0:0:
448,192,67944,1,0,0:0:0:0:
192,192,68287,1,0,0:0:0:0:
320,192,68287,1,0,0:0:0:0:
448,192,68287,1,0,0:0:0:35:normal-hitnormal2.ogg
448,192,68630,1,0,0:0:0:35:normal-hitnormal2.ogg
64,192,68630,1,0,0:0:0:0:
192,192,68715,1,0,0:0:0:0:
320,192,68801,1,0,0:0:0:0:
64,192,68887,1,0,0:0:0:0:
448,192,68972,1,0,0:0:0:0:
192,192,69058,1,0,0:0:0:0:
320,192,69144,1,0,0:0:0:35:normal-hitnormal2.ogg
448,192,69144,1,0,0:0:0:0:
192,192,69230,1,0,0:0:0:0:
64,192,69315,1,0,0:0:0:0:
448,192,69315,1,0,0:0:0:0:
64,192,69658,1,0,0:0:0:35:normal-hitnormal2.ogg
192,192,69658,1,0,0:0:0:0:
320,192,69658,1,0,0:0:0:0:
320,192,70001,1,0,0:0:0:0:
192,192,70001,1,0,0:0:0:35:normal-hitnormal2.ogg
64,192,70087,1,0,0:0:0:0:
448,192,70172,1,0,0:0:0:0:
192,192,70258,1,0,0:0:0:0:
320,192,70344,1,0,0:0:0:0:
64,192,70430,1,0,0:0:0:0:
192,192,70515,1,0,0:0:0:0:
448,192,70515,1,0,0:0:0:35:normal-hitnormal2.ogg
320,192,70601,1,0,0:0:0:0:
64,192,70687,1,0,0:0:0:0:
448,192,70687,1,0,0:0:0:0:
192,192,71030,1,0,0:0:0:0:
320,192,71030,1,0,0:0:0:0:
448,192,71030,1,0,0:0:0:35:normal-hitnormal2.ogg
448,192,71372,1,0,0:0:0:0:
192,192,71458,1,0,0:0:0:0:
320,192,71544,1,0,0:0:0:0:
64,192,71630,1,0,0:0:0:0:
192,192,71715,1,0,0:0:0:0:
64,192,71801,1,0,0:0:0:0:
320,192,71887,1,0,0:0:0:0:
192,192,71972,1,0,0:0:0:0:
448,192,72058,1,0,0:0:0:0:
64,192,72144,1,0,0:0:0:0:
448,192,72230,1,0,0:0:0:0:
320,192,72315,1,0,0:0:0:0:
192,192,72401,1,0,0:0:0:0:
64,192,72487,1,0,0:0:0:0:
320,192,72572,1,0,0:0:0:0:
192,192,72658,1,0,0:0:0:0:
320,192,72744,1,0,0:0:0:0:
64,192,72830,1,0,0:0:0:0:
320,192,72915,1,0,0:0:0:0:
192,192,73001,1,0,0:0:0:0:
448,192,73087,1,0,0:0:0:0:
64,192,73172,1,0,0:0:0:0:
448,192,73258,1,0,0:0:0:0:
320,192,73344,1,0,0:0:0:0:
192,192,73430,1,0,0:0:0:0:
448,192,73515,1,0,0:0:0:0:
320,192,73601,1,0,0:0:0:0:
192,192,73687,1,0,0:0:0:0:
64,192,73772,1,0,0:0:0:0:
320,192,73858,1,0,0:0:0:0:
192,192,73944,1,0,0:0:0:0:
64,192,74030,1,0,0:0:0:0:
448,192,74115,1,0,0:0:0:0:
192,192,74201,1,0,0:0:0:0:
320,192,74287,1,0,0:0:0:0:
192,192,74372,1,0,0:0:0:0:
64,192,74458,1,0,0:0:0:0:
448,192,74544,1,0,0:0:0:0:
320,192,74630,1,0,0:0:0:0:
192,192,74715,1,0,0:0:0:0:
320,192,74801,1,0,0:0:0:0:
64,192,74887,1,0,0:0:0:0:
448,192,74972,1,0,0:0:0:0:
192,192,75058,1,0,0:0:0:0:
448,192,75144,1,0,0:0:0:0:
320,192,75230,1,0,0:0:0:0:
192,192,75315,1,0,0:0:0:0:
320,192,75401,1,0,0:0:0:0:
192,192,75487,1,0,0:0:0:0:
64,192,75572,1,0,0:0:0:0:
448,192,75658,1,0,0:0:0:0:
192,192,75744,1,0,0:0:0:0:
448,192,75830,1,0,0:0:0:0:
320,192,75915,1,0,0:0:0:0:
192,192,76001,1,0,0:0:0:0:
320,192,76087,1,0,0:0:0:0:
192,192,76172,1,0,0:0:0:0:
64,192,76258,1,0,0:0:0:0:
448,192,76344,1,0,0:0:0:0:
192,192,76430,1,0,0:0:0:0:
448,192,76515,1,0,0:0:0:0:
320,192,76601,1,0,0:0:0:0:
192,192,76687,1,0,0:0:0:0:
64,192,76772,1,0,0:0:0:0:
320,192,76858,1,0,0:0:0:0:
192,192,76944,1,0,0:0:0:0:
64,192,77030,1,0,0:0:0:0:
192,192,77115,1,0,0:0:0:0:
448,192,77201,1,0,0:0:0:0:
320,192,77287,1,0,0:0:0:0:
192,192,77372,1,0,0:0:0:0:
320,192,77458,1,0,0:0:0:0:
64,192,77544,1,0,0:0:0:0:
448,192,77630,1,0,0:0:0:0:
64,192,77715,1,0,0:0:0:0:
192,192,77801,1,0,0:0:0:0:
320,192,77887,1,0,0:0:0:0:
448,192,77972,1,0,0:0:0:0:
192,192,78058,1,0,0:0:0:0:
64,192,78144,1,0,0:0:0:0:
448,192,78230,1,0,0:0:0:0:
192,192,78315,1,0,0:0:0:0:
320,192,78401,1,0,0:0:0:0:
192,192,78487,1,0,0:0:0:0:
64,192,78572,1,0,0:0:0:0:
320,192,78658,1,0,0:0:0:0:
192,192,78744,1,0,0:0:0:0:
448,192,78830,1,0,0:0:0:0:
320,192,78915,1,0,0:0:0:0:
64,192,79001,1,0,0:0:0:0:
448,192,79087,1,0,0:0:0:0:
192,192,79172,1,0,0:0:0:0:
64,192,79258,1,0,0:0:0:0:
320,192,79344,1,0,0:0:0:0:
192,192,79430,1,0,0:0:0:0:
320,192,79515,1,0,0:0:0:0:
448,192,79601,1,0,0:0:0:0:
64,192,79687,1,0,0:0:0:0:
192,192,79772,1,0,0:0:0:0:
64,192,79858,1,0,0:0:0:0:
320,192,79944,1,0,0:0:0:0:
192,192,80030,1,0,0:0:0:0:
320,192,80115,1,0,0:0:0:0:
192,192,80201,1,0,0:0:0:0:
64,192,80287,1,0,0:0:0:0:
448,192,80372,1,0,0:0:0:0:
320,192,80458,1,0,0:0:0:0:
192,192,80544,1,0,0:0:0:0:
448,192,80630,1,0,0:0:0:0:
320,192,80715,1,0,0:0:0:0:
192,192,80801,1,0,0:0:0:0:
64,192,80887,1,0,0:0:0:0:
320,192,80972,1,0,0:0:0:0:
192,192,81058,1,0,0:0:0:0:
64,192,81144,1,0,0:0:0:0:
192,192,81230,1,0,0:0:0:0:
448,192,81315,1,0,0:0:0:0:
320,192,81401,1,0,0:0:0:0:
192,192,81487,1,0,0:0:0:0:
320,192,81572,1,0,0:0:0:0:
448,192,81658,1,0,0:0:0:0:
64,192,81744,1,0,0:0:0:0:
192,192,81830,1,0,0:0:0:0:
320,192,81915,1,0,0:0:0:0:
192,192,82001,1,0,0:0:0:0:
64,192,82087,1,0,0:0:0:0:
320,192,82172,1,0,0:0:0:0:
192,192,82258,1,0,0:0:0:0:
64,192,82344,1,0,0:0:0:0:
448,192,82344,1,2,0:0:0:0:
320,192,82515,1,0,0:0:0:0:
192,192,82687,1,0,0:0:0:0:
448,192,82772,1,0,0:0:0:0:
64,192,83030,1,0,0:0:0:0:
192,192,83115,1,0,0:0:0:0:
320,192,83201,1,0,0:0:0:0:
448,192,83372,1,0,0:0:0:0:
320,192,83458,1,0,0:0:0:0:
192,192,83544,1,0,0:0:0:0:
64,192,83630,1,0,0:0:0:0:
192,192,83715,1,0,0:0:0:0:
320,192,83715,1,2,0:0:0:0:
64,192,83887,1,0,0:0:0:0:
320,192,84058,1,0,0:0:0:0:
448,192,84144,1,0,0:0:0:0:
192,192,84401,1,2,0:0:0:0:
448,192,84401,1,0,0:0:0:0:
320,192,84487,1,0,0:0:0:0:
64,192,84572,1,0,0:0:0:0:
448,192,84744,1,0,0:0:0:0:
192,192,84830,1,0,0:0:0:0:
320,192,84915,1,0,0:0:0:0:
192,192,85001,1,0,0:0:0:0:
64,192,85087,1,2,0:0:0:0:
448,192,85087,1,0,0:0:0:0:
192,192,85258,1,0,0:0:0:0:
320,192,85430,1,0,0:0:0:0:
448,192,85515,1,0,0:0:0:0:
192,192,85772,1,0,0:0:0:0:
320,192,85858,1,0,0:0:0:0:
448,192,85944,1,0,0:0:0:0:
320,192,86115,1,0,0:0:0:0:
192,192,86201,1,0,0:0:0:0:
64,192,86287,1,0,0:0:0:0:
320,192,86372,1,0,0:0:0:0:
192,192,86458,1,0,0:0:0:0:
448,192,86458,1,2,0:0:0:0:
64,192,86630,1,0,0:0:0:0:
320,192,86801,1,0,0:0:0:0:
192,192,86887,1,0,0:0:0:0:
64,192,87144,1,0,0:0:0:0:
320,192,87230,1,0,0:0:0:0:
448,192,87315,1,0,0:0:0:0:
320,192,87487,1,0,0:0:0:0:
448,192,87572,1,0,0:0:0:0:
192,192,87658,1,0,0:0:0:0:
64,192,87744,1,0,0:0:0:0:
320,192,87830,1,2,0:0:0:0:
448,192,87830,1,0,0:0:0:0:
192,192,88001,1,0,0:0:0:0:
320,192,88172,1,0,0:0:0:0:
448,192,88258,1,0,0:0:0:0:
64,192,88515,1,2,0:0:0:0:
192,192,88515,1,0,0:0:0:0:
320,192,88601,1,0,0:0:0:0:
192,192,88687,1,0,0:0:0:0:
448,192,88858,1,0,0:0:0:0:
320,192,88944,1,0,0:0:0:0:
192,192,89030,1,0,0:0:0:0:
64,192,89115,1,0,0:0:0:0:
320,192,89201,1,2,0:0:0:0:
192,192,89201,1,0,0:0:0:0:
64,192,89372,1,0,0:0:0:0:
192,192,89544,1,0,0:0:0:0:
448,192,89630,1,0,0:0:0:0:
320,192,89887,1,0,0:0:0:0:
64,192,89887,1,2,0:0:0:0:
192,192,89972,1,0,0:0:0:0:
320,192,90058,1,0,0:0:0:0:
448,192,90230,1,0,0:0:0:0:
192,192,90315,1,0,0:0:0:0:
448,192,90401,1,0,0:0:0:0:
64,192,90487,1,0,0:0:0:0:
192,192,90572,1,0,0:0:0:0:
320,192,90572,1,2,0:0:0:0:
64,192,90744,1,0,0:0:0:0:
320,192,90915,1,0,0:0:0:0:
448,192,91001,1,0,0:0:0:0:
192,192,91258,1,0,0:0:0:0:
448,192,91344,1,0,0:0:0:0:
320,192,91430,1,0,0:0:0:0:
448,192,91601,1,0,0:0:0:0:
192,192,91687,1,0,0:0:0:0:
320,192,91772,1,0,0:0:0:0:
64,192,91858,1,0,0:0:0:0:
448,192,91944,1,0,0:0:0:0:
64,192,92115,1,0,0:0:0:0:
192,192,92287,1,0,0:0:0:0:
320,192,92372,1,0,0:0:0:0:
320,192,92630,1,0,0:0:0:0:
64,192,92630,1,2,0:0:0:0:
448,192,92715,1,0,0:0:0:0:
192,192,92801,1,0,0:0:0:0:
448,192,92972,1,0,0:0:0:0:
320,192,93058,1,0,0:0:0:0:
192,192,93144,1,0,0:0:0:0:
64,192,93230,1,0,0:0:0:0:
320,192,93315,1,0,0:0:0:0:
448,192,93315,1,2,0:0:0:0:
192,192,93401,1,0,0:0:0:0:
64,192,93487,1,0,0:0:0:0:
320,192,93572,1,0,0:0:0:0:
192,192,93658,1,0,0:0:0:0:
448,192,93744,1,0,0:0:0:0:
192,192,93830,1,0,0:0:0:0:
64,192,93915,1,0,0:0:0:0:
320,192,94001,1,2,0:0:0:0:
448,192,94001,1,0,0:0:0:0:
192,192,94087,1,0,0:0:0:0:
320,192,94172,1,0,0:0:0:0:
64,192,94258,1,0,0:0:0:0:
448,192,94344,1,0,0:0:0:0:
192,192,94430,1,0,0:0:0:0:
320,192,94515,1,0,0:0:0:0:
448,192,94601,1,0,0:0:0:0:
192,192,94687,1,2,0:0:0:0:
64,192,94687,1,0,0:0:0:0:
320,192,94772,1,0,0:0:0:0:
64,192,94858,1,0,0:0:0:0:
448,192,94944,1,0,0:0:0:0:
320,192,95030,1,0,0:0:0:0:
192,192,95115,1,0,0:0:0:0:
64,192,95201,1,0,0:0:0:0:
320,192,95287,1,0,0:0:0:0:
192,192,95372,1,0,0:0:0:0:
64,192,95372,1,2,0:0:0:0:
448,192,95458,1,0,0:0:0:0:
64,192,95544,1,0,0:0:0:0:
192,192,95630,1,0,0:0:0:0:
320,192,95715,1,0,0:0:0:0:
192,192,95801,1,0,0:0:0:0:
64,192,95887,1,0,0:0:0:0:
448,192,95972,1,0,0:0:0:0:
320,192,96058,1,2,0:0:0:0:
64,192,96058,1,0,0:0:0:0:
192,192,96144,1,0,0:0:0:0:
320,192,96230,1,0,0:0:0:0:
64,192,96315,1,0,0:0:0:0:
192,192,96401,1,0,0:0:0:0:
320,192,96487,1,0,0:0:0:0:
448,192,96572,1,0,0:0:0:0:
64,192,96658,1,0,0:0:0:0:
192,192,96744,1,0,0:0:0:0:
448,192,96830,1,0,0:0:0:0:
320,192,96915,1,0,0:0:0:0:
64,192,97001,1,0,0:0:0:0:
448,192,97087,1,0,0:0:0:0:
192,192,97172,1,0,0:0:0:0:
64,192,97258,1,0,0:0:0:0:
320,192,97344,1,0,0:0:0:0:
192,192,97430,1,0,0:0:0:0:
64,192,97430,1,2,0:0:0:0:
448,192,97515,1,0,0:0:0:0:
64,192,97601,1,0,0:0:0:0:
192,192,97687,1,0,0:0:0:0:
320,192,97772,1,0,0:0:0:0:
64,192,97858,1,0,0:0:0:0:
448,192,97944,1,0,0:0:0:0:
192,192,98030,1,0,0:0:0:0:
320,192,98115,1,0,0:0:0:0:
448,192,98115,1,2,0:0:0:0:
192,192,98201,1,0,0:0:0:0:
64,192,98287,1,0,0:0:0:0:
448,192,98372,1,0,0:0:0:0:
192,192,98458,1,0,0:0:0:0:
448,192,98544,1,0,0:0:0:0:
320,192,98630,1,0,0:0:0:0:
64,192,98715,1,0,0:0:0:0:
192,192,98801,1,2,0:0:0:0:
320,192,98801,1,0,0:0:0:0:
448,192,98887,1,0,0:0:0:0:
320,192,98972,1,0,0:0:0:0:
64,192,99058,1,0,0:0:0:0:
192,192,99144,1,0,0:0:0:0:
64,192,99230,1,0,0:0:0:0:
320,192,99315,1,0,0:0:0:0:
448,192,99401,1,0,0:0:0:0:
192,192,99487,1,0,0:0:0:0:
320,192,99572,1,0,0:0:0:0:
448,192,99658,1,0,0:0:0:0:
64,192,99744,1,0,0:0:0:0:
320,192,99830,1,0,0:0:0:0:
192,192,99915,1,0,0:0:0:0:
64,192,100001,1,0,0:0:0:0:
448,192,100087,1,0,0:0:0:0:
320,192,100172,1,2,0:0:0:0:
192,192,100172,1,0,0:0:0:0:
64,192,100258,1,0,0:0:0:0:
192,192,100344,1,0,0:0:0:0:
320,192,100430,1,0,0:0:0:0:
192,192,100515,1,0,0:0:0:0:
448,192,100601,1,0,0:0:0:0:
64,192,100687,1,0,0:0:0:0:
192,192,100772,1,0,0:0:0:0:
448,192,100858,1,2,0:0:0:0:
320,192,100858,1,0,0:0:0:0:
64,192,100944,1,0,0:0:0:0:
320,192,101030,1,0,0:0:0:0:
448,192,101115,1,0,0:0:0:0:
192,192,101201,1,0,0:0:0:0:
64,192,101287,1,0,0:0:0:0:
320,192,101372,1,0,0:0:0:0:
192,192,101458,1,0,0:0:0:0:
448,192,101544,1,0,0:0:0:0:
64,192,101544,1,2,0:0:0:0:
320,192,101630,1,0,0:0:0:0:
64,192,101715,1,0,0:0:0:0:
320,192,101801,1,0,0:0:0:0:
192,192,101887,1,0,0:0:0:0:
448,192,101972,1,0,0:0:0:0:
64,192,102058,1,0,0:0:0:0:
320,192,102144,1,0,0:0:0:0:
192,192,102230,1,0,0:0:0:0:
320,192,102315,1,0,0:0:0:0:
64,192,102401,1,0,0:0:0:0:
448,192,102487,1,0,0:0:0:0:
64,192,102572,1,0,0:0:0:0:
320,192,102658,1,0,0:0:0:0:
192,192,102744,1,0,0:0:0:0:
64,192,102830,1,0,0:0:0:0:
320,192,102915,1,0,0:0:0:0:
448,192,102915,1,2,0:0:0:0:
192,192,103001,1,0,0:0:0:0:
320,192,103087,1,0,0:0:0:0:
448,192,103172,1,0,0:0:0:0:
192,192,103258,1,0,0:0:0:0:
64,192,103344,1,0,0:0:0:0:
320,192,103430,1,0,0:0:0:0:
192,192,103515,1,0,0:0:0:0:
448,192,103601,1,0,0:0:0:0:
64,192,103687,1,0,0:0:0:0:
192,192,103772,1,0,0:0:0:0:
320,192,103858,1,0,0:0:0:0:
448,192,103944,1,0,0:0:0:0:
64,192,104030,1,0,0:0:0:0:
320,192,104115,1,0,0:0:0:0:
192,192,104201,1,0,0:0:0:0:
448,192,104287,1,0,0:0:0:0:
64,192,104287,1,2,0:0:0:0:
320,192,104372,1,0,0:0:0:0:
192,192,104458,1,0,0:0:0:0:
64,192,104544,1,0,0:0:0:0:
448,192,104629,1,0,0:0:0:0:
192,192,104715,1,0,0:0:0:0:
320,192,104801,1,0,0:0:0:0:
64,192,104887,1,0,0:0:0:0:
192,192,104972,1,0,0:0:0:0:
64,192,105058,1,0,0:0:0:0:
192,192,105144,1,0,0:0:0:0:
320,192,105229,1,0,0:0:0:0:
448,192,105315,1,0,0:0:0:0:
192,192,105401,1,0,0:0:0:0:
64,192,105487,1,0,0:0:0:0:
320,192,105572,1,0,0:0:0:0:
448,192,105658,1,0,0:0:0:0:
192,192,105658,1,2,0:0:0:0:
320,192,105744,1,0,0:0:0:0:
64,192,105829,1,0,0:0:0:0:
192,192,105915,1,0,0:0:0:0:
320,192,106001,1,0,0:0:0:0:
64,192,106087,1,0,0:0:0:0:
448,192,106172,1,0,0:0:0:0:
320,192,106258,1,0,0:0:0:0:
64,192,106344,1,0,0:0:0:0:
448,192,106429,1,0,0:0:0:0:
320,192,106515,1,0,0:0:0:0:
192,192,106601,1,0,0:0:0:0:
320,192,106687,1,0,0:0:0:0:
192,192,106772,1,0,0:0:0:0:
64,192,106858,1,0,0:0:0:0:
320,192,106944,1,0,0:0:0:0:
448,192,107029,1,0,0:0:0:0:
64,192,107030,1,2,0:0:0:0:
192,192,107115,1,0,0:0:0:0:
64,192,107201,1,0,0:0:0:0:
192,192,107287,1,0,0:0:0:0:
448,192,107372,1,0,0:0:0:0:
320,192,107458,1,0,0:0:0:0:
192,192,107544,1,0,0:0:0:0:
64,192,107629,1,0,0:0:0:0:
320,192,107715,1,0,0:0:0:0:
192,192,107801,1,0,0:0:0:0:
64,192,107887,1,0,0:0:0:0:
448,192,107972,1,0,0:0:0:0:
192,192,108058,1,0,0:0:0:0:
448,192,108144,1,0,0:0:0:0:
320,192,108229,1,0,0:0:0:0:
64,192,108315,1,0,0:0:0:0:
192,192,108401,1,0,0:0:0:0:
448,192,108401,1,2,0:0:0:0:
64,192,108487,1,0,0:0:0:0:
320,192,108572,1,0,0:0:0:0:
192,192,108658,1,0,0:0:0:0:
448,192,108744,1,0,0:0:0:0:
320,192,108829,1,0,0:0:0:0:
192,192,108915,1,0,0:0:0:0:
64,192,109001,1,0,0:0:0:0:
448,192,109087,1,0,0:0:0:0:
192,192,109172,1,0,0:0:0:0:
64,192,109258,1,0,0:0:0:0:
320,192,109344,1,0,0:0:0:0:
192,192,109429,1,0,0:0:0:0:
448,192,109515,1,0,0:0:0:0:
64,192,109601,1,0,0:0:0:0:
320,192,109687,1,0,0:0:0:0:
192,192,109772,1,0,0:0:0:0:
448,192,109772,1,2,0:0:0:0:
320,192,109858,1,0,0:0:0:0:
64,192,109944,1,0,0:0:0:0:
320,192,110029,1,0,0:0:0:0:
192,192,110115,1,0,0:0:0:0:
448,192,110201,1,0,0:0:0:0:
192,192,110287,1,0,0:0:0:0:
64,192,110372,1,0,0:0:0:0:
448,192,110458,1,0,0:0:0:0:
320,192,110544,1,0,0:0:0:0:
192,192,110629,1,0,0:0:0:0:
320,192,110715,1,0,0:0:0:0:
64,192,110801,1,0,0:0:0:0:
448,192,110887,1,0,0:0:0:0:
320,192,110972,1,0,0:0:0:0:
192,192,111058,1,0,0:0:0:0:
64,192,111144,1,2,0:0:0:0:
448,192,111144,1,0,0:0:0:0:
192,192,111229,1,0,0:0:0:0:
64,192,111315,1,0,0:0:0:0:
320,192,111401,1,0,0:0:0:0:
192,192,111487,1,0,0:0:0:0:
64,192,111572,1,0,0:0:0:0:
448,192,111658,1,0,0:0:0:0:
320,192,111744,1,0,0:0:0:0:
448,192,111829,1,0,0:0:0:0:
320,192,111915,1,0,0:0:0:0:
192,192,112001,1,0,0:0:0:0:
64,192,112087,1,0,0:0:0:0:
320,192,112172,1,0,0:0:0:0:
192,192,112258,1,0,0:0:0:0:
448,192,112344,1,0,0:0:0:0:
64,192,112429,1,0,0:0:0:0:
320,192,112515,1,0,0:0:0:0:
448,192,112515,1,2,0:0:0:0:
192,192,112601,1,0,0:0:0:0:
64,192,112687,1,0,0:0:0:0:
320,192,112772,1,0,0:0:0:0:
192,192,112858,1,0,0:0:0:0:
320,192,112944,1,0,0:0:0:0:
448,192,113029,1,0,0:0:0:0:
64,192,113115,1,0,0:0:0:0:
192,192,113201,1,0,0:0:0:0:
64,192,113287,1,0,0:0:0:0:
192,192,113372,1,0,0:0:0:0:
320,192,113458,1,0,0:0:0:0:
448,192,113544,1,0,0:0:0:0:
64,192,113630,1,0,0:0:0:0:
192,192,113715,1,0,0:0:0:0:
320,192,113801,1,0,0:0:0:0:
192,192,113887,1,0,0:0:0:0:
64,192,113887,1,2,0:0:0:0:
448,192,113972,1,0,0:0:0:0:
320,192,114058,1,0,0:0:0:0:
64,192,114144,1,0,0:0:0:0:
320,192,114229,1,0,0:0:0:0:
192,192,114315,1,0,0:0:0:0:
64,192,114401,1,0,0:0:0:0:
320,192,114487,1,0,0:0:0:0:
448,192,114572,1,0,0:0:0:0:
192,192,114658,1,0,0:0:0:0:
320,192,114744,1,0,0:0:0:0:
64,192,114829,1,0,0:0:0:0:
448,192,114915,1,0,0:0:0:0:
192,192,115001,1,0,0:0:0:0:
320,192,115087,1,0,0:0:0:0:
64,192,115172,1,0,0:0:0:0:
64,192,116630,1,0,0:0:0:0:
