osu file format v13

[General]
AudioFilename: circlejerk_equals_osu.mp3
AudioLeadIn: 1000
PreviewTime: 420
Countdown: 0
SampleSet: Soft
StackLeniency: 0.7
Mode: 0
LetterboxInBreaks: 1
WidescreenStoryboard: 1

[Editor]
DistanceSpacing: 0.5
BeatDivisor: 4
GridSize: 4
TimelineZoom: 2.099999

[Metadata]
Title:Circle Jerk Galactic
TitleUnicode:Circle Jerk Galactic
Artist:y0c1e
ArtistUnicode:y0c1e
Creator:WVS
Version:Jerk
Source:
Tags:Electronic C85 Decipher Saturnalize Dubstep -Bakari-
BeatmapID:390963
BeatmapSetID:152000

[Difficulty]
HPDrainRate:6
CircleSize:5
OverallDifficulty:7
ApproachRate:9
SliderMultiplier:1.6
SliderTickRate:1

[Events]
//Background and Video events
0,0,"CJG.png",0,0
//Break Periods
//Storyboard Layer 0 (Background)
//Storyboard Layer 1 (Fail)
//Storyboard Layer 2 (Pass)
//Storyboard Layer 3 (Foreground)
//Storyboard Sound Samples
//Background Colour Transformations
3,100,0,0,0

[TimingPoints]
990,468.75,4,2,0,10,1,0
6615,-133.333333333333,4,2,0,10,0,0
8490,-133.333333333333,4,2,0,15,0,0
10365,-133.333333333333,4,2,0,25,0,0
12708,-100,4,2,0,25,0,0
13177,468.75,4,2,0,55,1,0
19270,-83.3333333333333,4,2,0,55,0,0
20677,-100,4,1,0,55,0,1
20911,-133.333333333333,4,1,0,55,0,1
21497,-100,4,1,0,55,0,1
27708,-100,4,1,0,55,0,0
28177,-100,4,1,0,55,0,1
30520,-133.333333333333,4,1,0,55,0,1
30872,-100,4,1,0,55,0,1
35677,-100,4,3,0,55,0,0
38958,-83.3333333333333,4,3,0,55,0,1
39192,-100,4,3,0,55,0,0
42708,-100,4,3,0,55,0,1
43177,-100,4,3,0,55,0,0
46458,-83.3333333333333,4,3,0,55,0,1
46692,-100,4,3,0,55,0,0
51028,-100,4,3,0,10,0,0
51145,-100,4,3,0,55,0,0
51848,-100,4,1,0,55,0,0
58528,-100,4,1,0,10,0,0
58645,-100,4,1,0,55,0,0
68489,-100,4,2,0,55,0,0
68723,-100,4,1,0,55,0,0
73528,-100,4,1,0,10,0,0
73645,-100,4,1,0,55,0,0
78802,-66.6666666666667,4,1,0,35,0,0
79036,-66.6666666666667,4,1,0,45,0,0
79212,-66.6666666666667,4,1,0,55,0,0
79329,-66.6666666666667,4,1,0,35,0,0
79505,-66.6666666666667,4,1,0,45,0,0
79680,-66.6666666666667,4,1,0,55,0,0

[Colours]
Combo1 : 64,128,128
Combo2 : 150,190,35
Combo3 : 150,150,100
Combo4 : 95,110,90
Combo5 : 159,0,0

[HitObjects]
436,324,6615,5,0,0:0:0:0:
332,264,7083,1,2,0:0:0:0:
212,276,7552,1,0,3:0:0:0:
116,348,8021,1,0,0:0:0:0:
116,348,8490,5,4,0:3:0:0:
148,232,8958,1,2,0:0:0:0:
116,116,9427,1,4,3:0:0:0:
20,40,9896,1,8,0:0:0:0:
20,40,10365,5,0,0:0:0:0:
140,48,10833,1,2,1:2:0:0:
260,52,11302,1,0,0:0:0:0:
380,56,11771,1,8,1:2:0:0:
376,68,12240,5,0,1:0:0:0:
392,176,12708,6,2,L|400:216,4,26.6666666666667,2|2|2|0|0,0:0|0:0|0:0|0:0|0:0,0:0:0:0:
332,328,13177,6,0,B|292:316|292:316|248:324,1,80,4|2,1:2|0:0,0:0:0:0:
88,284,13645,2,0,B|128:296|128:296|172:288,1,80,8|2,1:2|0:0,0:0:0:0:
276,268,14114,1,0,1:0:0:0:
84,288,14348,1,2,0:0:0:0:
84,288,14466,1,0,0:0:0:0:
84,288,14583,1,8,1:2:0:0:
280,264,14817,1,2,0:0:0:0:
84,288,15052,6,0,B|72:248|72:248|84:212,1,80,4|2,1:2|0:0,0:0:0:0:
188,96,15520,2,0,B|200:136|200:136|188:172,1,80,8|2,1:2|0:0,0:0:0:0:
68,140,15989,2,0,L|52:60,1,80,0|2,1:0|0:0,0:0:0:0:
52,61,16341,1,0,0:0:0:0:
52,61,16458,1,8,1:2:0:0:
187,172,16692,1,2,0:0:0:0:
316,60,16927,5,12,1:2:0:0:
404,180,17161,1,0,1:0:0:0:
300,164,17395,1,0,1:0:0:0:
424,76,17630,1,0,1:0:0:0:
272,264,17864,5,12,1:2:0:0:
164,248,18098,1,0,1:0:0:0:
184,144,18333,1,0,1:0:0:0:
288,160,18567,1,0,1:0:0:0:
76,336,18802,5,8,1:2:0:0:
51,308,18919,1,0,0:0:0:0:
49,271,19036,1,0,0:0:0:0:
72,241,19153,1,0,0:0:0:0:
98,215,19270,5,8,1:2:0:0:
123,187,19387,1,0,0:0:0:0:
125,150,19504,1,0,0:0:0:0:
102,120,19621,1,0,0:0:0:0:
65,112,19739,6,0,L|72:160,1,47.9999985351563,8|0,1:0|0:0,0:0:0:0:
182,255,19973,2,0,L|176:208,1,47.9999985351563,8|0,1:0|0:0,0:0:0:0:
336,208,20208,2,0,L|329:255,1,47.9999985351563,4|4,1:3|0:3,0:0:0:0:
440,160,20442,2,0,L|447:112,1,47.9999985351563,8|0,1:3|0:0,0:0:0:0:
340,56,20677,6,0,P|300:44|232:76,1,120,4|0,0:0|0:0,0:0:0:0:
159,13,21145,6,2,B|144:28|140:52|140:52|128:64|96:60,1,90.0000034332277,8|0,0:0|0:0,0:0:0:0:
48,184,21614,6,0,L|36:104,1,80,8|2,0:3|0:0,0:0:0:0:
176,208,22083,1,8,0:0:0:0:
47,183,22317,1,2,0:0:0:0:
232,320,22552,6,0,B|260:308|260:308|281:317|281:317|304:312|304:312|328:312|348:316,1,120,4|0,0:3|0:0,0:0:0:0:
424,344,23020,6,2,P|400:312|408:232,1,120,10|0,0:0|0:0,0:0:0:0:
484,204,23489,2,0,L|460:128,1,80,8|2,0:3|0:0,0:0:0:0:
352,160,23958,1,8,0:0:0:0:
476,36,24192,1,2,0:0:0:0:
444,216,24427,6,0,L|432:296,1,80,8|2,0:3|0:0,0:0:0:0:
440,304,24778,1,0,0:0:0:0:
448,312,24895,1,8,0:0:0:0:
328,352,25130,1,2,0:0:0:0:
332,340,25247,1,0,0:0:0:0:
336,328,25364,1,4,0:3:0:0:
256,264,25598,2,0,L|304:256,2,26.6666666666667,2|0|0,0:0|0:0|0:0,0:0:0:0:
192,328,25833,2,0,L|112:324,1,80,8|2,0:0|0:0,0:0:0:0:
156,168,26302,6,0,P|168:208|156:264,1,80,8|2,0:3|0:0,0:0:0:0:
156,240,26653,1,0,0:0:0:0:
148,236,26770,1,8,0:0:0:0:
28,164,27005,1,2,0:0:0:0:
264,100,27239,1,4,0:3:0:0:
76,256,27473,6,0,L|80:296,1,40,2|0,0:0|0:0,0:0:0:0:
28,164,27708,2,0,P|88:152|128:112,1,120,4|0,0:3|0:0,0:0:0:0:
320,172,28177,6,0,P|276:160|204:172,1,120,4|0,0:0|0:0,0:0:0:0:
384,110,28645,2,2,P|408:163|392:220,1,120,10|0,0:0|0:0,0:0:0:0:
428,292,29114,1,8,0:3:0:0:
192,172,29348,1,2,0:0:0:0:
320,172,29583,1,8,0:0:0:0:
84,292,29817,1,2,0:0:0:0:
12,96,30052,6,0,L|20:216,1,120,8|0,0:3|0:0,0:0:0:0:
164,84,30520,6,2,P|114:64|60:79,1,90.0000034332277,10|0,0:0|0:0,0:0:0:0:
124,164,30989,6,0,L|208:156,1,80,8|2,0:3|0:0,0:0:0:0:
336,64,31458,2,0,L|256:71,1,80,8|2,0:0|0:0,0:0:0:0:
92,240,31927,6,0,L|176:232,1,80,8|2,0:3|0:0,0:0:0:0:
180,240,32278,1,0,0:0:0:0:
188,248,32395,1,8,0:0:0:0:
312,196,32630,1,2,0:0:0:0:
308,208,32747,1,0,0:0:0:0:
304,220,32864,1,4,0:3:0:0:
364,340,33098,1,2,0:0:0:0:
352,336,33177,1,0,0:0:0:0:
340,332,33255,1,0,0:0:0:0:
328,328,33333,2,0,P|338:304|382:272,1,80,8|2,0:0|0:0,0:0:0:0:
296,116,33802,2,0,L|392:144,1,80,8|2,0:3|0:0,0:0:0:0:
216,192,34270,2,0,L|120:220,1,80,8|2,0:3|0:0,0:0:0:0:
148,104,34739,6,0,L|156:60,1,40,8|0,0:3|0:0,0:0:0:0:
240,184,34973,2,0,L|292:168,1,40,8|0,0:3|0:0,0:0:0:0:
200,296,35208,2,0,L|234:324,2,40,8|0|4,0:3|0:0|0:3,0:0:0:0:
60,184,35677,5,6,0:0:0:0:
64,172,35794,1,0,0:0:0:0:
68,160,35911,1,0,0:0:0:0:
240,184,36145,1,6,0:0:0:0:
60,144,36380,5,0,0:0:0:0:
64,132,36497,1,0,0:0:0:0:
68,120,36614,1,6,0:0:0:0:
240,200,36848,1,0,0:0:0:0:
60,104,37083,5,6,0:0:0:0:
64,92,37200,1,0,0:0:0:0:
68,80,37317,1,0,0:0:0:0:
240,200,37552,5,6,0:0:0:0:
236,212,37669,1,0,0:0:0:0:
232,224,37786,1,0,0:0:0:0:
68,80,38020,1,6,0:0:0:0:
240,240,38255,5,4,0:0:0:0:
236,252,38372,1,0,0:0:0:0:
232,264,38489,1,6,0:0:0:0:
68,80,38723,1,0,0:0:0:0:
240,284,38958,2,2,P|276:292|336:284,1,95.9999970703126,10|8,1:3|1:3,0:0:0:0:
452,184,39427,5,6,0:0:0:0:
448,172,39544,1,0,0:0:0:0:
444,160,39661,1,0,0:0:0:0:
272,184,39895,1,6,0:0:0:0:
452,144,40130,5,0,0:0:0:0:
448,132,40247,1,0,0:0:0:0:
444,120,40364,1,6,0:0:0:0:
272,200,40598,1,0,0:0:0:0:
452,104,40833,5,6,0:0:0:0:
448,92,40950,1,0,0:0:0:0:
444,80,41067,1,0,0:0:0:0:
272,200,41302,5,6,0:0:0:0:
276,212,41419,1,0,0:0:0:0:
280,224,41536,1,0,0:0:0:0:
444,80,41770,1,6,0:0:0:0:
272,240,42005,5,4,0:0:0:0:
276,252,42122,1,0,0:0:0:0:
280,264,42239,1,6,0:0:0:0:
444,80,42473,1,0,0:0:0:0:
272,284,42708,2,2,B|232:292|232:292|192:280|152:288,1,120,8|0,1:2|2:0,0:0:0:0:
48,304,43177,6,0,P|50:264|68:228,1,80,6|0,0:0|0:0,0:0:0:0:
28,148,43645,2,0,P|67:143|106:154,1,80,6|0,0:0|0:0,0:0:0:0:
192,108,44114,2,0,P|203:146|199:186,1,80,6|0,0:0|0:0,0:0:0:0:
260,264,44583,2,0,P|224:282|184:284,1,80,6|0,0:0|0:0,0:0:0:0:
248,352,45052,2,0,P|288:340|404:352,1,160,6|6,0:0|0:0,0:0:0:0:
476,280,45755,1,4,0:0:0:0:
464,284,45872,1,0,0:0:0:0:
452,288,45989,1,6,0:0:0:0:
348,248,46223,1,0,0:0:0:0:
476,192,46458,6,2,P|488:152|480:100,1,95.9999970703126,10|8,1:3|1:3,0:0:0:0:
312,88,46927,6,0,B|352:96|352:96|392:88,1,80,6|0,0:0|0:0,0:0:0:0:
200,192,47395,2,0,B|160:184|160:184|120:192,1,80,4|0,0:0|0:0,0:0:0:0:
188,88,47864,2,0,B|188:47|188:47|174:9,1,80,6|0,0:0|0:0,0:0:0:0:
312,192,48333,2,0,B|311:232|311:232|325:270,1,80,6|0,0:0|0:0,0:0:0:0:
256,340,48802,5,4,0:0:0:0:
217,328,48919,1,0,0:0:0:0:
178,324,49036,1,8,0:0:0:0:
138,328,49153,1,0,0:0:0:0:
100,339,49270,5,2,0:0:0:0:
124,299,49387,1,0,0:0:0:0:
124,251,49504,1,2,0:0:0:0:
100,210,49621,1,0,0:0:0:0:
58,188,49739,6,0,L|64:148,1,40,8|0,0:3|0:0,0:0:0:0:
32,52,49973,2,0,L|72:57,1,40,8|0,0:0|0:0,0:0:0:0:
160,28,50208,2,0,L|154:68,1,40,8|4,0:0|0:0,0:0:0:0:
196,168,50442,2,0,L|155:162,1,40,8|4,0:0|0:0,0:0:0:0:
196,168,50677,6,0,P|236:180|312:168,1,120,4|0,0:0|2:0,0:0:0:0:
428,132,51145,6,2,B|420:172|420:172|428:192|428:192|420:212|408:248|440:288,1,160,2|4,1:3|0:0,0:0:0:0:
300,316,51848,1,2,0:0:0:0:
304,328,51966,1,0,0:0:0:0:
308,340,52083,1,8,0:0:0:0:
256,232,52317,1,2,0:0:0:0:
212,316,52552,1,0,0:0:0:0:
172,196,52786,5,2,0:0:0:0:
176,184,52904,1,0,0:0:0:0:
180,172,53021,1,8,0:0:0:0:
120,336,53255,1,2,0:0:0:0:
88,164,53489,1,0,0:0:0:0:
32,356,53723,5,2,0:0:0:0:
32,356,53841,1,0,0:0:0:0:
32,356,53958,1,8,0:0:0:0:
12,128,54192,1,2,0:0:0:0:
168,156,54427,6,0,L|248:168,1,80,0|2,0:0|0:0,0:0:0:0:
247,167,54778,1,0,0:0:0:0:
320,216,54895,2,0,L|328:256,1,40,8|0,0:0|0:0,0:0:0:0:
216,304,55130,2,0,L|224:264,1,40,2|0,0:0|0:0,0:0:0:0:
364,156,55364,6,0,P|388:196|380:256,1,80,0|2,0:0|0:0,0:0:0:0:
376,252,55716,1,0,0:0:0:0:
248,204,55833,2,0,P|264:168|296:144,1,80,8|2,0:0|0:0,0:0:0:0:
212,308,56302,6,0,L|132:312,1,80,0|2,0:0|0:0,0:0:0:0:
24,232,56653,1,0,0:0:0:0:
24,232,56770,2,0,L|104:236,1,80,8|2,0:0|0:0,0:0:0:0:
212,156,57239,2,0,L|136:160,1,40,0|0,0:0|0:0,0:0:0:0:
24,132,57473,2,0,L|100:136,1,40,0|0,0:0|0:0,0:0:0:0:
260,212,57708,1,8,0:3:0:0:
278,177,57825,1,0,0:0:0:0:
278,137,57942,1,8,0:3:0:0:
259,103,58059,1,0,0:0:0:0:
225,82,58177,6,0,B|288:108|341:82,1,120,4|0,0:3|2:0,0:0:0:0:
456,132,58645,6,2,P|428:160|432:232,1,80,4|2,0:0|0:0,0:0:0:0:
424,212,58997,1,0,0:2:0:0:
428,224,59114,1,4,0:3:0:0:
364,316,59348,1,2,0:0:0:0:
376,312,59466,1,0,0:2:0:0:
388,308,59583,1,8,0:0:0:0:
248,352,59817,1,2,0:0:0:0:
244,340,59934,1,0,0:0:0:0:
240,328,60052,5,4,0:3:0:0:
204,348,60169,1,0,3:0:0:0:
164,352,60286,1,2,0:0:0:0:
8,344,60520,1,8,0:0:0:0:
44,324,60637,1,0,3:0:0:0:
84,320,60754,1,2,0:0:0:0:
204,348,60989,2,0,P|192:308|200:264,1,80,4|2,0:3|0:0,0:0:0:0:
280,152,61458,2,0,P|292:192|284:236,1,80,8|2,0:0|0:0,0:0:0:0:
120,208,61927,6,0,L|128:128,1,80,8|2,0:3|0:0,0:0:0:0:
127,128,62278,1,0,0:0:0:0:
188,236,62395,2,0,L|168:272,1,40,8|0,0:0|0:0,0:0:0:0:
60,260,62630,2,0,L|46:222,1,40,2|0,0:0|0:0,0:0:0:0:
184,76,62864,6,0,P|200:124|192:176,1,80,4|2,0:3|0:0,0:0:0:0:
48,132,63333,2,0,P|60:96|88:64,1,80,8|2,0:0|0:0,0:0:0:0:
256,192,63802,5,8,0:3:0:0:
376,224,64036,1,2,0:0:0:0:
380,100,64270,1,8,0:0:0:0:
256,304,64505,1,2,0:0:0:0:
140,224,64739,2,0,L|76:216,2,53.3333333333333
332,188,65208,6,0,P|316:152|196:148,1,160,0|8,0:0|0:3,0:0:0:0:
208,137,66145,6,2,P|229:108|248:28,1,120,4|0,0:0|3:0,0:0:0:0:
370,141,66614,2,0,L|292:128,1,80,0|2,0:0|0:0,0:0:0:0:
354,274,67083,2,0,P|335:239|328:200,1,80,8|2,0:0|0:0,0:0:0:0:
240,328,67552,1,8,0:3:0:0:
267,252,67786,1,2,0:0:0:0:
168,284,68020,2,0,P|128:288|88:284,1,80,8|2,0:0|0:0,0:0:0:0:
32,320,68489,2,2,P|44:272|16:168,1,160,4|8,1:3|0:0,0:0:0:0:
132,192,69192,1,2,0:0:0:0:
8,100,69427,5,8,0:3:0:0:
116,80,69661,1,2,0:0:0:0:
184,204,69895,1,8,0:0:0:0:
76,184,70129,1,2,0:0:0:0:
252,48,70364,1,4,0:3:0:0:
288,220,70598,1,2,0:0:0:0:
200,124,70833,1,8,0:0:0:0:
352,96,71067,1,0,0:0:0:0:
336,280,71302,6,0,L|328:360,1,80,8|2,0:3|0:0,0:0:0:0:
176,224,71770,2,0,L|184:304,1,80,8|2,0:0|0:0,0:0:0:0:
412,164,72239,2,0,P|376:180|332:176,1,80,4|2,0:3|0:0,0:0:0:0:
100,220,72708,1,8,0:0:0:0:
113,211,72825,1,0,0:0:0:0:
128,205,72942,1,8,0:0:0:0:
144,203,73059,1,0,0:0:0:0:
160,203,73177,22,0,P|200:212|272:184,1,120,8|0,0:3|0:0,0:0:0:0:
256,288,73645,5,12,0:0:0:0:
320,240,73880,1,2,0:2:0:0:
256,120,74114,1,0,0:0:0:0:
192,240,74349,1,2,0:2:0:0:
320,84,74583,1,8,0:0:0:0:
192,84,74817,1,2,0:2:0:0:
320,240,75052,5,8,0:0:0:0:
256,288,75286,1,2,0:2:0:0:
256,288,75403,1,0,0:0:0:0:
256,288,75520,1,8,0:0:0:0:
192,240,75755,1,2,0:2:0:0:
352,172,75989,1,8,0:0:0:0:
160,172,76223,1,2,0:2:0:0:
160,172,76341,1,0,0:0:0:0:
160,172,76458,1,8,0:0:0:0:
368,100,76692,1,2,0:2:0:0:
144,100,76927,5,12,0:0:0:0:
104,99,77044,1,0,0:0:0:0:
70,120,77161,1,2,0:2:0:0:
52,155,77278,1,0,0:0:0:0:
54,194,77395,5,12,0:0:0:0:
80,224,77512,1,0,0:0:0:0:
90,262,77629,1,2,0:2:0:0:
81,301,77746,1,0,0:0:0:0:
56,331,77864,5,12,0:0:0:0:
36,298,77981,1,0,0:0:0:0:
47,261,78098,1,10,0:2:0:0:
81,243,78215,1,0,0:0:0:0:
118,257,78333,5,12,0:0:0:0:
156,270,78450,1,0,0:0:0:0:
195,274,78567,1,10,0:2:0:0:
235,269,78684,1,0,0:0:0:0:
272,255,78802,6,0,L|276:216,7,30.0000011444092,12|0|0|0|0|0|0|0,0:0|0:0|0:0|0:0|0:0|0:0|0:0|0:0,0:0:0:0:
188,192,79270,2,0,L|191:152,7,30.0000011444092,12|0|0|0|0|0|0|0,0:0|0:0|0:0|0:0|0:0|0:0|0:0|0:0,0:0:0:0:
100,128,79739,6,0,L|104:68,1,60.0000022888184,8|0,0:3|0:0,0:0:0:0:
40,240,79973,2,0,L|44:180,1,60.0000022888184,8|0,0:3|0:0,0:0:0:0:
188,192,80208,2,0,L|192:132,1,60.0000022888184,8|4,0:3|0:3,0:0:0:0:
32,148,80442,2,0,L|36:88,1,60.0000022888184,4|4,0:3|0:3,0:0:0:0:
256,260,80677,5,4,0:0:0:0:
