osu file format v13

[General]
AudioFilename: circlejerk_equals_osu.mp3
AudioLeadIn: 1000
PreviewTime: 420
Countdown: 0
SampleSet: Normal
StackLeniency: 0.7
Mode: 0
LetterboxInBreaks: 0
WidescreenStoryboard: 1

[Editor]
Bookmarks: 80677
DistanceSpacing: 0.6
BeatDivisor: 4
GridSize: 4
TimelineZoom: 3.199998

[Metadata]
Title:Circle Jerk Galactic
TitleUnicode:Circle Jerk Galactic
Artist:y0c1e
ArtistUnicode:y0c1e
Creator:WVS
Version:Challenging
Source:
Tags:Electronic C85 Decipher Saturnalize Dubstep -Bakari-
BeatmapID:391599
BeatmapSetID:152000

[Difficulty]
HPDrainRate:6
CircleSize:4
OverallDifficulty:5
ApproachRate:7
SliderMultiplier:1.6
SliderTickRate:1

[Events]
//Background and Video events
0,0,"CJG.png",0,0
//Break Periods
//Storyboard Layer 0 (Background)
//Storyboard Layer 1 (Fail)
//Storyboard Layer 2 (Pass)
//Storyboard Layer 3 (Foreground)
//Storyboard Sound Samples
//Background Colour Transformations
3,100,0,0,0

[TimingPoints]
990,468.75,4,2,0,10,1,0
6615,-100,4,2,0,10,0,0
8490,-133.333333333333,4,2,0,15,0,0
10365,-133.333333333333,4,2,0,25,0,0
13177,468.75,4,2,0,55,1,0
19270,-83.3333333333333,4,2,0,55,0,0
20677,-100,4,1,0,55,0,1
21145,-100,4,1,0,55,0,1
21614,-100,4,1,0,55,0,1
27708,-100,4,1,0,55,0,0
28177,-100,4,1,0,55,0,1
30520,-133.333333333333,4,1,0,55,0,1
30872,-100,4,1,0,55,0,1
35677,-100,4,3,0,55,0,0
38958,-83.3333333333333,4,3,0,55,0,1
39192,-100,4,3,0,55,0,0
42708,-100,4,3,0,55,0,1
43177,-100,4,3,0,55,0,0
46458,-83.3333333333333,4,3,0,55,0,1
46692,-100,4,3,0,55,0,0
51028,-100,4,3,0,10,0,0
51145,-100,4,3,0,55,0,0
51848,-100,4,1,0,55,0,0
64739,-66.6666666666667,4,1,0,55,0,0
65091,-100,4,1,0,55,0,0

[Colours]
Combo1 : 64,128,128
Combo2 : 150,190,35
Combo3 : 150,150,100
Combo4 : 95,110,90
Combo5 : 159,0,0

[HitObjects]
348,152,5677,6,0,L|344:312,1,160,0|2,0:0|0:0,0:0:0:0:
168,312,6615,2,0,L|164:152,1,160,0|2,0:0|0:0,0:0:0:0:
348,152,7552,5,0,3:0:0:0:
184,240,8021,1,2,0:0:0:0:
164,152,8490,1,4,0:3:0:0:
328,240,8958,1,10,1:2:0:0:
352,256,9427,6,0,L|288:276,2,60.0000022888184,4|0|8,3:0|0:0|0:0,0:0:0:0:
160,256,10365,2,0,L|224:276,2,60.0000022888184,0|0|2,0:0|0:0|1:2,0:0:0:0:
304,120,11302,6,0,L|296:184,2,60.0000022888184,0|0|8,0:0|0:0|1:2,0:0:0:0:
208,120,12240,2,0,L|216:184,1,60.0000022888184,0|0,1:0|0:0,0:0:0:0:
256,248,12708,6,0,B|228:256|228:256|196:248|164:240|164:240|136:248,1,120.000004577637,2|4,0:0|1:2,0:0:0:0:
36,316,13645,6,0,L|40:232,1,80,8|2,1:2|0:0,0:0:0:0:
176,172,14114,2,0,P|136:180|96:176,1,80,0|2,1:0|0:0,0:0:0:0:
0,96,14583,2,0,P|40:88|80:92,1,80,8|2,1:2|0:0,0:0:0:0:
180,176,15052,5,4,1:2:0:0:
180,176,15520,2,0,L|176:256,1,80,8|2,1:2|0:0,0:0:0:0:
224,112,15989,2,0,L|272:175,1,80,0|2,1:0|0:0,0:0:0:0:
216,36,16458,2,0,L|376:60,1,160,8|12,1:2|1:2,0:0:0:0:
484,36,17161,5,0,1:0:0:0:
484,148,17395,2,0,L|404:160,1,80,0|0,1:0|0:0,0:0:0:0:
316,228,17864,2,0,L|396:240,1,80,12|0,1:2|0:0,0:0:0:0:
484,296,18333,5,0,1:0:0:0:
400,244,18567,1,0,1:0:0:0:
396,360,18802,2,0,L|348:352,3,40,12|0|4|0,0:0|0:0|0:0|0:0,0:0:0:0:
320,360,19270,2,0,L|272:352,3,47.9999985351563,12|0|0|0,1:2|0:0|0:0|0:0,0:0:0:0:
236,360,19739,6,2,L|224:224,1,95.9999970703126,8|8,0:2|0:2,0:0:0:0:
243,120,20208,2,0,L|248:168,2,47.9999985351563,8|8|4,0:0|0:3|0:3,0:0:0:0:
256,176,20677,6,0,P|300:192|412:176,1,160,4|10,0:0|0:0,0:0:0:0:
409,177,21614,2,0,P|368:168|332:172,1,80,8|2,0:3|0:0,0:0:0:0:
432,256,22083,2,0,P|473:265|509:261,1,80,8|2,0:0|0:0,0:0:0:0:
464,348,22552,6,0,B|420:356|384:336|384:336|340:328|304:348,1,160,4|10,0:3|0:0,0:0:0:0:
292,356,23489,1,8,0:3:0:0:
164,228,23723,1,2,0:0:0:0:
164,356,23958,1,8,0:0:0:0:
292,228,24192,1,2,0:0:0:0:
408,300,24427,6,0,P|432:268|440:228,1,80,8|2,0:3|0:0,0:0:0:0:
512,96,24895,2,0,P|488:128|480:168,1,80,8|2,0:0|0:0,0:0:0:0:
332,144,25364,2,0,L|416:124,1,80,4|2,0:3|0:0,0:0:0:0:
408,300,25833,2,0,L|324:280,1,80,8|2,0:0|0:0,0:0:0:0:
200,328,26302,5,8,0:3:0:0:
176,248,26536,1,2,0:0:0:0:
336,248,26770,1,8,0:0:0:0:
312,328,27005,1,2,0:0:0:0:
200,328,27239,5,4,0:3:0:0:
336,248,27473,1,2,0:0:0:0:
256,196,27708,5,4,0:3:0:0:
256,196,27825,1,0,0:0:0:0:
256,196,27942,1,0,0:0:0:0:
256,196,28059,1,0,0:0:0:0:
256,196,28177,6,0,B|240:156|256:116|256:116|272:68|256:40,1,160,4|10,0:0|0:0,0:0:0:0:
248,48,29114,2,0,L|168:40,1,80,8|2,0:3|0:0,0:0:0:0:
264,124,29583,2,0,L|344:116,1,80,8|2,0:0|0:0,0:0:0:0:
472,100,30052,6,0,P|460:144|472:256,1,160,8|10,0:3|0:0,0:0:0:0:
476,264,30989,2,0,P|484:304|480:344,1,80,8|2,0:3|0:0,0:0:0:0:
347,294,31458,2,0,P|344:255|352:216,1,80,8|2,0:0|0:0,0:0:0:0:
232,332,31927,6,0,P|192:336|152:332,1,80,8|2,0:3|0:0,0:0:0:0:
152,184,32395,2,0,P|175:216|192:253,1,80,8|2,0:0|0:0,0:0:0:0:
68,324,32864,2,0,P|84:287|108:254,1,80,4|2,0:3|0:0,0:0:0:0:
232,332,33333,2,0,P|192:336|152:332,1,80,8|2,0:0|0:0,0:0:0:0:
28,248,33802,6,0,L|20:164,1,80,8|2,0:3|0:0,0:0:0:0:
96,64,34270,2,0,L|176:76,1,80,8|2,0:1|0:0,0:0:0:0:
336,76,34739,2,0,L|416:64,1,80,8|8,0:3|0:3,0:0:0:0:
491,168,35208,2,0,L|484:248,1,80,8|4,0:3|0:3,0:0:0:0:
476,356,35677,5,6,0:0:0:0:
332,288,36145,1,6,0:0:0:0:
444,356,36614,5,6,0:0:0:0:
304,260,37083,1,6,0:0:0:0:
412,356,37552,5,6,0:0:0:0:
276,232,38020,1,6,0:0:0:0:
380,356,38489,5,6,0:0:0:0:
248,204,38958,22,0,P|240:156|252:108,1,95.9999970703126,10|8,1:3|1:3,0:0:0:0:
476,28,39427,5,6,0:0:0:0:
332,96,39895,1,6,0:0:0:0:
444,28,40364,5,6,0:0:0:0:
304,124,40833,1,6,0:0:0:0:
412,28,41302,5,6,0:0:0:0:
276,152,41770,1,6,0:0:0:0:
380,28,42239,5,6,0:0:0:0:
248,180,42708,6,0,P|240:228|252:340,1,160,8|6,1:2|0:0,0:0:0:0:
408,216,43645,6,0,P|400:168|412:56,1,160,6|6,0:0|0:0,0:0:0:0:
100,57,44583,2,0,P|112:136|103:216,1,160,6|6,0:0|0:0,0:0:0:0:
256,336,45520,1,6,0:0:0:0:
104,215,45989,1,6,0:0:0:0:
112,228,46458,5,10,1:3:0:0:
208,232,46692,1,8,1:3:0:0:
304,236,46927,6,0,B|328:200|328:200|320:132,1,80,6|0,0:0|0:0,0:0:0:0:
424,72,47395,2,0,B|400:108|400:108|408:176,1,80,4|0,0:0|0:0,0:0:0:0:
304,88,47864,2,0,B|264:80|264:80|224:92,1,80,6|0,0:0|0:0,0:0:0:0:
428,220,48333,2,0,B|468:228|468:228|508:216,1,80,6|0,0:0|0:0,0:0:0:0:
392,324,48802,5,4,0:0:0:0:
366,305,48919,1,0,0:0:0:0:
335,295,49036,1,8,0:0:0:0:
304,295,49153,1,0,0:0:0:0:
273,305,49270,5,2,0:0:0:0:
235,317,49387,1,0,0:0:0:0:
197,326,49505,1,2,0:0:0:0:
159,315,49622,1,0,0:0:0:0:
120,304,49739,6,0,P|108:260|124:192,1,80,8|8,0:3|0:0,0:0:0:0:
28,128,50208,1,8,0:0:0:0:
28,128,50325,1,4,0:0:0:0:
28,128,50442,1,8,0:0:0:0:
28,128,50559,1,4,0:0:0:0:
28,128,50677,6,0,P|85:142|139:119,1,120,4|0,0:0|2:0,0:0:0:0:
212,152,51145,6,0,L|220:72,1,80,2|2,1:3|0:1,0:0:0:0:
312,8,51614,2,0,L|304:88,1,80,4|2,0:0|0:0,0:0:0:0:
396,152,52083,2,0,P|420:156|476:144,1,80,8|2,0:0|0:0,0:0:0:0:
460,260,52552,5,0,0:0:0:0:
368,232,52786,1,2,0:0:0:0:
276,260,53020,2,0,L|196:244,1,80,8|2,0:0|0:0,0:0:0:0:
128,104,53489,2,0,L|154:181,1,80,0|2,0:0|0:0,0:0:0:0:
36,280,53958,2,0,L|89:218,1,80,8|2,0:0|0:0,0:0:0:0:
204,84,54427,6,0,P|168:36|140:28,1,80,0|2,0:0|0:0,0:0:0:0:
0,36,54895,2,0,L|84:44,1,80,8|2,0:0|0:0,0:0:0:0:
216,92,55364,2,0,L|132:100,1,80,0|2,0:0|0:0,0:0:0:0:
72,192,55833,1,8,0:0:0:0:
136,284,56067,1,2,0:0:0:0:
256,332,56302,6,0,P|300:336|340:320,1,80,0|2,0:0|0:0,0:0:0:0:
476,252,56770,2,0,P|432:256|392:240,1,80,8|2,0:0|0:0,0:0:0:0:
312,136,57239,2,0,P|352:128|392:136,1,80,0|2,0:0|0:0,0:0:0:0:
276,208,57708,1,8,0:3:0:0:
250,189,57825,1,0,0:0:0:0:
233,162,57942,1,8,0:3:0:0:
229,130,58059,1,0,0:0:0:0:
237,100,58176,1,4,0:3:0:0:
244,108,58645,6,0,P|200:124|132:108,1,80,4|2,0:0|0:0,0:0:0:0:
72,180,59114,2,0,P|56:220|60:256,1,80,4|2,0:3|0:0,0:0:0:0:
156,316,59583,1,8,0:0:0:0:
256,264,59817,1,2,0:0:0:0:
352,324,60052,6,0,P|316:340|276:336,1,80,4|2,0:3|0:0,0:0:0:0:
160,204,60520,2,0,P|196:188|236:192,1,80,8|2,0:0|0:0,0:0:0:0:
428,204,60989,2,0,L|424:284,1,80,4|2,0:3|0:0,0:0:0:0:
256,344,61458,2,0,L|256:264,1,80,8|2,0:0|0:0,0:0:0:0:
84,204,61927,6,0,L|88:284,1,80,8|2,0:3|0:0,0:0:0:0:
80,132,62395,1,8,0:0:0:0:
87,283,62630,1,2,0:0:0:0:
172,192,62864,2,0,B|208:136|208:136|200:88,1,80,4|2,0:3|0:0,0:0:0:0:
200,100,63216,1,0,3:0:0:0:
192,76,63333,1,8,0:0:0:0:
256,204,63567,1,2,0:0:0:0:
320,76,63802,6,0,L|356:0,1,80,8|2,0:3|0:0,0:0:0:0:
374,133,64270,2,0,L|448:92,1,80,8|2,0:0|0:0,0:0:0:0:
386,212,64739,6,0,L|470:220,2,80,0|0|0,0:0|0:0|0:0,0:0:0:0:
256,160,65208,6,0,P|260:108|356:68,1,160,0|8,0:0|0:3,0:0:0:0:
356,76,66145,6,0,P|312:84|276:76,1,80,4|2,0:0|0:0,0:0:0:0:
180,128,66614,2,0,P|136:120|100:128,1,80,0|2,0:0|0:0,0:0:0:0:
101,256,67083,2,0,P|141:264|180:256,1,80,8|2,0:0|0:0,0:0:0:0:
304,336,67552,5,8,0:3:0:0:
208,336,67786,1,2,0:0:0:0:
352,256,68020,2,0,P|380:284|396:328,1,80,8|2,0:0|0:0,0:0:0:0:
116,320,68489,2,0,P|130:284|159:256,1,80,4|2,0:3|0:0,0:0:0:0:
296,200,68958,2,0,P|256:208|216:200,1,80,8|2,0:0|0:0,0:0:0:0:
168,116,69427,6,0,L|152:80,2,40,8|0|2,0:3|0:0|0:0,0:0:0:0:
256,68,69895,2,0,L|256:28,2,40,8|0|2,0:0|0:0|0:0,0:0:0:0:
344,116,70364,2,0,L|360:80,2,40,4|0|2,0:3|0:0|0:0,0:0:0:0:
256,224,70833,1,8,0:0:0:0:
168,116,71067,1,0,0:0:0:0:
344,116,71302,5,8,0:3:0:0:
412,184,71536,1,2,0:0:0:0:
416,280,71770,1,8,0:0:0:0:
344,348,72005,1,2,0:0:0:0:
276,280,72239,2,0,P|268:240|280:192,1,80,0|2,0:0|0:0,0:0:0:0:
232,348,72708,5,8,0:0:0:0:
202,359,72825,1,0,0:0:0:0:
170,365,72942,1,8,0:0:0:0:
138,365,73059,1,0,0:0:0:0:
107,359,73176,1,8,0:3:0:0:
96,364,73645,6,0,P|80:328|80:288,1,80,12|2,0:0|0:2,0:0:0:0:
128,160,74114,2,0,P|144:196|144:236,1,80,0|2,0:0|0:2,0:0:0:0:
0,288,74583,2,0,P|10:250|36:219,1,80,8|2,0:0|0:2,0:0:0:0:
148,240,75052,5,8,0:0:0:0:
176,320,75286,1,2,0:2:0:0:
176,320,75403,1,0,0:0:0:0:
176,320,75520,2,0,L|92:328,1,80,8|2,0:0|0:2,0:0:0:0:
16,248,75989,2,0,P|8:204|36:136,1,120,8|0,0:0|0:0,0:0:0:0:
60,116,76458,2,0,P|76:152|68:192,1,80,8|2,0:0|0:2,0:0:0:0:
40,324,76927,5,12,0:0:0:0:
66,305,77044,1,0,0:0:0:0:
97,295,77161,1,2,0:2:0:0:
128,295,77278,1,0,0:0:0:0:
159,305,77395,5,12,0:0:0:0:
197,317,77512,1,0,0:0:0:0:
235,326,77630,1,2,0:2:0:0:
273,315,77747,1,0,0:0:0:0:
312,304,77864,6,0,L|324:236,3,40,12|0|10|0,0:0|0:0|0:2|0:0,0:0:0:0:
408,228,78333,2,0,L|420:160,3,40,12|0|10|0,0:0|0:0|0:2|0:0,0:0:0:0:
312,132,78802,6,0,L|306:172,3,40,12|0|2|0,0:0|0:0|0:2|0:0,0:0:0:0:
328,232,79270,2,0,L|321:271,3,40,12|0|2|0,0:0|0:0|0:2|0:0,0:0:0:0:
316,288,79739,6,0,P|276:300|208:288,1,80,8|0,0:3|0:0,0:0:0:0:
64,356,80208,2,0,P|104:344|172:356,1,80,8|0,0:3|0:0,0:0:0:0:
256,372,80677,5,4,1:0:0:0:
