osu file format v13

[General]
AudioFilename: circlejerk_equals_osu.mp3
AudioLeadIn: 1000
PreviewTime: 420
Countdown: 0
SampleSet: Soft
StackLeniency: 0.7
Mode: 0
LetterboxInBreaks: 0
WidescreenStoryboard: 0

[Editor]
Bookmarks: 80677
DistanceSpacing: 1.8
BeatDivisor: 6
GridSize: 4
TimelineZoom: 2.599999

[Metadata]
Title:Circle Jerk Galactic
TitleUnicode:Circle Jerk Galactic
Artist:y0c1e
ArtistUnicode:y0c1e
Creator:WVS
Version:Advanced
Source:
Tags:Electronic C85 Decipher Saturnalize Dubstep -Bakari-
BeatmapID:392443
BeatmapSetID:152000

[Difficulty]
HPDrainRate:5
CircleSize:4
OverallDifficulty:4
ApproachRate:6
SliderMultiplier:1.4
SliderTickRate:2

[Events]
//Background and Video events
0,0,"CJG.png",0,0
//Break Periods
//Storyboard Layer 0 (Background)
//Storyboard Layer 1 (Fail)
//Storyboard Layer 2 (Pass)
//Storyboard Layer 3 (Foreground)
//Storyboard Sound Samples
//Background Colour Transformations
3,100,0,0,0

[TimingPoints]
990,468.75,4,2,0,5,1,0
13177,468.75,4,2,0,50,1,0
20677,-100,4,2,0,50,0,1
21145,-100,4,1,0,50,0,1
21614,-100,4,2,0,50,0,1
23020,-100,4,1,0,50,0,1
23489,-100,4,2,0,50,0,1
27708,-100,4,2,0,50,0,0
28177,-100,4,2,0,50,0,1
28645,-100,4,1,0,50,0,1
29231,-100,4,2,0,50,0,1
30520,-100,4,1,0,50,0,1
30872,-100,4,2,0,50,0,1
35677,-100,4,3,0,35,0,0
38958,-100,4,3,0,50,0,1
39192,-100,4,3,0,35,0,0
42708,-100,4,1,0,50,0,1
43177,-100,4,3,0,50,0,0
46458,-100,4,3,0,50,0,1
46692,-100,4,2,0,50,0,0
50882,-100,4,3,0,5,0,0
50940,-100,4,3,0,50,0,0
51087,-100,4,1,0,50,0,0
51673,-100,4,2,0,50,0,0
58587,-100,4,1,0,50,0,0
59173,-100,4,2,0,50,0,0
64739,-100,4,2,0,50,0,0
65052,-100,4,2,0,50,0,0
65882,-100,4,2,0,5,0,0
65940,-100,4,2,0,50,0,0
66145,-100,4,1,0,50,0,0
66848,-100,4,2,0,50,0,0

[Colours]
Combo1 : 64,128,128
Combo2 : 150,190,35
Combo3 : 150,150,100
Combo4 : 95,110,90
Combo5 : 159,0,0

[HitObjects]
96,80,13177,6,0,L|104:152,1,70,4|2,3:2|0:0,0:0:0:0:
176,192,13645,2,0,L|184:264,1,70,0|2,1:0|0:0,0:0:0:0:
248,320,14114,2,0,P|320:320|368:272,1,140,0|0,3:0|1:0,0:0:0:0:
288,243,14817,1,2,0:0:0:0:
204,252,15052,6,0,B|152:252|152:252|116:244|116:244|64:244,1,140,4|0,3:2|1:0,0:0:0:0:
4,188,15755,1,2,0:0:0:0:
0,104,15989,2,0,P|8:64|24:40,1,70,0|2,3:0|0:0,0:0:0:0:
108,36,16458,2,0,P|100:76|84:100,1,70,0|2,1:0|0:0,0:0:0:0:
12,144,16927,5,4,3:2:0:0:
88,180,17161,1,0,3:0:0:0:
168,152,17395,2,0,L|240:152,1,70
316,124,17864,2,0,P|308:156|316:192,1,70,4|0,3:2|3:0,0:0:0:0:
356,264,18333,2,0,L|284:264,1,70
208,292,18802,6,0,P|216:260|208:224,1,70,4|0,3:2|3:0,0:0:0:0:
132,256,19270,2,0,P|124:288|132:324,1,70,4|0,3:2|3:0,0:0:0:0:
200,372,19739,2,0,L|284:368,1,70,2|0,1:3|1:0,0:0:0:0:
340,320,20208,2,0,L|382:318,2,35,0|0|0,1:0|1:0|1:0,0:0:0:0:
260,252,20677,6,0,P|252:208|276:152,1,105,4|0,1:0|0:0,0:0:0:0:
308,124,21145,2,2,B|264:124|264:124|212:112|212:112|168:112,1,140,2|0,1:3|1:0,0:0:0:0:
88,96,21848,1,2,0:0:0:0:
20,144,22083,2,0,P|16:176|28:212,1,70,2|2,1:3|0:0,0:0:0:0:
100,256,22552,6,0,P|156:240|192:184,1,105,0|0,1:0|0:0,0:0:0:0:
195,164,23020,2,2,P|209:210|289:246,1,140,2|0,1:3|1:0,0:0:0:0:
356,196,23723,1,2,0:0:0:0:
278,162,23958,1,2,1:3:0:0:
287,246,24192,1,2,0:0:0:0:
356,196,24427,6,0,B|388:192|388:192|424:200,1,70,0|2,1:0|0:0,0:0:0:0:
468,128,24895,2,0,B|436:132|436:132|400:124,1,70,2|2,1:3|0:0,0:0:0:0:
340,64,25364,2,0,L|268:68,1,70,0|2,1:0|0:0,0:0:0:0:
148,124,26067,1,2,0:0:0:0:
80,72,26302,6,0,P|64:112|108:200,1,140,0|2,1:0|1:3,0:0:0:0:
184,208,27005,1,2,0:0:0:0:
268,192,27239,2,0,L|336:172,1,70,0|2,1:0|0:0,0:0:0:0:
416,188,27708,2,0,L|450:178,2,35,8|8|4,1:0|1:3|1:3,0:0:0:0:
364,252,28177,6,0,P|304:292|272:288,1,105,4|0,1:0|0:0,0:0:0:0:
240,268,28645,2,2,P|184:284|116:240,1,140,2|0,1:3|0:0,0:0:0:0:
190,200,29348,1,2,0:0:0:0:
252,144,29583,2,0,P|264:96|260:76,1,70,2|2,1:3|0:0,0:0:0:0:
196,24,30052,6,0,B|244:24|244:24|300:16,1,105,0|0,1:0|0:0,0:0:0:0:
336,36,30520,2,2,P|420:16|476:64,1,140,2|0,1:3|1:0,0:0:0:0:
396,100,31223,1,2,0:0:0:0:
332,152,31458,2,0,P|324:188|332:224,1,70,2|2,1:3|0:0,0:0:0:0:
400,268,31927,6,0,L|472:272,1,70,0|2,1:0|0:0,0:0:0:0:
476,188,32395,2,0,L|404:184,1,70,2|2,1:3|0:0,0:0:0:0:
330,220,32864,2,0,L|258:216,1,70,0|2,1:0|0:0,0:0:0:0:
131,167,33567,1,2,0:0:0:0:
50,192,33802,6,0,P|37:229|39:265,1,70,0|2,1:0|0:0,0:0:0:0:
99,316,34270,2,0,P|137:308|167:289,1,70,2|2,1:3|0:0,0:0:0:0:
184,212,34739,2,0,P|158:182|126:165,1,70,0|0,1:3|1:3,0:0:0:0:
52,192,35208,2,0,L|8:192,2,35,8|4|4,1:3|1:3|1:3,0:0:0:0:
124,148,35677,5,0,3:0:0:0:
280,92,36145,1,0,3:0:0:0:
320,256,36614,1,0,3:0:0:0:
204,132,37082,1,0,3:0:0:0:
368,164,37552,5,0,0:0:0:0:
236,268,38020,1,0,0:0:0:0:
72,232,38489,1,0,0:0:0:0:
100,68,38958,2,0,P|128:88|152:120,1,70,2|8,1:3|1:3,0:0:0:0:
172,196,39427,5,0,0:0:0:0:
80,336,39895,1,0,0:0:0:0:
20,180,40364,1,0,0:0:0:0:
172,112,40833,1,0,0:0:0:0:
300,220,41302,5,0,0:0:0:0:
200,352,41770,1,0,0:0:0:0:
100,216,42239,2,0,L|176:208,1,70,0|0,0:0|2:0,0:0:0:0:
288,148,42708,2,0,P|304:100|292:48,1,105,2|0,1:3|0:0,0:0:0:0:
260,20,43177,6,0,L|184:28,1,70,2|0,0:2|0:0,0:0:0:0:
108,4,43645,2,0,P|115:41|116:80,1,70,2|0,0:2|0:0,0:0:0:0:
88,152,44114,2,0,L|164:144,1,70,2|0,0:2|0:0,0:0:0:0:
240,168,44582,2,0,P|232:136|232:92,1,70,2|0,0:2|0:0,0:0:0:0:
312,116,45052,2,0,P|372:112|420:40,1,140,2|2,0:2|0:2,0:0:0:0:
336,36,45755,1,0,0:0:0:0:
256,60,45989,2,0,B|220:60|220:60|184:52,1,70,2|0,0:2|0:0,0:0:0:0:
112,128,46458,6,0,B|148:128|148:128|184:136,1,70,2|0,1:3|1:3,0:0:0:0:
236,196,46927,6,0,P|236:232|248:264,1,70,2|0,0:2|0:0,0:0:0:0:
236,348,47395,2,0,L|304:336,1,70,2|0,0:2|0:0,0:0:0:0:
388,356,47864,2,0,P|388:320|376:288,1,70,2|0,0:2|0:0,0:0:0:0:
388,204,48332,2,0,L|320:216,1,70,2|0,0:2|0:0,0:0:0:0:
236,196,48802,2,0,L|202:202,3,35,4|4|2|8,0:3|0:3|0:2|0:2,0:0:0:0:
160,188,49270,2,0,L|126:194,3,35,2|8|2|8,0:0|0:2|0:0|0:2,0:0:0:0:
88,172,49739,6,0,P|72:140|72:104,1,70,2|0,1:3|1:0,0:0:0:0:
140,56,50208,2,0,P|156:88|156:124,1,70,0|0,1:3|1:0,0:0:0:0:
100,184,50677,6,0,P|164:160|224:180,1,105,4|0,3:0|2:0,0:0:0:0:
233,188,51145,6,2,P|264:252|241:320,1,140,6|0,1:0|1:0,0:0:0:0:
169,352,51848,1,2,2:0:0:0:
89,325,52083,2,0,L|20:335,1,70,2|2,1:3|0:0,0:0:0:0:
22,250,52552,2,0,L|91:240,1,70,0|2,1:0|0:0,0:0:0:0:
145,176,53020,2,0,P|154:145|150:106,1,70,2|2,1:3|0:0,0:0:0:0:
95,44,53489,2,0,P|163:75|225:63,1,140,0|2,1:0|1:3,0:0:0:0:
294,14,54192,1,2,0:0:0:0:
366,56,54427,6,0,B|400:60|400:60|430:80,1,70,0|2,1:0|2:0,0:0:0:0:
399,158,54895,2,2,B|365:154|365:154|335:134,1,70,2|2,1:3|2:0,0:0:0:0:
251,123,55364,2,0,P|202:168|197:238,1,140,0|2,1:0|1:3,0:0:0:0:
256,296,56067,1,2,0:0:0:0:
340,308,56301,6,0,P|389:263|394:193,1,140,0|2,1:0|1:3,0:0:0:0:
346,124,57005,1,2,0:0:0:0:
262,131,57239,2,0,B|224:131|224:131|195:115,1,70,0|2,1:0|0:0,0:0:0:0:
251,51,57708,2,0,L|291:51,2,35,8|2|4,1:2|1:3|1:3,0:0:0:0:
166,40,58177,6,0,P|131:67|122:148,1,105,4|0,3:0|0:0,0:0:0:0:
128,163,58645,2,2,P|196:198|259:167,1,140,6|0,1:0|1:0,0:0:0:0:
312,120,59348,1,2,0:0:0:0:
392,148,59583,6,0,L|464:156,1,70,2|2,1:3|0:0,0:0:0:0:
420,228,60052,2,0,P|412:260|412:300,1,70,0|2,1:3|0:0,0:0:0:0:
340,256,60520,2,0,L|268:248,1,70,2|2,1:3|0:0,0:0:0:0:
312,176,60989,2,0,P|320:144|320:104,1,70,0|2,1:0|0:0,0:0:0:0:
240,132,61458,2,0,P|216:109|181:89,1,70,0|2,1:0|0:0,0:0:0:0:
160,172,61927,6,0,P|128:181|93:201,1,70,0|2,1:0|0:0,0:0:0:0:
100,288,62395,2,0,P|131:278|166:258,1,70,2|2,1:3|0:0,0:0:0:0:
232,172,62864,2,0,P|252:232|332:256,1,140,0|2,1:0|1:3,0:0:0:0:
312,176,63567,1,2,0:0:0:0:
394,178,63802,2,0,P|371:115|307:91,1,140,0|2,1:0|1:3,0:0:0:0:
208,124,64505,1,2,0:0:0:0:
96,92,64739,6,0,L|108:44,2,46.6666666666667,0|0|0,1:0|1:0|1:0,0:0:0:0:
1,148,65208,6,2,P|5:201|35:243,1,105,0|0,1:0|0:0,0:0:0:0:
76,246,65677,2,0,L|173:205,1,105,4|0,3:0|0:0,0:0:0:0:
214,210,66145,6,2,P|243:252|236:348,1,140,6|0,0:0|0:0,0:0:0:0:
169,382,66848,1,2,0:0:0:0:
251,365,67083,2,0,L|320:371,1,70,2|2,1:3|0:0,0:0:0:0:
389,322,67552,2,0,P|396:287|395:252,1,70,0|2,1:3|0:0,0:0:0:0:
349,182,68020,2,0,L|280:176,1,70,2|2,1:3|0:0,0:0:0:0:
211,225,68489,2,0,P|237:155|206:95,1,140,0|2,1:0|1:3,0:0:0:0:
129,120,69192,1,2,0:0:0:0:
129,205,69427,6,0,L|129:287,1,70,0|2,1:0|0:0,0:0:0:0:
96,352,69895,2,0,P|134:347|167:351,1,70,2|2,1:3|0:0,0:0:0:0:
247,370,70364,2,0,L|247:288,1,70,0|2,1:0|0:0,0:0:0:0:
280,223,70832,2,0,P|242:228|209:224,1,70,2|2,1:3|0:0,0:0:0:0:
178,145,71302,2,0,P|242:122|311:145,1,140,0|2,1:0|1:3,0:0:0:0:
375,194,72005,1,2,0:0:0:0:
397,274,72239,2,0,L|386:345,1,70,0|2,1:0|0:2,0:0:0:0:
313,300,72708,2,0,L|307:335,2,35,8|8|0,1:2|1:3|1:0,0:0:0:0:
233,327,73177,6,0,B|167:349|167:349|101:319,1,140,8|4,0:3|1:0,0:0:0:0:
58,248,73880,1,2,0:0:0:0:
110,182,74114,2,0,B|176:160|176:160|242:190,1,140,0|0,3:0|1:3,0:0:0:0:
316,224,74817,1,2,0:0:0:0:
371,287,75052,6,0,P|377:330|370:367,1,70,0|2,3:0|0:0,0:0:0:0:
292,332,75520,2,0,P|286:289|293:252,1,70,0|2,3:0|0:0,0:0:0:0:
349,203,75989,2,0,L|421:208,1,70,0|2,3:0|0:0,0:0:0:0:
443,127,76458,2,0,L|373:122,1,70,0|2,3:0|0:0,0:0:0:0:
292,96,76927,6,0,L|257:98,3,35,0|0|0|0,1:0|1:0|1:0|1:0,0:0:0:0:
221,120,77395,2,0,L|186:122,3,35,2|0|0|0,1:3|1:0|1:0|1:0,0:0:0:0:
149,143,77864,2,0,L|114:145,3,35,0|0|0|0,1:0|1:0|1:0|1:0,0:0:0:0:
80,170,78333,2,0,L|45:172,3,35,2|0|0|0,1:3|1:0|1:0|1:0,0:0:0:0:
12,199,78802,2,0,P|5:237|12:276,1,70,0|0,1:0|1:0,0:0:0:0:
58,335,79270,2,0,L|135:335,1,70,2|0,1:3|1:0,0:0:0:0:
194,283,79739,6,0,P|201:245|194:206,1,70,12|12,1:3|1:3,0:0:0:0:
148,147,80207,2,0,L|71:147,1,70,4|4,1:3|1:3,0:0:0:0:
101,239,80677,5,4,1:0:0:0:
